#TITLE:Magical Jet Tour;
#SUBTITLE:;
#ARTIST:Mutsuhiko Izumi;
#TITLETRANSLIT:;
#SUBTITLETRANSLIT:;
#ARTISTTRANSLIT:;
#CREDIT:;
#BANNER:Magical Jet Tour.png;
#BACKGROUND:Magical Jet Tour-bg.png;
#LYRICSPATH:;
#CDTITLE:;
#MUSIC:Magical Jet Tour.ogg;
#OFFSET:-0.080;
#SAMPLESTART:34.820;
#SAMPLELENGTH:15.660;
#SELECTABLE:YES;
#BPMS:0.000=138.000;
#STOPS:;
#BGCHANGES:;

//---------------dance-single - ----------------
#NOTES:
     dance-single:
     :
     Hard:
     8:
     0.601,0.531,0.211,0.281,0.223:
0000
0000
0000
0000
,
0000
0000
0000
0000
,
1000
0100
0001
0100
1000
0010
0001
0010
,
1000
0000
0100
0000
0001
0000
0100
0000
1000
0001
0000
0001
0000
0001
0000
0000
,
0100
0010
1000
0000
0100
0010
0001
0000
,
0100
0000
0010
0000
1000
0000
0010
0000
0200
0001
0000
0001
0000
0001
0000
0000
,
0310
1000
0100
0000
0010
0001
0100
0000
,
0010
0000
1000
0000
0100
0000
0010
0000
0002
1000
0000
1000
0000
1000
0000
0000
,
0013
0100
1000
0100
0010
0000
1002
0000
,
0103
1000
0100
0001
1000
0010
0001
0010
,
1000
0100
0010
0100
1000
0010
1002
0000
,
0103
0001
0100
0010
1000
0100
1000
0000
,
0001
0010
0100
0010
0001
0000
2001
0000
,
3010
0100
1000
0100
0001
0010
1000
0010
,
0001
0010
0100
0010
0001
1000
2001
0000
,
3010
0000
0010
0000
0010
0000
0000
1000
0000
0001
0000
1001
0000
0000
0000
0000
,
0001
0010
0100
0010
0001
0010
1100
0000
,
1000
0010
1000
0000
0001
1000
0001
1000
,
0001
0010
0100
0010
0001
0010
1100
0000
,
1000
0000
0001
0000
1000
0000
0001
0000
1000
0100
1000
0000
0001
0100
0001
0000
,
1000
0001
0100
0001
0010
0000
0012
0000
,
0103
0001
1000
0001
0010
0100
0010
0100
,
1000
0001
0100
0001
0010
0000
0012
0000
,
1003
0100
1000
0000
0001
0000
0000
0010
0000
0100
0000
0110
0000
0000
0000
0000
,
2000
0000
0002
3000
,
1003
0000
0001
0100
0000
0100
0001
0000
1000
0000
0001
0010
0000
0010
0001
0000
,
2000
0000
0002
3000
,
0013
0100
0010
0000
0100
0010
0100
0000
0010
0000
0001
0000
1000
0000
0100
0000
,
0010
0000
0001
0010
0000
1000
0010
0000
0012
0000
0000
0000
0000
0000
0000
0000
,
1003
0001
0010
0001
0010
0001
0010
0100
,
1000
0010
0001
0010
1000
0100
0010
0000
,
0001
0100
1000
0100
1000
0100
1000
0100
,
0001
0010
0100
1000
0100
0010
1001
0000
,
0002
0103
2000
3100
,
0001
0010
1000
0010
0100
1000
0002
0000
,
2003
3100
0002
0103
,
1000
0000
0001
0010
0000
0010
0001
0000
1000
0100
1000
0000
0002
0000
0000
0000
,
1003
0100
0010
0100
1000
0100
0011
0000
,
0001
0100
0001
0010
0100
1000
0100
1000
,
0001
0010
0100
0010
0001
0010
1100
0000
,
1000
0001
0010
0100
1000
0010
1000
0010
,
2000
0000
0002
3000
,
1003
0100
1000
0000
0001
0100
0001
0000
1000
0000
0100
0000
0010
0000
0001
0000
,
1000
0000
0010
1000
0000
0100
1000
0000
1002
0000
0000
0000
0000
0000
0000
0000
,
0103
0010
1000
0010
0100
0000
1002
0000
,
0013
0100
1000
0100
0010
0001
0010
1000
,
0010
0001
0100
0010
1000
0000
1002
0000
,
0103
0001
0100
0000
0001
1000
0000
0010
0000
0010
0000
0110
0000
0000
0000
0000
;

//---------------dance-single - ----------------
#NOTES:
     dance-single:
     :
     Medium:
     6:
     0.437,0.391,0.223,0.422,0.070:
0000
0000
0000
0000
,
0000
0000
0000
0000
,
1000
0100
0001
0100
,
1000
0000
0001
0000
0100
0010
0010
0000
,
1000
0100
0010
0000
0012
0000
1000
0000
,
0103
0000
0100
0000
0001
1000
0001
0000
,
0010
0100
1000
0000
2100
0000
0001
0000
,
3010
0000
0010
0000
1000
0001
1000
0000
,
0200
0310
2002
3003
,
0001
0100
0100
0000
1000
0100
0100
0000
,
0020
0130
2002
3003
,
1000
0100
0100
0010
0001
0001
0000
0000
,
0100
0010
1020
0130
,
0001
1000
1000
0000
0010
0100
0100
0000
,
0001
1000
2010
3100
,
0010
0000
0001
0000
0010
0000
0000
0001
0000
1000
0000
0001
0000
0000
0000
0000
,
2000
3010
0102
0013
,
0100
1000
0100
0000
0010
0000
0010
0000
,
0002
0103
2010
3100
,
0010
0001
0010
0000
0100
0000
0100
0000
,
2000
3001
2002
3003
,
0001
0010
0001
0000
1000
0010
1000
0000
,
0010
0100
0220
0330
,
0010
0000
0100
0000
0010
0000
0000
1000
0000
0001
0000
1000
0000
0000
0000
0000
,
0200
0000
0020
0030
,
1300
0100
1000
0000
0001
0000
1000
0000
,
1002
0000
2000
3000
,
0013
0010
0100
1000
,
0001
0000
0000
0001
0000
0000
0001
0000
1000
0000
0000
0000
0000
0000
0000
0000
,
0010
0100
0010
0100
,
0001
1000
0001
0000
0010
0000
0000
0000
,
1100
1000
0001
0001
,
0010
0100
0010
0000
0001
0000
1001
0000
,
2000
0010
3002
0010
,
1003
0000
0100
0000
0010
0001
0001
0000
,
2000
0100
3002
0100
,
1003
0000
0000
1000
0000
0000
1000
0000
0001
0000
0000
0000
0101
0000
0000
0000
,
0100
0001
0102
1003
,
1000
0010
1000
0000
0001
0010
0001
0000
,
1000
0010
2010
3001
,
0010
0100
0010
0000
0001
0000
1000
0000
,
1002
0000
2000
3000
,
0103
0001
0100
0001
2000
0000
3200
0000
,
0320
0000
0000
0001
0000
0000
0031
0000
0010
0000
0000
0000
0000
0000
0000
0000
,
0100
1000
1020
0130
,
0001
1000
1000
0000
0010
0100
0100
0000
,
0001
0010
2100
3010
,
0100
0000
0001
0000
0100
0000
0000
0001
0000
1000
0000
0001
0000
0000
0000
0000
;

//---------------dance-single - ----------------
#NOTES:
     dance-single:
     :
     Easy:
     3:
     0.365,0.392,0.352,0.316,0.000:
0000
0000
0000
0000
,
0000
0000
0000
0000
,
1000
0100
0010
0100
,
1000
0001
0020
0000
,
0031
0100
0102
0000
,
1003
0100
0001
0100
,
1000
0010
1020
0000
,
0130
0001
1000
1000
,
0001
0010
0100
1002
,
0103
0100
0010
0010
,
1000
0100
0010
2001
,
3010
0000
0010
0000
,
1000
0100
0010
1002
,
0103
1000
0100
0001
,
1000
0100
0010
1002
,
1003
0010
0100
0000
,
0001
0010
0210
0320
,
0031
1000
1001
1001
,
0001
0100
1020
2030
,
3001
0010
1100
1100
,
0010
0001
2001
0000
,
3001
0100
1000
0100
,
0001
1000
2001
0000
,
3100
0001
0100
0000
,
2000
0000
0002
3003
,
0001
1100
0001
1010
,
2000
0000
0002
3000
,
0013
0100
1000
0200
,
0020
0000
0000
0300
0000
0000
0030
0000
0110
0000
0000
0000
0000
0000
0000
0000
,
0001
0001
0001
1010
,
1000
0100
0001
0100
,
1000
1000
1000
0101
,
0001
0010
1000
0010
,
0100
1000
0010
1000
,
0100
0010
0001
0000
,
0001
0010
0100
0010
,
0001
0100
0010
1010
,
1000
0100
0210
0000
,
1000
1300
1001
1001
,
0001
0100
0201
0000
,
0001
0301
0110
0110
,
0020
0000
0230
0000
,
0301
0001
1000
0200
,
0020
0000
0000
0300
0000
0000
0030
0000
0110
0000
0000
0000
0000
0000
0000
0000
,
0100
1000
1020
0100
,
1030
0001
0010
0010
,
0001
0100
0102
0000
,
1003
0100
0010
1001
;

//---------------dance-single - ----------------
#NOTES:
     dance-single:
     :
     Beginner:
     1:
     0.189,0.220,0.012,0.047,0.000:
0000
0000
0000
0000
,
0000
0000
0000
0000
,
1000
0000
1000
0000
,
0100
0000
0100
0000
,
1000
1000
1000
0000
,
0001
0001
0001
0000
,
0100
0000
0100
0000
,
0010
0010
0010
0000
,
1000
0001
1000
0000
,
0010
0000
0010
0000
,
1000
0001
1000
0000
,
0100
0000
0000
0000
,
0010
0100
0010
0000
,
0001
0000
0001
0000
,
0010
0100
0010
0000
,
0001
0000
0000
0000
,
1000
1000
1000
0000
,
0001
0001
0001
0000
,
1000
1000
1000
0000
,
0001
0001
0001
0000
,
0010
0100
0010
0000
,
0001
0000
0001
0000
,
1000
0001
1000
0000
,
0010
0000
0000
0000
,
2000
0000
0002
0000
,
3003
0000
0000
0000
,
0001
0000
1000
0000
,
0100
0100
0100
0100
,
0100
0000
0000
0000
,
1000
0001
1000
0001
,
1000
1000
1000
0000
,
0001
1000
0001
1000
,
0001
0001
0001
0000
,
0100
0000
0010
0000
,
0100
0000
0001
0000
,
1000
0000
0100
0000
,
0010
0010
0010
0000
,
0100
0010
0100
0000
,
1000
0000
0001
0000
,
0100
0010
0100
0000
,
0001
0000
1000
0000
,
0002
0000
2000
0000
,
3003
0000
0000
0000
,
0000
0000
1001
0000
,
0001
1000
0001
0000
,
0010
0000
0010
0000
,
0001
1000
0001
0000
,
0100
0000
0000
0000
;

//---------------dance-double - ----------------
#NOTES:
     dance-double:
     :
     Hard:
     8:
     0.588,0.503,0.164,0.293,0.152:
00000000
00000000
00000000
00000000
,
00000000
00000000
00000000
00000000
,
00000001
00000100
00001000
00000100
00000010
00010000
00001000
00010000
,
00000010
00000100
00001000
00000100
00000001
00000001
00000001
00000000
,
00001000
00000100
00000010
00000100
00010000
00001000
00020000
00000000
,
00130000
10000000
00010000
01000000
00001000
00000000
00010000
00010000
,
00001000
00000100
00000010
00000100
00000001
00001000
00000100
00000000
,
00010000
00001000
00010000
00100000
01000000
00010000
20010000
00000000
,
31000000
00100000
00010000
00100000
00002000
00000000
01003000
00000000
,
00100000
10000000
00100000
01000000
00001000
00010000
00001000
00010000
,
00001000
00000010
00000100
00000010
00000001
00001000
00002001
00000000
,
00003010
00000100
00001000
00000000
00010000
00100000
01000000
00000000
,
00001000
01000000
00010000
01000000
00200000
00000000
10300000
00000000
,
00010000
00100000
00001000
00010000
00000100
00001000
00000010
00000100
,
00000002
00001003
00002002
00000003
,
00003010
00001000
00000010
00000000
00010000
00001000
00000000
00100000
00000000
00010000
00000000
00110000
00000000
00000000
00000000
00000000
,
00100000
00010000
10000000
00010000
01000000
00000000
02100000
00000000
,
03001000
00001000
00010000
00000000
00000100
00001000
00000100
00000010
,
00000010
00000001
00001000
00000001
00000100
00000000
00000120
00000000
,
00010030
00010000
00001000
00000000
00100000
00010000
01000000
10000000
,
01000000
00010000
00100000
00001000
00010000
00000000
00012000
00000000
,
00003100
00000001
00000100
00000010
00001000
00000100
00001000
00000100
,
00010000
01000000
00100000
01000000
10000000
00000000
00120000
00000000
,
10030000
01000000
10000000
00000000
00010000
01000000
00000000
00001000
00000000
00010000
00000000
00011000
00000000
00000000
00000000
00000000
,
00002000
00003100
00000002
00000013
,
00000100
00000000
00010000
00001000
00000000
00001000
00010000
00000000
00000100
00000000
00010000
00001000
00000000
00001000
00010000
00000000
,
02000000
13000000
00200000
00310000
,
00100000
10000000
01000000
00010000
00001000
00010000
01000000
10000000
,
00010000
00000000
00000000
00100000
00000000
00000000
00001000
00000000
00012000
00000000
00000000
00000000
00000100
00000000
00000000
00000000
,
00013000
00000010
00001000
00000010
00010000
00000010
00000100
00000001
,
00000010
00000100
00001000
00010000
01000000
00100000
00010000
00000000
,
00001000
00100000
00010000
00100000
00001000
00100000
01000000
10000000
,
00100000
00100000
00000000
01000000
00001000
00010000
00011000
00000000
,
00001000
00000010
00000001
00000010
00001000
00010000
00000010
00010000
,
00001000
00000100
00000010
00010000
00001000
00100000
00010000
00000000
,
00010000
01000000
10000000
01000000
00010000
00100000
01000000
00100000
,
00001000
00000000
00010000
00001000
00000000
00010000
00001000
00000000
00000010
00000000
00000100
00000000
00001001
00000000
00000000
00000000
,
00000002
00000000
00000203
00000000
00001300
00010000
00001000
00100000
,
00010000
01000000
00100000
00000000
10000000
01000000
00010000
01000000
,
20000000
00000000
30200000
00000000
00310000
00001000
00010000
00000100
,
00001000
00000100
00000010
00000000
00000001
00000100
00001000
00000100
,
00000002
00000000
00002000
00000003
,
00003010
00010000
00000010
00000000
00010000
00001000
00010000
00000000
00100000
00000000
10000000
00000000
01000000
00000000
00010000
00000000
,
00001000
00000000
00100000
00010000
00000000
00100000
01000000
00000000
11000000
00000000
00000000
00000000
00000000
00000000
00000000
00000000
,
10000000
01000000
00100000
01000000
00020000
00000000
00031000
00000000
,
00010000
00000010
00001000
00000010
00000100
00000001
00000100
00000001
,
00001000
00000100
00010000
00000100
00000020
00000000
00000130
00000000
,
00010000
00001000
00010000
00000000
00001000
00100000
00000000
00010000
00000000
01000000
00000000
10010000
00000000
00000000
00000000
00000000
;

//---------------dance-double - Copied from----------------
#NOTES:
     dance-double:
     Copied from:
     Medium:
     6:
     0.432,0.419,0.141,0.492,0.070:
00000000
00000000
00000000
00000000
,
00000000
00000000
00000000
00000000
,
10000000
01000000
00001000
00010000
,
00000010
00000000
00000001
00000000
00000100
00000100
00000000
00000100
,
00000020
00020030
00032000
00103000
,
00010000
10000000
00010000
00000000
10000000
00000000
11000000
00000000
,
20000000
30020000
00230000
00302000
,
00013000
00000000
00000010
00000000
00001000
00000100
00001000
00000000
,
00000020
00000230
00000302
00001000
,
00000013
00000100
00000010
00000000
00000100
00010000
00000000
00001000
,
00020000
00032000
00203000
00010000
,
01300000
10000000
01000000
00100000
00000000
00000000
00001000
00000000
,
00020000
00230000
20300000
01000000
,
30010000
00100000
00010000
00000000
00100000
00000000
00001000
00000000
,
00010000
00000100
00001000
00000000
00002002
00000000
00003003
00000000
,
00000001
00000000
00000100
00000000
00000001
00000000
00000000
00001000
00000000
00000100
00000000
00001000
00000000
00000000
00000000
00000000
,
00000200
00010300
00001200
00010300
,
00010000
01000000
00010000
00000000
01000000
10000000
01000000
00000000
,
00200000
00301000
00100000
00210000
,
00301000
00010000
00001000
00000000
00000100
00000000
00000001
00000000
,
00000200
00000320
00020030
00001000
,
00030100
00001000
00000100
00000000
00010000
00001000
00000000
00100000
,
00001000
01000000
02020000
03030000
,
00010000
00000000
00000000
00000000
10000000
00000000
00000000
01000000
00000000
00100000
00000000
01000000
00000000
00000000
00000000
00000000
,
00200000
00000000
00002000
00300000
,
00013000
00010000
00001000
00001000
,
00000200
00000000
00000020
00000330
,
00001000
00000001
00001000
00000000
00000100
00000000
00010000
00000000
,
00001000
00000000
00000000
00100000
00000000
00000000
00010000
00000000
10000000
00000000
00000000
00000000
00000000
00000000
00000000
00000000
,
00100000
01000000
00100000
01000000
,
00010000
10000000
00010000
00000000
00100000
00000000
00000000
00000000
,
00100000
00100000
00001000
00010000
,
00000010
00000100
00000010
00000000
00001000
00000000
00001001
00000000
,
00000001
00000010
00001000
00000010
,
00000100
00001000
00000100
00000000
00010000
00000000
00011000
00000000
,
00010000
01000000
10000000
01000000
,
00200000
00000000
00000000
00010000
00000000
00000000
00310000
00000000
10000000
00000000
00010000
00000000
10000000
00000000
00000000
00000000
,
00020000
00230000
00301000
00011000
,
00001000
00000100
00001000
00000000
00000100
00000001
00000100
00000000
,
00000020
00020030
00031000
00011000
,
00010000
01000000
00010000
00000000
01000000
00000000
10000000
00000000
,
10020000
00000000
20000000
30000000
,
01030000
00001000
01000000
00001000
00020000
00000000
02030000
00000000
,
13000000
00000000
00000000
01000000
00000000
00000000
00100000
00000000
00010000
00000000
00000000
00000000
00000000
00000000
00000000
00000000
,
00000100
00000001
00000102
00001003
,
00000100
00001000
00000100
00000000
00010000
00000000
00010000
00000000
,
00001000
01000000
02010000
03001000
,
00010000
00000000
00000000
00000000
00001000
00000000
00000000
01000000
00000000
00100000
00000000
01000000
00000000
00000000
00000000
00000000
;

//---------------dance-double - Copied from----------------
#NOTES:
     dance-double:
     Copied from:
     Easy:
     3:
     0.365,0.363,0.270,0.316,0.012:
00000000
00000000
00000000
00000000
,
00000000
00000000
00000000
00000000
,
10000000
00010000
00100000
00001000
,
00010000
00001000
00000100
00000000
,
00000200
00000302
00000203
00000320
,
00010030
00010000
00001000
00001000
,
00200000
00320000
00230000
02300000
,
13000000
00100000
01010000
00000000
,
10000000
01000000
00100000
00102000
,
00013000
00000100
00001000
00001000
,
00000010
00000100
00000001
00001002
,
00000013
00000010
00000100
00000000
,
00000100
00010000
00001000
01002000
,
00013000
01000000
10000000
10000000
,
00010000
00100000
00001000
00021000
,
01030000
00100000
00001000
00000000
,
00001000
00000100
00000001
00002000
,
00003010
00001000
00011000
00011000
,
00001000
00000100
00000001
00002000
,
00003100
00010000
00011000
00011000
,
01000000
10000000
00100000
10200000
,
10300000
01000000
00010000
00010000
,
00001000
00000010
00000100
00002100
,
00003010
00000010
00010000
00000000
,
02000000
00000000
20000000
33000000
,
00010000
00100000
00001000
00000010
,
00000200
00000000
00002000
00003300
,
00001000
00000100
00000001
00000100
,
00010000
00000000
00000000
00010000
00000000
00000000
00010000
00000000
00001000
00000000
00000000
00000000
00000000
00000000
00000000
00000000
,
00010000
00100000
10000000
00100000
,
00010000
00001000
00010000
00100000
,
10000000
01000000
00010000
01000000
,
10000000
00010000
00110000
00000000
,
00100000
00001000
00010000
00000010
,
00001000
00000100
00000110
00000000
,
00000010
00000001
00001000
00000001
,
00000010
00000010
00000100
00010000
,
00012000
00100000
00013000
01000000
,
10000000
00100000
10010000
10010000
,
02100000
00010000
03001000
00010000
,
00000100
00000100
00001001
00001001
,
00000002
00000000
00002000
00000003
,
00003010
00000010
00010000
00001000
,
00200000
00000000
00000000
00300000
01100000
00000000
00000000
00000000
,
01000000
10000000
00100000
02010000
,
03001000
00010000
00100000
00010000
,
00001000
00000010
00000100
00001200
,
00010300
00000000
00000000
00000000
00001000
00000000
00000000
00000000
00000000
00000000
00000000
00011000
00000000
00000000
00000000
00000000
;
