#TITLE:LOVE TODAY;
#SUBTITLE:;
#ARTIST:MIKA;
#TITLETRANSLIT:;
#SUBTITLETRANSLIT:;
#ARTISTTRANSLIT:;
#CREDIT:;
#BANNER:Love Today.png;
#BACKGROUND:Love Today-bg.png;
#LYRICSPATH:;
#CDTITLE:;
#MUSIC:Love Today.ogg;
#OFFSET:0.000;
#SAMPLESTART:61.655;
#SAMPLELENGTH:15.480;
#SELECTABLE:YES;
#BPMS:0.000=124.500;
#STOPS:58.000=0.480
;
#BGCHANGES:1.000=4a797ac29d83c701.mpg.avi=1.000=1=0=1,
99999=-nosongbg-=1.000=0=0=0 // don't automatically add -songbackground-
;

//---------------dance-single - ----------------
#NOTES:
     dance-single:
     :
     Hard:
     7:
     0.393,0.425,0.137,0.224,0.015:
0000
0000
0000
0000
,
0000
0000
0000
0000
,
0000
0000
0000
0000
,
0000
0000
0000
0000
,
0000
0000
0000
0000
,
0000
0000
0000
0000
,
0000
0000
0000
0000
,
1000
0100
0010
0000
0001
0100
1000
0000
,
0001
0100
1000
0000
0001
0100
1000
0000
,
1000
0100
0010
0000
1000
0010
0001
0000
,
1000
0010
0001
0000
1000
0010
0001
0100
,
2000
0000
3200
0000
0301
0010
1000
0100
,
0002
0000
0203
0000
0310
1000
0010
1000
,
0100
0000
0000
0100
0010
0001
0010
0001
,
0100
0000
0000
0000
0000
0000
0001
0000
2000
0000
0000
0000
3001
0000
0000
1000
,
0001
0100
0020
0000
2030
0000
3010
0000
,
0100
0000
0001
0000
2000
0000
0000
0000
3200
0000
0000
0000
0310
0000
0000
0010
,
0100
0001
0100
0000
0100
0010
0002
0000
,
0203
0000
0310
1000
0001
0000
1000
0001
,
0100
0000
0001
0000
0001
0000
0001
1000
,
0100
0000
0100
0010
0001
0010
0100
0000
,
1000
0000
0001
1000
0100
0000
0001
0000
,
0100
0000
1000
0010
0001
0000
0010
0000
,
1000
0000
0100
0001
0100
0000
0010
0010
,
0002
0000
1003
1000
0200
0000
1300
0000
,
0010
0000
1000
0100
1000
0000
0001
0001
,
0020
0000
0130
0100
2000
0000
3010
0000
,
1000
0001
0100
0000
1000
0000
0100
0001
,
0001
0000
0010
1000
1000
0000
0010
0000
,
0001
0100
0010
0000
1000
0100
0020
0000
,
0032
0000
1003
1000
0010
1000
0002
0000
,
1003
1000
0010
0100
1002
0000
1003
0000
,
0001
0000
0100
0001
0001
0000
1000
0100
,
0100
0000
0010
1000
1000
0000
0001
0000
,
0100
0000
1000
0010
0010
0000
1000
0000
,
0001
0000
0100
0010
0010
0100
0001
0000
,
1000
0000
0100
0010
0010
0100
1000
0000
,
0001
0101
0110
1010
,
0000
1100
0110
0011
,
0000
0000
0001
0100
0010
1000
0100
0100
,
1000
1000
0010
0100
0100
0000
0001
0010
,
0010
0000
0001
0100
0200
0000
1300
0100
,
0001
0000
0010
0001
0010
0000
0100
0000
1000
0000
0000
0000
1000
0000
0001
0000
,
0002
0000
0100
0000
1000
0003
0001
0001
,
0000
0000
1000
0000
1000
0100
0001
0100
,
0000
1100
0110
0011
,
0001
0101
0110
1010
,
1000
0000
1000
0100
0010
0100
1000
0001
,
0001
0000
0100
0001
0001
0000
1000
0100
,
0100
0000
0010
0100
0100
0000
1000
0000
,
0100
0000
0001
0100
0100
0000
2002
0000
,
0000
3003
0000
0000
;

//---------------dance-single - ----------------
#NOTES:
     dance-single:
     :
     Medium:
     5:
     0.290,0.325,0.020,0.293,0.000:
0000
0000
0000
0000
,
0000
0000
0000
0000
,
0000
0000
0000
0000
,
0000
0000
0000
0000
,
0000
0000
0000
0000
,
0000
0000
0000
0000
,
0000
0000
0000
0000
,
0001
0010
1000
0001
,
1000
0001
1000
1000
,
0100
0010
0001
1000
,
0001
1000
0001
0001
,
2000
0000
3020
0000
0130
0001
0100
0000
,
0020
2030
3001
0100
,
0010
0000
0001
0100
,
0010
0000
0002
1003
,
2000
3001
0010
0001
,
0100
1000
0200
0310
,
1000
0000
0001
0000
0000
0010
0100
0000
,
1000
0001
0100
0020
,
0000
1030
0001
0200
,
0000
0000
0301
0000
0010
0001
0010
0000
,
0001
0001
0100
0100
,
0010
0010
1000
0001
,
1000
0000
0100
0010
0100
0000
0020
0000
,
0031
2000
3100
1000
,
0010
0000
0100
0000
0001
0010
0001
0000
,
0100
0020
2030
3020
,
0130
0000
0001
0000
0010
1000
0010
0000
,
0002
0203
0302
1003
,
0100
0001
0100
2100
,
0100
0100
3001
0102
,
0100
0000
0100
0000
0103
0010
0100
0000
,
0001
0000
1000
0100
1000
0000
0001
0000
,
0100
0001
1000
0100
,
0010
0000
0001
0100
0001
0000
1000
0000
,
0100
2000
3002
2003
,
3010
2000
3002
2003
,
3100
1000
0100
0010
,
0000
0100
0010
0001
,
0000
0000
0001
0100
0001
0000
0100
0000
,
0010
1000
1000
0001
,
0100
0000
0010
0001
0010
0000
1000
0000
,
0100
0010
0001
1000
,
0002
0000
1000
2003
,
3000
0000
0001
0002
,
0003
1000
0001
0100
,
0000
0100
0010
1000
,
0000
0000
0001
0100
0001
0000
1000
0000
,
0100
1000
0010
0100
,
0001
0000
0100
0010
0100
0000
0001
0000
,
1000
0100
2000
0002
,
0000
3003
0000
0000
;

//---------------dance-single - ----------------
#NOTES:
     dance-single:
     :
     Easy:
     2:
     0.167,0.175,0.010,0.078,0.000:
0000
0000
0000
0000
,
0000
0000
0000
0000
,
0000
0000
0000
0000
,
0000
0000
0000
0000
,
0000
0000
0000
0000
,
0000
0000
0000
0000
,
0000
0000
0000
0000
,
0001
0100
0001
0000
,
0001
0000
0001
0000
,
1000
0100
1000
0000
,
1000
0000
0001
0000
,
0100
0100
0001
0000
,
1000
1000
0100
0000
,
0100
0000
0010
0000
,
0001
0000
1000
1000
,
0000
1000
0000
0100
,
0001
0100
0000
0010
,
0000
0010
0000
0100
,
1000
0100
0000
0002
,
0000
1003
0000
2000
,
0000
3001
0000
1000
,
0000
0100
0000
0001
,
0000
0100
0000
1000
,
0010
0010
0000
0100
,
0001
0001
0000
0001
,
0010
0010
0000
0100
,
1000
1000
0000
0010
,
0000
1000
0000
0010
,
0100
0100
0000
0001
,
0000
0010
0100
0200
,
0000
0301
0000
0200
,
0000
1300
0000
0100
,
1000
0100
0000
0010
,
0000
0010
0000
0001
,
0100
0002
0000
0003
,
0000
1000
0010
0010
,
0000
0100
0001
0001
,
0000
0010
0010
0100
,
0000
1000
1000
0001
,
0000
0001
0001
0100
,
0000
0010
0000
1000
,
0000
0100
0000
1000
,
0000
0001
0000
0100
,
0200
0000
0000
0310
,
0000
0000
1000
1000
,
0000
0001
0100
0010
,
0000
0100
0010
1000
,
0000
0001
1000
0001
,
0000
0010
0000
0100
,
0000
1000
0000
1000
,
1000
0001
0000
2002
,
0000
3003
0000
0000
;

//---------------dance-double - ----------------
#NOTES:
     dance-double:
     :
     Hard:
     8:
     0.393,0.400,0.224,0.078,0.073:
00000000
00000000
00000000
00000000
,
00000000
00000000
00000000
00000000
,
00000000
00000000
00000000
00000000
,
00000000
00000000
00000000
00000000
,
00000000
00000000
00000000
00000000
,
00000000
00000000
00000000
00000000
,
00000000
00000000
00000000
00000000
,
10000000
01000000
00100000
00000000
01000000
00010000
00001000
00000000
,
00010000
00001000
00000010
00000000
00000001
00000100
00000010
00000000
,
00001000
00000100
00000010
00000000
00001000
00000100
00000010
00000000
,
00010000
01000000
00100000
00000000
00010000
01000000
00100000
01000000
,
00010000
00000000
20000000
00000000
31000000
00100000
01000000
00010000
,
00001000
00000000
00000200
00000000
00000310
00001000
00000010
00001000
,
00000100
00000000
00000000
00000000
00010000
00001000
00010000
00001000
,
01000000
00000000
00000000
00000000
00000000
00000000
00010000
00000000
00100000
00000000
00000000
00000000
00010000
00000000
00000000
00010000
,
01000000
00000000
00100000
00000000
01000000
00000000
00000000
00000000
00010000
00000000
00000000
00000000
10000000
00000000
00000000
10000000
,
01000000
00000000
00100000
00000000
01000000
00000000
00000000
00000000
00010000
00000000
00000000
00000000
00001000
00000000
00000000
00001000
,
00010000
00000000
00000100
00000000
00000010
00000000
00000000
00000000
00000001
00000000
00000000
00000000
00001000
00000000
00000000
00000100
,
00001000
00000001
00000100
00000000
00000010
00000000
00001000
00000010
,
00001000
00000000
01000000
00010000
01000000
00000000
00001000
00000100
,
00001000
00000000
00000000
00000000
00010000
00000000
00100000
00000000
00010000
00000000
00000000
00000000
01000000
00000000
00000000
00010000
,
00100000
00000000
01000000
00000000
00100000
00000000
00000000
00000000
01000000
00000000
00000000
00000000
10000000
00000000
00000000
00010000
,
01000000
00000000
00100000
00000000
01000000
00000000
00000000
00000000
00010000
00000000
00000000
00000000
00100000
00000000
00000000
00001000
,
00010000
00000000
00001000
00000000
00010000
00000000
00000000
00000000
00000010
00000000
00000000
00000000
00001000
00000000
00000000
00001000
,
00000100
00000000
00000001
00000000
00000100
00000000
00000000
00000000
00001000
00000000
00000000
00000000
00000010
00000000
00000000
00000100
,
00000001
00001000
00000100
00000000
00010000
00000000
00001000
00100000
,
00001000
00000000
00000000
00000000
00010000
00000000
00000010
00000000
00010000
00000000
00000000
00000000
00001000
00000000
00000000
01000000
,
00010000
00000000
01000000
00000000
10000000
00000000
00000000
00000000
00010000
00000000
00000000
00000000
10000000
00000000
00000000
00010000
,
00100000
00000000
01000000
00000000
00001000
00000000
00000000
00000000
00010000
00000000
00000000
00000000
00001000
00000000
00000000
00000100
,
00000001
00000010
00000100
00000000
00010000
00010000
00021000
00000000
,
00001000
00000000
00001000
00001000
00031000
00001000
00012000
00000000
,
00010000
00000000
00010000
00010000
00013000
00010000
00100000
10000000
,
00100000
00000000
01000000
00010000
00100000
00000000
00001000
00010000
,
00001000
00000000
00000100
00000001
00000010
00000000
00000001
00000010
,
00000100
00001000
00010000
00001000
00010000
00000000
00010000
00100000
,
10000000
00000000
10000000
00010000
01000000
10000000
00100000
00000000
,
01010000
00000000
01000000
00100000
10000000
01000000
00010000
00000000
,
01010000
00011000
00011000
00011000
,
00000000
01010000
00110000
00011000
,
00000000
00000000
00001100
00000000
00001010
00000000
00011000
00010000
,
00001000
00010000
00001000
00010000
00000100
00000000
00010000
00001000
,
00100000
00000000
00000000
00000000
00001000
00000000
00000100
00000000
00001000
00000000
00000000
00000000
00001000
00000000
00010000
00100000
,
01000000
00010000
10000000
01000000
10000000
00000000
10000000
00000000
00010000
00000000
00000000
00000000
10000000
00000000
00010000
00000000
,
00020000
00000000
00000000
00000000
00030000
00000000
01000000
00002000
,
00000000
00000000
00003000
00000000
00100000
00010000
00100000
00001000
,
00000000
00011000
00001100
00000110
,
00000000
00000110
00001100
00011000
,
00000000
00000000
00011000
00000000
01010000
00000000
01100000
00100000
,
10000000
10000000
01000000
01000000
00100000
00000000
00010000
00010000
,
00100000
00000000
00001000
00001000
00010000
00000000
00000100
00000100
,
00001000
00001000
00000010
00000010
00000100
00000000
00002002
00000000
,
00000000
00003003
00000000
00000000
;

//---------------dance-double - ----------------
#NOTES:
     dance-double:
     :
     Medium:
     5:
     0.286,0.346,0.068,0.224,0.054:
00000000
00000000
00000000
00000000
,
00000000
00000000
00000000
00000000
,
00000000
00000000
00000000
00000000
,
00000000
00000000
00000000
00000000
,
00000000
00000000
00000000
00000000
,
00000000
00000000
00000000
00000000
,
00000000
00000000
00000000
00000000
,
00010000
00000000
00000000
00000000
10000000
00000000
00000000
00000000
01000000
00000000
00000000
00100000
00000000
00000000
00000000
00000000
,
00010000
00000000
00000000
01000000
00000000
00000000
00000000
00000000
00100000
00000000
00000000
00001000
00000000
00000000
00000000
00000000
,
00010000
00000000
00000000
00000000
00000100
00000000
00000000
00000000
00000010
00000000
00000000
00001000
00000000
00000000
00000000
00000000
,
00000001
00000000
00000000
00000010
00000000
00000000
00000000
00000000
00001000
00000000
00000000
00000000
00002000
00000000
00000000
00000000
,
00003100
00000200
00000310
00000020
,
00001030
00002000
00013000
01000000
,
00100000
00000000
10000000
01000000
,
00100000
00000000
00010000
01000000
,
00001000
00100000
00001000
00000100
,
00000010
00001000
00000200
00000310
,
00000001
00000000
00000001
00000000
00000100
00000010
00000100
00000000
,
00001000
00010000
00001000
00021000
,
00000000
00000010
00030010
00000000
00000000
00000000
00012000
00000000
,
00000000
00100000
00103000
00000000
00010000
00000000
00010000
00000000
,
01000000
01000000
00100000
00100000
,
00010000
00010000
00001000
00010000
,
00001000
00000000
00000100
00000001
00000100
00000000
00000002
00000000
,
00000103
00000020
00001030
00010000
,
10000000
00000000
00100000
00000000
01000000
00010000
01000000
00000000
,
00010000
00200000
00302000
00023000
,
00030010
00001000
00000010
00000000
00000100
00000000
00000001
00000000
,
00000020
00002030
00003020
00000031
,
00000100
00001000
00000100
00000000
00010000
00000000
00012000
00000000
,
00100000
01000000
00103000
00021000
,
00000010
00000000
00000100
00000000
00030010
00000000
00001000
00000100
,
00001000
00000100
00020000
00031000
,
02000000
03010000
20000000
31000000
,
00100000
00000000
00010000
01000000
00010000
00000000
10000000
00000000
,
01000000
00010000
00001000
01000000
,
01100000
00010000
00001000
00000100
,
00000110
00001000
00000100
00000010
,
00000000
00000100
00010000
00001000
,
00000000
00010000
01000000
00010000
,
00010000
00000000
10000000
00010000
10000000
00000000
00010000
00000000
,
01000000
00000000
00100000
00010000
00100000
00000000
10000000
00000000
,
01000000
00100000
00010000
01000000
,
00002000
00000000
00013000
00020000
,
00030000
00000100
00000010
00000200
,
00000300
00001000
00000100
00000001
,
00000000
00000001
00000100
00001000
,
00000000
00000000
00000000
00000000
00001000
00000000
00000000
00000000
00100000
00000000
00000000
00000000
01000000
00000000
00000000
10000000
,
00000000
00000000
00000000
00000000
00010000
00000000
00000000
01000000
00000000
00000000
00000000
00000000
00001000
00000000
00000000
00010000
,
00000000
00000000
00000000
00000000
00000010
00000000
00000000
00000100
00000000
00000000
00000000
00000000
00000001
00000000
00000000
00001000
,
00000000
00000000
00000000
00000000
00000100
00000000
00000000
00010000
00000000
00000000
00000000
00000000
00011000
00000000
00000000
00000000
;

//---------------dance-double - ----------------
#NOTES:
     dance-double:
     :
     Easy:
     3:
     0.210,0.223,0.010,0.059,0.000:
00000000
00000000
00000000
00000000
,
00000000
00000000
00000000
00000000
,
00000000
00000000
00000000
00000000
,
00000000
00000000
00000000
00000000
,
00000000
00000000
00000000
00000000
,
00000000
00000000
00000000
00000000
,
00000000
00000000
00000000
00000000
,
10000000
01000000
00010000
00001000
,
00000010
00000001
00000010
00000100
,
00000001
00000100
00001000
00010000
,
00100000
10000000
00010000
00000000
,
01000000
01000000
00010000
00000000
,
00100000
00100000
00001000
00010000
,
00000100
00000000
00000100
00000010
,
00000001
00000000
00001000
00000100
,
00000010
00010000
00100000
01000000
,
00010000
01000000
00000000
10000000
,
00010000
01000000
00001000
00010000
,
00000100
00000010
00000000
00000002
,
00000000
00001003
00000000
00002000
,
00000000
00013000
00000000
10000000
,
01000000
00010000
01000000
10000000
,
00100000
01000000
00010000
01000000
,
00001000
00001000
00000000
00010000
,
00000100
00000100
00000000
00000010
,
00000001
00000001
00000000
00000100
,
00001000
00001000
00000000
00000100
,
00000001
00000010
00000100
00010000
,
00001000
00001000
00000000
00010000
,
00100000
10000000
01000000
00020000
,
00000000
01030000
00000000
02000000
,
00000000
13000000
00000000
01000000
,
10000000
01000000
00010000
10000000
,
00100000
00010000
00001000
00000100
,
00000001
00002000
00000000
00003000
,
00000000
00000010
00000100
00000100
,
00001000
00010000
00100000
00100000
,
00010000
00001000
00000100
00000010
,
00000000
00000001
00001000
00000100
,
00000000
00000100
00010000
00001000
,
00100000
01000000
00100000
00010000
,
00100000
00001000
00010000
00100000
,
10000000
00010000
10000000
00010000
,
00200000
00000000
00000000
00301000
,
00000000
00000000
00000100
00000100
,
00000000
00000001
00001000
00000100
,
00000000
00001000
00000001
00000100
,
00000000
00010000
10000000
00010000
,
01000000
10000000
01000000
00010000
,
00001000
00000010
00000001
00001000
,
00000001
00001000
00000000
00001001
;

//---------------dance-solo - Copied from----------------
#NOTES:
     dance-solo:
     Copied from:
     Hard:
     8:
     0.392,0.450,0.254,0.156,0.024:
000000
000000
000000
000000
,
000000
000000
000000
000000
,
000000
000000
000000
000000
,
000000
000000
000000
000000
,
000000
000000
000000
000000
,
000000
000000
000000
000000
,
000000
000000
000000
000000
,
100000
001000
000100
000000
000100
000001
100000
000000
,
000100
100000
000001
000000
000100
000001
100000
000000
,
100000
010000
001000
000000
001000
000010
000001
000000
,
000001
000000
000100
000000
100000
000000
000000
000000
100000
001000
100000
000000
000001
000000
001000
000000
,
000020
000000
000000
000000
000030
000000
000000
000000
001000
000001
001000
000000
000100
000000
010000
000000
,
002000
003000
010100
000110
,
100001
000000
011000
001010
,
001100
000000
100001
000100
,
000100
010000
200000
000000
300002
000000
001003
000000
,
010000
000010
000200
000000
001300
000000
100000
000000
,
000001
001000
000001
000000
001000
000010
002000
000000
,
003002
000000
001003
010000
001000
000000
000001
010000
,
100000
000000
000100
000000
000001
000000
100000
000010
,
000001
000000
010000
001000
000100
001000
010000
000000
,
000100
000000
001000
000001
100000
000000
001000
000000
,
000100
000000
000010
001000
100000
000000
001000
000000
,
000001
000000
001000
001000
000100
000100
100000
100000
,
000002
000000
010003
010000
000002
000000
000103
000000
,
001000
000000
000010
001000
000010
000000
001000
100000
,
000010
000000
010000
001000
100000
000000
000001
000000
,
001000
000010
000100
000000
000001
100000
010000
100000
,
000002
000000
000103
000100
001000
000000
001000
000000
,
000100
000010
001000
000000
000100
010000
002000
000000
,
003200
000000
000301
000001
001000
001000
000200
000000
,
100300
000000
100000
000000
001000
000000
000010
000000
001000
000100
001000
000100
001000
000000
000000
000000
,
000100
000000
000100
000010
000001
000000
100000
001000
,
001000
000000
000001
001000
001000
000000
000100
000000
,
000010
000000
001000
100000
100000
000000
001000
000000
,
000010
000000
010000
001000
001000
010000
000100
000000
,
001000
000000
000001
000010
000010
000001
001000
000000
,
000100
010100
000110
010100
,
000000
101000
001001
101000
,
000000
000000
000100
010000
001000
100000
010000
010000
,
100000
100000
000001
000100
000100
000000
000010
001000
,
001000
000000
010000
001000
001000
000000
000001
000010
,
000100
000000
000010
000001
000010
000000
001000
000000
100000
000000
000000
000000
100000
000000
000100
000000
,
002000
000000
000000
000000
003100
000000
001100
001100
,
000000
000000
010000
000000
011000
011000
001010
001010
,
000000
110000
001100
000011
,
000000
001001
001100
101000
,
000000
000000
100000
000100
001000
010000
100000
000001
,
000001
000000
000010
001000
001000
000000
000001
100000
,
100000
000000
000001
000100
100000
000000
000100
000000
,
000001
000000
001000
000010
010000
000000
002200
000000
,
000000
003300
000000
000000
;

//---------------dance-solo - ----------------
#NOTES:
     dance-solo:
     :
     Medium:
     5:
     0.295,0.325,0.059,0.293,0.000:
000000
000000
000000
000000
,
000000
000000
000000
000000
,
000000
000000
000000
000000
,
000000
000000
000000
000000
,
000000
000000
000000
000000
,
000000
000000
000000
000000
,
000000
000000
000000
000000
,
000100
001000
000100
000010
,
010000
000100
100000
000001
,
010000
000010
000100
000010
,
010000
000100
001000
000010
,
200000
000000
302000
000000
013000
000001
010000
000000
,
000020
002030
003001
010000
,
001000
000000
100000
000010
,
001000
000000
000200
010300
,
002000
003100
000010
000001
,
100000
001000
000002
000013
,
001000
000000
010000
000000
000000
001000
000010
000000
,
100000
000100
001000
000002
,
000000
100003
001000
000020
,
000000
000000
001030
000000
001000
010000
001000
000000
,
100000
100000
000010
000010
,
010000
010000
000001
001000
,
000001
000000
001000
000010
001000
000000
000200
000000
,
010300
200000
310000
000100
,
001000
000000
000010
000000
000001
100000
000001
000000
,
000100
200000
300200
002300
,
003010
000000
001000
000000
000001
000100
000001
000000
,
000200
002300
203000
300000
,
010000
000100
010000
200001
,
000001
000001
300010
001200
,
001000
000000
001000
000000
001300
000100
001000
000000
,
000100
000000
100000
010000
100000
000000
000100
000000
,
001000
000000
000001
000010
000001
000000
100000
000000
,
000001
000000
001000
010000
001000
000000
000001
000000
,
100000
000002
000203
000302
,
010000
200003
300200
200300
,
000010
300001
000100
001000
,
000000
100000
000100
001000
,
000000
000000
000100
010000
000100
000000
001000
000000
,
000010
000100
000001
001000
,
010000
000000
001000
100000
001000
000000
000010
000000
,
000001
000100
100000
000001
,
000200
000000
000010
000302
,
000003
000000
010000
200000
,
300000
100010
010100
001000
,
000000
010001
001010
000100
,
000000
000000
000100
001000
000100
000000
100000
000000
,
010000
100000
001000
000001
,
100000
000000
000010
001000
000010
000000
001000
000000
,
100000
000010
000020
020000
,
000000
030030
000000
000000
;

//---------------dance-solo - ----------------
#NOTES:
     dance-solo:
     :
     Easy:
     2:
     0.166,0.175,0.010,0.078,0.000:
000000
000000
000000
000000
,
000000
000000
000000
000000
,
000000
000000
000000
000000
,
000000
000000
000000
000000
,
000000
000000
000000
000000
,
000000
000000
000000
000000
,
000000
000000
000000
000000
,
000100
001000
000100
000000
,
000010
000000
010000
000000
,
000001
000100
000001
000000
,
100000
000000
100000
000000
,
000010
001000
000010
000000
,
010000
010000
000001
000000
,
010000
000000
000010
000000
,
001000
000000
000001
100000
,
000000
100000
000000
000010
,
000010
010000
000000
001000
,
000000
001000
000000
000010
,
100000
000010
000000
000002
,
000000
001003
000000
000200
,
000000
100300
000000
001000
,
000000
000010
000000
000001
,
000000
010000
000000
000100
,
100000
100000
000000
001000
,
000100
000100
000000
000001
,
001000
001000
000000
000010
,
001000
001000
000000
010000
,
000000
100000
000000
000001
,
010000
010000
000000
001000
,
000000
000010
000000
000002
,
000000
000100
000003
200000
,
000000
000100
300000
010000
,
100000
010000
000000
001000
,
000000
001000
000000
000001
,
000010
000002
000000
000003
,
000000
100000
000100
001000
,
000000
000100
001000
000001
,
000000
010000
010000
000100
,
000000
001000
001000
000010
,
000000
000100
000100
001000
,
000000
100000
000000
000010
,
000000
001000
000000
000001
,
000000
000100
000000
001000
,
002000
000000
000000
003100
,
000000
000000
000001
000001
,
000000
000100
001000
010000
,
000000
001000
100000
000001
,
000000
001000
000010
010000
,
000000
001000
000000
000001
,
000000
001000
000000
100000
,
000001
000001
000000
002200
,
000000
003300
000000
000000
;

//---------------dance-double - ----------------
#NOTES:
     dance-double:
     :
     Challenge:
     7:
     0.394,0.396,0.039,0.156,0.005: // measure 1
00000000
00000000
00000000
00000000
,  // measure 2
00000000
00000000
00000000
00000000
,  // measure 3
00000000
00000000
00000000
00000000
,  // measure 4
00000000
00000000
00000000
00000000
,  // measure 5
00000000
00000000
00000000
00000000
,  // measure 6
00000000
00000000
00000000
00000000
,  // measure 7
00000000
00000000
00000000
00000000
,  // measure 8
10000000
01000000
00010000
01000000
10000000
00100000
01000000
00000000
,  // measure 9
00001000
00010000
00001000
00000000
00000010
00000100
00001000
00000000
,  // measure 10
00000001
00000100
00001000
00000100
00000001
00000010
00000100
00000000
,  // measure 11
00010000
00000000
00001000
00000000
00010000
00100000
10000000
00100000
,  // measure 12
00010000
00000000
00002000
00000000
00003100
00000001
00000010
00000001
,  // measure 13
00000100
00000000
00002000
00000000
00013000
00100000
01000000
00010000
,  // measure 14
00100000
00000000
00000000
01000000
10000000
01000000
00100000
00010000
,  // measure 15
00100000
00000000
00000000
00000000
00001000
00000000
00000000
00000000
00010000
00000000
00000000
00001000
00010000
00000000
00000000
00000000
,  // measure 16
00000010
00000100
00001000
00000000
00000100
00000000
00000001
00000010
,  // measure 17
00001000
00010000
00001000
00000010
00000001
00000000
00000100
00000000
,  // measure 18
00001000
00001000
00010000
00000000
01000000
01000000
00010000
00000000
,  // measure 19
00001000
00000000
00010000
00100000
10000000
01000000
00200000
00000000
,  // measure 20
00010000
00000000
00301000
00010000
00001000
00000000
00020000
00000000
,  // measure 21
00000010
00000000
00031000
00000100
00000010
00000100
00001000
00000000
,  // measure 22
00010000
00000100
00000001
00000100
,  // measure 23
00010000
00000000
00001000
00100000
00010000
00100000
01000000
00000000
,  // measure 24
10000000
00100000
00010000
00000000
10000000
01000000
00100000
01000000
,  // measure 25
00010000
00000000
00100000
00001000
00100000
00000000
00011000
00000000
,  // measure 26
00010000
00000010
00010000
00000000
00000100
00001000
00000200
00000000
,  // measure 27
00000320
00000000
00000230
00000000
00010300
00001000
00020000
00000000
,  // measure 28
00130000
10000000
01000000
00000000
00010000
00000000
00001000
00010000
,  // measure 29
00001000
00000000
00010000
00001000
00010000
00000000
00000010
00000100
,  // measure 30
00000001
00000010
00001000
00000000
00000010
00000100
00020000
00000000
,  // measure 31
00032000
00000000
00103000
00001000
00010000
00001000
01000000
00000000
,  // measure 32
10000000
01000000
00010000
00100000
00002000
00000000
00013000
00000100
,  // measure 33
00001000
00000000
00000100
00010000
00001000
00000000
00010000
00000010
,  // measure 34
00001000
00000000
00000010
00010000
00001000
00000000
00000010
00000100
,  // measure 35
00010000
00000100
00001000
00000010
00000100
00000000
00001000
00000000
,  // measure 36
00010000
00000000
00100000
01000000
00010000
10000000
01000000
00000000
,  // measure 37
00110000
00000000
00010000
01000000
00100000
00010000
00001000
00000000
,  // measure 38
00011000
00000000
00001000
00000010
00000100
00010000
00001000
00000000
,  // measure 39
00000100
00000000
00001000
00010000
00000010
00001000
00000100
00000000
,  // measure 40
00010000
00000000
00001000
00010000
00000010
00000100
00000001
00000010
,  // measure 41
00001000
00000010
00000100
00010000
00001000
00000000
00100000
00001000
,  // measure 42
00010000
00000000
01000000
00010000
00002000
00000000
00103000
00010000
,  // measure 43
00100000
10000000
00100000
01000000
10000000
00000000
00010000
01000000
,  // measure 44
00020000
00000000
00100000
00000000
01000000
00000000
10030000
00100000
,  // measure 45
01000000
00000000
00001000
00000000
01000000
00010000
00100000
00001000
,  // measure 46
00010000
00000000
00001000
00000100
00000001
00000100
00001000
00000000
,  // measure 47
00000100
00000000
00000010
00010000
00001000
00010000
00100000
00000000
,  // measure 48
01000000
00000000
00001000
00010000
01000000
00000000
00100000
00000000
,  // measure 49
00001000
00000000
00020000
00000010
00030010
00000000
00002000
00000100
,  // measure 50
00003100
00000000
00020000
00001000
00031000
00000000
00100000
00010000
,  // measure 51
01000000
10000000
01000000
00010000
00100000
00000000
10010000
00000000
;

//---------------dance-single - ----------------
#NOTES:
     dance-single:
     :
     Beginner:
     1:
     0.114,0.150,0.068,0.000,0.000:
0000
0000
0000
0000
,
0000
0000
0000
0000
,
0000
0000
0000
0000
,
0000
0000
0000
0000
,
0000
0000
0000
0000
,
0000
0000
0000
0000
,
0000
0000
0000
0000
,
0001
0000
1000
0000
,
0001
0000
0000
0000
,
0100
0000
0010
0000
,
0100
0000
0000
0000
,
0001
0000
0000
1000
,
1000
0000
0001
0000
,
1001
0000
0000
0000
,
1001
0000
0000
0001
,
0000
0001
0000
1000
,
1000
1000
0000
0001
,
0000
0001
0000
0010
,
0000
0010
0000
1001
,
0000
0000
0000
1000
,
0000
0001
0000
1000
,
0000
0000
0000
0010
,
0010
0010
0000
1000
,
0000
0000
0000
0100
,
0000
0000
0000
0001
,
0000
0000
0000
0100
,
0100
0100
0000
0010
,
0000
0000
0000
0001
,
0000
0000
0000
1000
,
0000
0000
0000
0010
,
0010
0010
0000
0100
,
0100
0100
0000
0001
,
0000
0001
0000
1000
,
0000
1000
0000
0010
,
0000
0010
0000
0000
,
0000
0100
0000
0100
,
0000
0001
0000
0001
,
0000
1000
0000
1001
,
0000
0000
0000
0001
,
0000
0000
0000
1000
,
1000
1000
0000
0010
,
0000
0010
0000
1000
,
1000
1000
0000
0001
,
0000
0000
0000
0010
,
0000
0000
0001
0001
,
0000
0100
0000
1001
,
0000
0000
1000
1000
,
0000
0001
0000
1001
,
0000
0000
0000
0000
,
0000
0000
0000
0000
,
0000
0000
0000
0000
,
0000
1001
0000
0000
;
