#TITLE:???????;
#SUBTITLE:;
#ARTIST:Morning Masume;
#TITLETRANSLIT:Koi no Dance Site;
#SUBTITLETRANSLIT:;
#ARTISTTRANSLIT:;
#CREDIT:;
#BANNER:Koi no Dance Site.png;
#BACKGROUND:Koi no Dance Site-bg.png;
#LYRICSPATH:;
#CDTITLE:;
#MUSIC:Koi no Dance Site.ogg;
#OFFSET:-0.860;
#SAMPLESTART:68.160;
#SAMPLELENGTH:14.000;
#SELECTABLE:YES;
#DISPLAYBPM:141.000;
#BPMS:0.000=66.601,7.000=141.001;
#STOPS:11.000=0.429
,12.000=0.429
,49.000=0.426
,50.000=0.426
,139.000=0.426
,140.000=0.426
,189.000=0.426
,190.000=0.426
;
#BGCHANGES:;

//---------------dance-single - ----------------
#NOTES:
     dance-single:
     :
     Hard:
     8:
     0.535,0.502,0.274,0.473,0.105: // measure 1
0000
0000
0000
0000
,  // measure 2
0000
0000
0000
0020
,  // measure 3
0000
0000
0000
1030
,  // measure 4
0101
0002
0000
1003
0010
1000
0200
0000
,  // measure 5
0310
0002
0000
0103
0010
0100
0002
0000
,  // measure 6
1003
0001
0101
0010
,  // measure 7
1010
0000
0000
0000
1000
0100
1000
0100
1000
0000
0000
0000
0001
0100
0001
0100
,  // measure 8
0001
0020
0000
0130
1000
0100
0002
0000
,  // measure 9
0103
0020
0000
0031
0100
1000
0200
0000
,  // measure 10
0310
0010
1001
0010
,  // measure 11
1001
0000
0000
0000
1000
0010
1000
0010
1000
0000
0000
0000
0001
0010
0001
0010
,  // measure 12
0001
0000
0100
0010
1000
0010
0100
0001
,  // measure 13
0010
0100
0010
0000
0002
0000
0000
0000
0203
0000
0320
0000
0000
0000
1030
0000
,  // measure 14
0100
0010
0002
0000
0103
0010
0100
0001
,  // measure 15
0000
0011
0000
0010
0100
1000
0001
0000
,  // measure 16
0011
0000
0000
0000
0001
0000
0000
0000
0101
0000
0000
0000
0100
0010
0100
0010
,  // measure 17
0100
0000
0000
0000
0010
0100
0010
0100
0010
0000
2000
0000
0000
0000
3100
0000
,  // measure 18
0010
0100
2000
0000
3001
0100
0010
1000
,  // measure 19
0000
1100
0000
0100
0010
0001
0100
0000
,  // measure 20
0110
0000
0000
0000
0010
0000
0000
0000
1010
0000
0000
0000
1000
0001
1000
0100
,  // measure 21
1000
0000
0000
0000
0100
0010
0100
1000
0100
0000
0020
0000
0000
0000
0031
0000
,  // measure 22
0100
0010
0100
0001
0000
0010
0001
0001
,  // measure 23
0100
0000
1000
0000
0100
0020
0000
1030
,  // measure 24
0001
0010
0100
0010
1000
0010
0001
0100
,  // measure 25
1000
0100
0010
1000
0001
1000
0200
0000
,  // measure 26
0320
0000
0032
0000
2003
0000
3001
0001
,  // measure 27
0010
0010
0100
1000
1000
0010
0100
0001
,  // measure 28
0010
0001
1000
0100
0001
0100
0010
0001
,  // measure 29
1000
0000
0010
0000
1000
0000
0000
0100
1000
0000
0010
0000
2010
0000
0000
0000
,  // measure 30
0100
0000
3001
0100
0010
0100
0001
0000
,  // measure 31
0020
0001
0000
0031
0010
0100
1000
0000
,  // measure 32
1100
0000
0100
0010
0001
0100
0020
0000
,  // measure 33
2030
0000
3200
0000
0320
0001
0030
0001
,  // measure 34
0100
0010
1000
0000
0001
0010
0000
0010
,  // measure 35
0001
0100
0010
1000
0100
0010
0011
0000
,  // measure 36
0101
0000
1010
0000
1010
0000
1000
0100
,  // measure 37
0010
0002
0000
0103
0010
1000
0200
0010
,  // measure 38
0310
0002
0000
1003
0100
0010
0002
0100
,  // measure 39
0103
0000
0010
1000
0100
0010
0000
0011
,  // measure 40
0000
1100
1000
0000
0110
0000
0001
0000
,  // measure 41
0010
0012
0000
0103
0010
1000
0200
0010
,  // measure 42
0310
2000
0000
3010
0001
0100
0020
1000
,  // measure 43
1030
0000
0001
0100
1000
0100
0000
0110
,  // measure 44
0000
0010
1000
0000
1100
0000
0001
0000
,  // measure 45
0101
0002
0023
0230
,  // measure 46
2300
3020
0230
0302
,  // measure 47
2003
0000
0000
0000
3100
0000
0000
0100
1000
0000
0001
0000
0100
0000
0000
0100
,  // measure 48
0001
1000
1010
0000
2002
0000
3003
0000
;

//---------------dance-single - ----------------
#NOTES:
     dance-single:
     :
     Medium:
     5:
     0.421,0.427,0.263,0.410,0.000:
0000
0000
0000
0000
,
0000
0000
0000
0002
,
0000
0000
0000
1003
,
0001
0100
0000
0100
0010
0000
0010
0000
,
1000
0100
0000
0100
1000
0000
0001
0000
,
0010
0001
0101
0010
,
1010
0000
1000
0100
1000
0000
0001
0100
,
0001
0100
0000
0100
0010
0000
0010
0000
,
1000
0100
0000
0100
1000
0000
0001
0000
,
0100
0020
1000
2030
,
3200
0000
0310
0001
0020
0000
0031
0100
,
0002
2003
0010
0000
,
3010
0000
0110
0000
0110
0010
0000
0010
,
1000
0000
1000
0000
0001
0000
0001
0100
,
0000
0101
0000
0100
0001
0000
0010
0000
,
1010
0000
0010
0000
0011
0000
0001
0100
,
0001
0000
1000
0100
1000
0100
0000
0100
,
0010
0000
0001
0000
0100
0001
0100
0000
,
0001
0010
0000
0010
0001
0000
1000
0000
,
1010
0000
1000
0000
1100
0000
0100
0010
,
0100
0000
0010
0100
0010
0000
0002
0000
,
0100
0000
0100
0000
1003
0100
2000
0000
,
0100
0000
0100
0000
3001
0010
0002
0000
,
0010
0000
0100
0000
1003
0010
2000
0000
,
0100
0000
0010
0000
3001
0100
0002
0000
,
2003
0000
3200
0000
0320
0000
0031
0010
,
0001
0010
0001
0000
0000
0000
1200
0000
,
2300
3020
0230
0302
,
0103
0010
0200
0000
0301
0000
0021
0000
,
0100
0001
0130
0200
,
1300
0010
0000
0010
1000
0000
1002
0000
,
0100
0000
0013
0001
0010
0000
0002
0000
,
0203
0320
1030
2100
,
0010
0000
3010
0102
,
0010
0000
0013
0100
0010
0000
0011
0000
,
1100
0000
1010
0000
0101
0000
0001
0100
,
0001
0100
0000
0100
0010
0000
1010
0000
,
1000
0100
0000
0100
1000
0000
0001
0000
,
0010
0000
0001
0100
0001
0100
0000
1000
,
0000
0100
0010
0000
1010
0000
1000
0000
,
0100
0010
0000
0010
0100
0000
1100
0000
,
1000
0001
0000
0001
0010
0000
0100
0000
,
1000
0000
0001
0010
0001
0010
0000
1000
,
0000
0010
0001
0000
0011
0000
0001
0000
,
0101
0200
0320
2030
,
3200
0302
0203
0320
,
0032
0000
1003
0010
1000
0010
1000
0000
,
0001
0101
2002
3003
;

//---------------dance-single - ----------------
#NOTES:
     dance-single:
     :
     Easy:
     4:
     0.373,0.427,0.200,0.263,0.000:
0000
0000
0000
0000
,
0000
0000
0000
0002
,
0000
0000
0000
0013
,
0110
0100
0001
0100
,
0001
1000
1000
0000
0100
0000
1000
0000
,
0100
0010
0011
0100
,
1100
0000
1000
0010
1000
0000
0001
0010
,
0001
0010
0001
0010
,
0001
0001
1000
0000
0010
0000
1000
0000
,
0010
0100
0100
0000
0101
0000
0001
0000
,
0011
0000
0010
0001
0010
0000
0100
1000
,
0100
0010
0000
0001
,
0100
0101
0101
0001
,
1000
0000
0100
0000
0010
0000
0100
0100
,
0000
1000
0000
0010
0000
0100
0010
0000
,
1010
0000
1000
0000
1100
0000
0100
0010
,
0100
0000
0010
0100
0010
0000
0001
0000
,
0100
0000
0010
0000
1000
0000
0010
0010
,
0000
1000
0000
0100
0000
0010
0001
0000
,
0011
0000
0001
0000
0101
0000
0100
0001
,
0100
0000
0010
1000
0010
0000
1000
0000
,
0100
0000
1000
0100
0000
0100
0000
0000
,
0001
0100
0010
0001
,
1000
0000
0001
1000
0000
1000
0000
0000
,
0001
0100
0010
2000
,
3200
0000
0320
0000
0032
0000
0103
0001
,
0100
0001
0100
0000
0000
0000
0020
0000
,
2030
3200
0302
0203
,
0320
0031
0011
0001
,
0001
0001
0010
0100
,
0100
0010
0100
0000
0100
0000
1000
0000
,
1000
0000
1000
0000
0010
0000
0100
0001
,
0100
0000
0100
0001
0100
0000
0010
0000
,
1010
0000
0000
0000
0001
0000
1000
0100
,
0000
0100
0000
1000
0010
1000
0010
0000
,
0100
0001
0010
1100
,
1000
0200
0000
0010
0000
1300
0100
0000
,
0010
0002
0000
0100
0000
0013
0001
0000
,
0100
0010
1000
0100
,
1000
0010
0101
0010
,
0100
2000
0000
0010
0000
3001
0010
0000
,
0001
0200
0000
1000
0000
0301
0100
0000
,
0010
1000
0100
0010
,
0001
0101
0101
1010
,
1010
2000
3200
0302
,
0203
0320
0032
2003
,
3200
0000
0310
0000
0001
0001
0100
0000
,
0001
0001
2000
0000
0002
0000
3003
0000
;

//---------------dance-double - ----------------
#NOTES:
     dance-double:
     :
     Hard:
     8:
     0.515,0.475,0.189,0.379,0.037:
00000000
00000000
00000000
00000000
,
00000000
00000000
00000000
00000000
00000000
00000000
10000000
01000000
,
00100000
00010000
00001000
00000100
00000010
00000001
00000010
00000000
,
00000010
00000002
00000000
00000103
00010000
00000100
00000020
00000000
,
00001030
00000100
00000000
00000010
00000001
00000100
00002000
00000000
,
00003100
00000010
00010000
00000000
00011000
00000000
00001000
00000000
,
00011000
00000000
00001000
00100000
00010000
00000000
00000010
00001000
,
00010000
00002000
00000000
01003000
10000000
01000000
00200000
00000000
,
10300000
02000000
00000000
03100000
00010000
01000000
00002000
00000000
,
00103000
01000000
21000000
00000000
30100000
00000000
02000000
00000000
,
03200000
00320000
00230000
02300000
,
03002000
00000000
00013000
00000010
00001000
00000010
00000100
00000001
,
00000010
00000001
00000010
00000000
00000200
00000000
00000000
00000000
00002300
00000000
00003020
00000000
00000000
00000000
00000130
00000000
,
00000001
00000010
00002000
00000000
00003010
00000100
00010000
00001000
,
00100000
00001000
00000000
01000000
00010000
01000000
00100000
00000000
,
10010000
00000000
00100000
00000000
00011000
00000000
00000100
00001000
,
00000001
00000000
00000100
00000001
00001000
00000020
00000000
00001030
,
00000100
00000001
00000200
00000000
00010300
00000010
00000100
00001000
,
00000000
00010000
00000000
00001000
00100000
00010000
00100000
00000000
,
00110000
00000000
00000010
00000000
00001010
00000000
00001000
00000100
,
00010000
00000000
00001000
01000000
00010000
00200000
00000000
01300000
,
10000000
00000000
00010000
00000000
01000000
00000000
00100000
00000000
10000000
00000000
10000000
00000000
01000000
00000000
00000000
01000000
,
00100000
00000000
00010000
00000000
01000000
00000000
00000000
01000000
00001000
00000000
00020000
00000000
00000000
00000000
00031000
00000000
,
00010000
00000000
00000100
00000000
00001000
00000000
00000100
00000000
00000001
00000000
00000100
00000000
00000010
00000000
00000000
00000010
,
00000001
00000100
00001000
00000100
00010000
00000100
00000020
00000000
,
00000230
00000000
00002300
00000000
00003200
00000000
00000310
00010000
,
00000010
00010000
00000100
00010000
00001000
00010000
00100000
10000000
,
01000000
00010000
00001000
00010000
01000000
00100000
00001000
00010000
,
00000100
00000000
00000010
00000000
00000001
00000000
00000000
00001000
00000001
00000000
00000000
00000000
00002010
00000000
00000000
00000000
,
00003200
00000000
00000310
00000001
00000100
00000010
00001000
00000100
,
00000001
00000100
00000000
00001000
00000100
00010000
00002000
00000000
,
00023000
00000000
00031000
01000000
00010000
02000000
00000000
03010000
,
00100000
01000000
10000000
01000000
00100000
00010000
00000000
00110000
,
00010000
01000000
10000000
01000000
00001000
00011000
00000000
00110000
,
00000000
00011000
00000000
00010000
00000010
00001000
00001100
00000000
,
00001100
00000000
00000100
00000000
00000010
00000000
00000001
00000100
,
00001000
00000200
00000000
00000310
00001000
00000100
00000010
00001000
,
00100000
00002000
00000000
01003000
00100000
00010000
00001000
00100000
,
00010000
00000000
00100000
01000000
10000000
01000000
00000000
00110000
,
00000000
00100000
00001000
00000000
01000000
00000000
10000000
00000000
,
01000000
00200000
00000000
10300000
01000000
00100000
00010000
00100000
,
00001000
00020000
00000000
00030100
00000010
00000001
00000010
00000100
,
00002000
00000000
00003010
00000100
00000001
00000100
00000000
00001010
,
00000000
00000010
00001000
00000000
00010100
00000000
00001000
00000000
,
00110000
00000000
10000000
01000000
00010000
01000000
10000000
00100000
,
00010000
00001000
00000100
00001000
00010000
00001000
00000100
00000010
,
00001000
00000000
00000100
00000000
00000010
00000000
00000000
00000010
00000001
00000000
00000100
00000000
00000010
00000000
00000000
00000010
,
00000100
00000001
00001000
00000000
00001000
00000000
00000000
00000000
;

//---------------dance-double - ----------------
#NOTES:
     dance-double:
     :
     Medium:
     5:
     0.422,0.400,0.242,0.400,0.000:
00000000
00000000
00000000
00000000
,
00000000
00000000
00000000
10000000
,
01000000
00010000
00001000
00000010
,
00000010
00000100
00000000
00010000
00001000
00000000
00000100
00000000
,
00000001
00001000
00000000
00000010
00001000
00000000
00000100
00000000
,
00010000
00001000
02010000
03001000
,
00120000
00000000
10030000
01000000
10000000
00000000
00010000
00100000
,
00010000
00100000
00000000
00001000
00010000
00000000
00000100
00000000
,
00001000
00000010
00000000
00000100
00000010
00000000
00010000
00000000
,
00001000
00201000
00310000
02000000
,
23000000
30200000
00320000
02030000
,
03002000
00003010
00000100
00010000
,
00001000
00010000
00001000
00000000
00000010
00000100
00000000
00000100
,
00001000
00000000
00000010
00000000
00000001
00000000
00000010
00001000
,
00000000
00001010
00000000
00000010
00010000
00000000
00001000
00000000
,
00201000
00000000
00310000
00000000
00102000
00000000
00013000
01000000
,
00010000
00000000
01000000
10000000
01000000
10000000
00000000
00010000
,
00100000
00000000
00010000
00000000
00100000
01000000
00100000
00000000
,
00001000
00010000
00000000
00010000
00001000
00000000
00000100
00000000
,
00000120
00000000
00001030
00000000
00000210
00000000
00000301
00000010
,
00000001
00000000
00001000
00000100
00001000
00000000
00000001
00000000
,
00000100
00001000
00010000
00100000
,
01000000
00010000
00100000
00000000
01000000
10000000
00100000
00000000
,
00010000
00000000
00001000
00000000
00000100
00000000
00000001
00000010
,
00000001
00000000
00001000
00000100
00001000
00000010
00020000
00000000
,
02030000
00000000
23000000
00000000
32000000
00000000
03100000
00001000
,
00010000
00001000
00100000
00000000
00000000
00000000
00002000
00000000
,
00003200
00000302
00000023
00002030
,
00003200
00000000
00000310
00000000
00001000
00000100
00020000
00000000
,
00130000
00000000
10000000
00000000
01000000
00010000
02000000
00000000
,
00000000
10000000
00000000
03100000
01000000
00000000
00100000
00000000
,
00001000
00000000
00010000
00000000
00000010
00000000
00001000
00000100
,
00001000
00000000
00000001
00000100
00000001
00000000
00002100
00000000
,
00000010
00003010
00010000
00201000
,
00010000
00000000
00310000
10000000
00010000
00000000
11000000
00000000
,
00110000
00000000
01001000
00000000
00010100
00000000
00000100
00000010
,
00000100
00000020
00000000
00000031
00000010
00000000
00001100
00000000
,
00000100
00020000
00000000
00031000
00010000
00000000
00001000
00010000
,
00010000
02000000
23000000
30200000
,
00310000
01100000
01001000
01100000
,
01000000
00002000
00000000
00103000
00001000
00000000
00000100
00000000
,
00000001
00000020
00000000
00001030
00000010
00000000
00000100
00000000
,
00010000
02000000
23000000
30200000
,
00310000
01100000
10010000
01100000
,
01001000
00000000
00001000
00010000
00001000
00000000
00000100
00000010
,
00000100
00000001
00000010
00000100
,
00010000
00012000
00100000
01003000
,
00010000
10000000
00010000
00000000
00001000
00000000
00000000
00000000
;

//---------------dance-double - ----------------
#NOTES:
     dance-double:
     :
     Easy:
     3:
     0.356,0.425,0.284,0.389,0.000:
00000000
00000000
00000000
00000000
,
00000000
00000000
00000000
00002000
,
00000000
00000000
00000000
00103000
,
00010000
10010000
10000000
00100000
,
00010000
00001000
00010000
00100000
,
01000000
00001000
00011000
00010000
,
00011000
00002000
00003100
00000002
,
00000103
00001010
00001000
00000100
,
00010000
00001000
00010000
00000010
,
00000001
00000120
00000000
00010030
,
00001000
00100000
00010000
01000000
,
10000000
01000000
00000000
00010000
,
00000000
10010000
10010000
00010000
,
00100000
00001000
00100000
00010000
,
00000000
00000100
00000000
00000000
00000010
00000000
00001000
00000000
,
00001001
00000001
00001001
00002000
,
00003010
00000002
00000013
00010000
,
00001000
00100000
01000000
10000000
,
00000000
00010000
00000000
00000000
10000000
00000000
00100000
00000000
,
01100000
01000000
01100000
02000000
,
03001000
00200000
00301000
00010000
,
01000000
00000000
00100000
00000000
00000000
00001000
00000000
00000000
,
00010000
00000100
00001000
00000010
,
00000001
00000010
00001000
00000200
,
00000301
00000200
00010300
00002000
,
00203000
02300000
03200000
00301000
,
00010000
00011000
00000000
00002000
,
00203000
00320000
02030000
23000000
,
32000000
03010000
00100000
00012000
,
00003010
00000100
00010000
00012000
,
00000000
00100000
00000000
00000000
01003000
00000000
10010000
00000000
,
10000000
01010000
00010000
00200000
,
00302000
00023000
00030200
00000310
,
00000001
00000011
00000000
00000001
,
00001000
00001100
00000100
00000011
,
00001100
00000000
00000100
00000000
00010000
00000000
00001000
00010000
,
00001000
00200000
01000000
01300000
,
00100000
00002000
00010000
00013000
,
00000010
00001000
00000100
00000001
,
00000100
00001000
00001010
00000010
,
00000110
00000100
00000001
00000010
,
00001000
00000010
00000100
00010000
,
00011000
00001000
01000000
00100000
,
10000000
00010000
00110000
01000000
,
11000000
20000000
32000000
03200000
,
00320000
00032000
00003200
00000320
,
00000032
00002003
00000100
00000010
,
00003100
00011000
00011000
00000000
;

//---------------dance-single - ----------------
#NOTES:
     dance-single:
     :
     Beginner:
     1:
     0.117,0.176,0.053,0.000,0.000:
0000
0000
0000
0000
,
0000
0000
0000
0001
,
0000
0000
0000
0010
,
0010
0100
0000
0100
,
0000
1000
0000
1000
,
0000
0001
0000
0001
,
0000
0010
0000
0010
,
0000
1001
0000
0000
,
0001
0001
0000
0000
,
1000
1000
0000
0010
,
0000
0100
0000
0001
,
0000
1001
0000
0000
,
0001
0010
0010
0100
,
0100
0100
0000
0010
,
0000
0010
0000
0001
,
0000
0001
0000
1000
,
0000
1000
0000
1001
,
0000
0000
0001
0001
,
0000
0000
1000
0010
,
0000
0010
0000
0100
,
0000
0100
0000
0001
,
0000
0000
1000
1000
,
0000
0100
0000
1000
,
0000
0000
0001
0001
,
0000
0100
0000
0010
,
0010
0010
0000
1000
,
0000
0001
0000
1001
,
0000
0001
0000
0010
,
0000
0001
0000
1000
,
0000
0000
1000
0001
,
0000
0001
0000
0100
,
0000
0000
0000
0001
,
0001
0001
0000
1000
,
0000
1000
0000
0010
,
0000
0010
0000
0100
,
0100
0100
0000
0000
,
0000
0000
0000
0000
,
0000
0000
0000
0000
,
0000
0000
0000
0000
,
0000
0000
0000
0000
,
0000
0000
0000
0000
,
0000
0000
0000
0000
,
0000
0000
0000
0000
,
0000
0000
0000
0000
,
0000
0000
0000
0000
,
0000
0000
0000
0000
,
0000
0000
0000
0000
,
0000
0000
0000
1001
;
