#TITLE:HARDCORE NATION;
#SUBTITLE:PART 2;
#ARTIST:Stu Allan and Darwin;
#TITLETRANSLIT:;
#SUBTITLETRANSLIT:;
#ARTISTTRANSLIT:;
#CREDIT:;
#BANNER:HARDCORE NATION PT 2.png;
#BACKGROUND:HARDCORE NATION PT 2-bg.png;
#LYRICSPATH:;
#CDTITLE:;
#MUSIC:HARDCORE NATION PT 2.ogg;
#OFFSET:-0.041;
#SAMPLESTART:101.780;
#SAMPLELENGTH:10.740;
#SELECTABLE:YES;
#BPMS:0.000=179.080,94.000=358.120,98.000=179.100,234.000=358.200,250.000=179.100,310.000=367.500,318.000=179.100;
#STOPS:;
#BGCHANGES:;

//---------------dance-single - ----------------
#NOTES:
     dance-single:
     :
     Challenge:
     9:
     0.711,0.766,0.220,0.401,0.424:
0000
0000
0000
0000
,
0000
0000
0000
0000
,
0000
0000
0000
0000
,
0000
0000
0000
0000
,
0001
0010
1000
0010
0001
0000
0001
0000
,
1000
0010
0001
0010
1000
0000
1000
0000
,
0001
0010
0001
0000
1000
0010
1000
0000
,
2002
0000
0000
3003
,
0001
0000
0010
0000
0000
0000
0010
0000
0001
1000
0000
0010
0000
0000
0200
0000
,
0000
0000
0301
0000
0000
0000
0001
0000
0100
0010
0000
1000
0000
0000
0200
0000
,
0000
0000
0310
0000
0000
0000
0010
0000
0100
1000
0000
0001
0000
0000
0200
0000
,
0000
0000
0310
0000
0000
0000
0010
0000
1000
0100
0000
0010
0000
0000
0100
0000
,
1000
0000
0001
0000
0000
0000
0001
0000
1000
0010
0000
0100
0000
0000
0020
0000
,
0000
0000
1030
0000
0000
0000
1000
0000
0001
0010
0000
0100
0000
0000
0020
0000
,
0000
0000
0031
0000
0000
0000
0001
0000
1000
0010
0000
0100
0000
0000
0001
0000
,
2000
0100
0010
3001
,
0021
0000
0032
0000
1003
0010
0100
0000
,
0001
0010
0100
0000
1000
0100
0010
0001
,
0201
0000
0302
0000
1003
0100
0010
0000
,
0001
0100
0001
0100
1000
0100
0001
0010
,
2010
0000
3020
0000
0031
0100
1000
0100
,
0102
0000
0203
0000
0310
1000
0100
0001
,
0100
0100
1000
1000
0001
0100
0010
0100
,
0002
0000
0000
0000
,
0000
0000
0000
0000
0000
0000
0000
0000
1003
0000
0010
0000
1000
0000
0000
1000
,
0001
0000
0010
0000
1000
0000
0010
0000
0001
0000
0000
0000
0101
0000
0000
0100
,
1000
0000
0001
0000
0010
0000
1000
0000
0100
0000
0010
0000
0100
0000
0000
0100
,
1000
0000
0010
0000
0001
0000
0010
0000
0100
0000
0000
0000
0101
0000
0000
0001
,
0010
0000
1000
0000
0010
0000
0100
0000
1000
0000
0001
0000
1000
0000
0000
0001
,
0010
0000
0100
0000
0010
0000
0001
0000
1000
0000
0000
0000
1010
0000
0000
0010
,
0100
0000
0001
0000
1000
0000
0100
0000
0010
0000
0001
0000
0010
0000
0000
0001
,
1000
0010
0100
0001
0020
0000
0130
0000
,
2001
0000
0000
0000
3010
0000
0000
0000
0100
0000
0100
0000
0010
0000
0000
1000
,
0000
0000
0100
0000
0010
0000
0100
0000
1000
0000
1000
0000
0001
0000
0000
0100
,
0000
0000
0001
0000
0010
0000
0100
0000
1000
0000
1000
0000
0010
0000
0000
0100
,
0000
0000
0001
0000
0010
0000
0001
0000
1000
0000
1000
0000
0010
0000
0000
0100
,
0000
0000
0001
0000
0010
0000
0000
0000
0100
0000
1000
0000
0010
0000
0000
0010
,
0000
0000
0100
0000
0001
0000
1000
0000
0001
0000
0100
0000
0010
0000
0000
0010
,
0000
0000
1000
0000
0100
0000
1000
0000
0001
0000
0100
0000
0010
0000
0000
0010
,
0000
0000
0100
0000
0001
0000
1000
0000
0100
0000
1000
0000
0010
0000
0000
0010
,
0000
0100
0001
1000
2002
0000
0000
0000
,
0000
0000
0000
0000
,
0000
0000
0000
3003
0000
0000
0000
0000
1000
0000
1000
0000
0010
0000
0010
0000
,
1000
0000
0001
0000
0001
0000
0000
0000
1000
0100
0010
0002
0000
0000
0100
0000
,
0000
0100
0000
0000
0103
0000
0000
0001
0000
0000
0010
0000
0000
0100
0000
0000
,
1000
0000
0000
0001
0000
0000
0001
0000
1000
0100
0010
0002
0000
0000
1000
0000
,
0000
1000
0000
0000
1003
0000
0000
0010
0000
0000
0100
0000
0000
0010
0000
0000
,
1000
0000
0000
0001
0000
0000
0100
0000
0001
0010
0100
2000
0000
0000
0010
0000
,
0000
0010
0000
0000
3010
0000
0000
0100
0000
0000
0001
0000
0000
1000
0000
0000
,
0010
0000
0000
0010
0000
0000
1000
0000
0001
0010
0100
2000
0000
0000
0010
0000
,
0000
0010
0000
0000
3010
0000
0000
1000
0001
0000
0000
0000
0010
0000
0000
0000
,
0100
0000
1000
0000
0001
0010
1000
0010
,
0001
0000
0100
0010
0100
0000
0001
0000
1000
0000
0100
0000
0001
0000
0100
0000
,
1000
0000
0010
0100
0010
0000
1000
0000
0001
0000
0010
0000
1000
0000
0001
0000
,
0100
0000
1000
0001
1000
0000
0100
0000
1000
0000
0010
0000
0001
0000
1000
0000
,
0100
0000
0001
1000
0001
0000
0010
0000
0100
1000
0100
0000
0010
0000
0001
0000
,
1000
0000
0010
0100
0010
0000
1000
0000
0001
0000
0010
0000
0100
0000
1000
0000
,
0001
0000
0010
0000
0100
0000
1000
0000
0001
0100
0001
0000
1000
0000
0100
0000
,
0010
0000
0001
0100
0001
0000
1000
0000
2002
0000
0000
0000
0000
0000
0000
0000
,
0000
0000
0000
0000
,
0000
0000
3003
0000
,
0000
0000
0000
0000
,
0000
0000
0000
0000
0000
0000
0001
0000
0001
0010
0000
0010
,
1000
0000
1000
0010
0000
0010
0001
0000
0001
0100
0000
0100
,
0010
0000
0010
1000
0000
1000
0001
0010
0001
1000
0000
1000
,
0100
0000
0100
0010
0000
0010
0001
0000
0001
0010
0000
0010
,
0100
0000
0100
1000
0000
1000
0100
0000
0100
1000
0000
1000
,
0010
0000
0010
1000
0000
1000
0001
0000
0001
0010
0000
0010
,
1000
0000
1000
0010
0000
0010
0001
1000
0001
0100
0000
0100
,
0010
0000
0010
1000
0000
1000
0001
0000
0001
0010
0000
0010
,
0100
0000
0100
1000
0000
0000
2010
0000
0000
3100
0000
0010
,
0100
0000
0000
2100
0000
0000
3001
0000
0001
1000
0000
1000
,
0020
0000
0000
1030
0000
0000
0102
0000
0000
0013
0000
0100
,
0010
0000
0000
1002
0000
0000
0103
0000
0100
0010
0000
0010
,
2000
0000
0000
3001
0000
0000
0021
0000
0000
0130
0000
1000
,
0100
0000
0000
1002
0000
0000
0013
0000
0010
0001
0000
0001
,
2000
0000
0000
3010
0000
0000
0201
0000
0000
0310
0000
0010
,
2000
3010
0102
0000
,
0000
0000
0000
0000
,
0000
0000
0000
0000
1003
0100
0001
0100
,
1000
0010
0100
0001
0010
0000
1001
0000
,
0100
0000
1001
0000
0001
0100
1000
0100
,
0001
0010
0100
1000
0010
0000
1001
0000
,
0100
0000
0000
0100
0001
0000
1000
0000
0001
0000
0010
0000
1000
0000
0010
0000
,
0001
0100
0010
1000
0100
0000
1001
0000
,
0010
0000
2001
0000
3001
0010
1000
0010
,
0001
0000
0100
0000
0010
0000
1000
0000
0100
0000
0000
0100
0010
0000
0000
0010
,
0001
0000
0000
0001
1000
0000
0010
0000
2010
0000
0000
0000
3001
0000
0010
0000
,
0200
0000
0310
0000
0001
0100
1000
0100
,
0002
0000
0013
0000
2100
0000
3010
0100
,
0002
0000
0013
0000
0001
0100
0010
1000
,
0200
0000
0310
0000
0001
0001
1000
1000
,
0020
0000
0130
0000
0001
0001
1000
1000
,
0200
0000
0310
0000
0001
1000
0020
0000
,
1030
0000
0000
0001
0000
0000
0010
0000
0000
0000
0000
0000
1001
0000
0000
0000
1000
0000
0010
0000
0000
0000
0001
0000
,
0010
0100
2002
0000
,
0000
0000
0000
0000
,
0000
0000
3003
0000
;

//---------------dance-double - ----------------
#NOTES:
     dance-double:
     :
     Challenge:
     8:
     0.707,0.675,0.141,0.338,0.420: // measure 1
00000000
00000000
00000000
00000000
,  // measure 2
00000000
00000000
00000000
00000000
,  // measure 3
00000000
00000000
00000000
00000000
,  // measure 4
00000000
00000000
00000000
00000000
,  // measure 5
10000000
01000000
00010000
00001000
00010000
00000000
00100000
00000000
,  // measure 6
00010000
00001000
00000100
00000001
00000100
00000000
00000010
00000000
,  // measure 7
00001000
00000000
00000000
00001000
00000100
00000000
00000000
00000100
00010000
00000000
00000000
00010000
00001000
00000000
00000000
00001000
,  // measure 8
00200000
00000000
00000000
00000000
,  // measure 9
00310000
00000000
01000000
00000000
00000000
00000000
01000000
00000000
00001000
00010000
00000000
00000100
00000000
00000000
00002000
00000000
,  // measure 10
00000000
00000000
00003010
00000000
00000000
00000000
00000010
00000000
00001000
00000100
00000000
00000001
00000000
00000000
00000200
00000000
,  // measure 11
00000000
00000000
00010300
00000000
00000000
00000000
00000010
00000000
00001000
00000100
00000000
00010000
00000000
00000000
00000200
00000000
,  // measure 12
00000000
00000000
00001300
00000000
00000000
00000000
01000000
00000000
00100000
00010000
00000000
10000000
00000000
00000000
00020000
00000000
,  // measure 13
00000000
00000000
01030000
00000000
00000000
00000000
00100000
00000000
10000000
00010000
00000000
01000000
00000000
00000000
00020000
00000000
,  // measure 14
00000000
00000000
00130000
00000000
00000000
00000000
00001000
00000000
00010000
00000100
00000000
00000010
00000000
00000000
00000200
00000000
,  // measure 15
00000000
00000000
00001300
00000000
00000000
00000000
00000001
00000000
00000100
00000010
00000000
00001000
00000000
00000000
00000020
00000000
,  // measure 16
00000000
00000000
00010030
00000000
00000000
00000000
00001000
00000000
00100000
00010000
00000000
01000000
00000000
00000000
00010000
00000000
,  // measure 17
10010000
00000000
20010000
00000000
31000000
00100000
00001000
00000000
,  // measure 18
01000000
00001000
00010000
00000000
01000000
00100000
00001000
00010000
,  // measure 19
00011000
00000000
00011000
00000000
00001000
00000100
00000010
00000000
,  // measure 20
00010000
00000100
00000010
00000100
00010000
00001000
00000010
00000000
,  // measure 21
00001001
00000000
00001001
00000000
00000010
00000100
00010000
00001000
,  // measure 22
00011000
00000000
00011000
00000000
00001000
00100000
01000000
10000000
,  // measure 23
00100000
00100000
00010000
00010000
00001000
00001000
00000010
00000010
,  // measure 24
00000002
00000000
00000000
00000000
,  // measure 25
00000000
00000000
00000000
00000000
00000000
00000000
00000000
00000000
00001003
00000000
00000100
00000000
00000010
00000000
00000100
00010000
,  // measure 26
00000000
00010000
00000100
00000000
00000010
00000000
00000001
00000000
00000100
00000000
00000010
00000000
00010000
00000000
00000010
00000100
,  // measure 27
00000000
00000100
00000010
00000000
00010000
00000000
00001000
00000000
00010000
00000000
01000000
00000000
10000000
00000000
01000000
00100000
,  // measure 28
00000000
00100000
01000000
00000000
10000000
00000000
00100000
00000000
00010000
00000000
00001000
00000000
00010000
00000000
00100000
01000000
,  // measure 29
00000000
01000000
00100000
00000000
00010000
00000000
00001000
00000000
00000100
00000000
00000001
00000000
00000010
00000000
00000001
00001000
,  // measure 30
00000000
00001000
00000001
00000000
00000010
00000000
00000100
00000000
00010000
00000000
00000100
00000000
00001000
00000000
00000010
00000100
,  // measure 31
00000000
00000100
00000010
00000000
00010000
00000000
00001000
00000000
01000000
00000000
00010000
00000000
00100000
00000000
00010000
10000000
,  // measure 32
00000000
10000000
00010000
00000000
00100000
00000000
01000000
00000000
10000000
00000000
00000000
00000000
12000000
00000000
00000000
00000000
,  // measure 33
03100000
00000000
00120000
00000000
01030000
00001000
00010000
00001000
,  // measure 34
00000100
00000010
00002000
00000000
00003100
00010000
00001000
00010000
,  // measure 35
00000010
00000100
00002000
00000000
00013000
00100000
01000000
00100000
,  // measure 36
10000000
01000000
00020000
00000000
00031000
00000010
00000100
00000010
,  // measure 37
00000001
00001000
00000200
00000000
00010300
00001000
00000010
00000100
,  // measure 38
00010000
00001000
00200000
00000000
00301000
00010000
01000000
00100000
,  // measure 39
00001000
00010000
00000200
00000000
00010300
00001000
01000000
00001000
,  // measure 40
00100000
00010000
01000000
00000000
00100000
00000000
20100000
00000000
,  // measure 41
30020000
00130000
00022000
00000000
,  // measure 42
00000000
00000000
00000000
00000000
,  // measure 43
00033000
00000000
00000000
00000000
00001000
00010000
00001000
00010000
,  // measure 44
00001000
00000010
00000001
00000001
00001000
00000100
00000010
00000001
,  // measure 45
00000010
00000100
00001000
00000100
00000010
00000001
00000010
00000100
,  // measure 46
00001000
00000100
00010000
00001000
00100000
00010000
10000000
01000000
,  // measure 47
10000000
00010000
00100000
00010000
10000000
01000000
10000000
00010000
,  // measure 48
00100000
00001000
00010000
00000100
00001000
00000010
00000100
00000001
,  // measure 49
00000100
00000010
00001000
00000010
00000100
00000001
00000100
00000010
,  // measure 50
00001000
00000100
00010000
00001000
00100000
01000000
10000000
01000000
,  // measure 51
00100000
00001000
00010000
00000000
02010000
00000000
13000000
00000000
,  // measure 52
00100000
00000000
00010000
00000000
00001000
00000100
00000001
00000100
,  // measure 53
00000010
00000000
00001000
00000100
00000000
00000000
00010000
00000000
00001000
00000000
00100000
00000000
01000000
00000000
00100000
00000000
,  // measure 54
00001000
00000000
00100000
00010000
00000000
00000000
01000000
00000000
00100000
00000000
10000000
00000000
00010000
00000000
10000000
00000000
,  // measure 55
00100000
00000000
10000000
01000000
00000000
00000000
00100000
00000000
00001000
00000000
00010000
00000000
00000100
00000000
00010000
00000000
,  // measure 56
00001000
00000000
00010000
00000100
00000000
00000000
00000010
00000000
00000001
00000000
00000100
00000000
00001000
00000000
00000100
00000000
,  // measure 57
00000001
00000000
00001000
00000100
00000000
00000000
00010000
00000000
00001000
00000000
00100000
00000000
01000000
00000000
00100000
00000000
,  // measure 58
00001000
00000000
00100000
00010000
00000000
00000000
01000000
00000000
00100000
00000000
10000000
00000000
01000000
00000000
00010000
00000000
,  // measure 59
00001000
00010000
01000000
00000000
20010000
00000000
00000000
00000000
,  // measure 60
00000000
00000000
00000000
00000000
,  // measure 61
00000000
00000000
30100000
00000000
,  // measure 62
00000000
00000000
00000000
00000000
,  // measure 63
00000000
00000000
00000000
00000000
00000000
00000000
10000000
00000000
10000000
01000000
00000000
01000000
,  // measure 64
00010000
00000000
00010000
01000000
00000000
01000000
10000000
00000000
00100000
01000000
00000000
00010000
,  // measure 65
00100000
00000000
00001000
00010000
00000000
00000100
00001000
00000100
00001000
00000001
00000000
00000100
,  // measure 66
00000001
00000000
00001000
00000001
00000000
00000000
00000011
00000000
00000001
00000010
00000000
00000010
,  // measure 67
00001000
00000000
00001000
00010000
00000000
00000000
00011000
00000000
00001000
00100000
00000000
00100000
,  // measure 68
00010000
00000000
00010000
01000000
00000000
01000000
00010000
00000000
00100000
00001000
00000000
00010000
,  // measure 69
00000100
00000000
00001000
00000010
00000000
00000100
00000001
00000100
00000001
00001000
00000000
00000100
,  // measure 70
00000010
00000000
00000100
00001000
00000000
00000100
00000010
00000000
00000010
00001000
00000000
00001000
,  // measure 71
00010000
00000000
00010000
01000000
00000000
01000000
10000000
00000000
00000000
10000000
00000000
10000000
,  // measure 72
00200000
00000000
00000000
02300000
00000000
00000000
03010000
00000000
00010000
00100000
00000000
00100000
,  // measure 73
00002000
00000000
00000000
00010000
00000000
00000000
00003010
00000000
00000000
00000100
00000000
00000100
,  // measure 74
00010000
00000000
00000000
00000020
00000000
00000000
00001030
00000000
00001000
00000100
00000000
00000100
,  // measure 75
00000020
00000000
00000000
00000001
00000000
00000000
00000130
00000000
00000000
00001000
00000000
00001000
,  // measure 76
00000010
00000000
00000000
00020000
00000000
00000000
00031000
00000000
00001000
00100000
00000000
00100000
,  // measure 77
00020000
00000000
00000000
01000000
00000000
00000000
10030000
00000000
00000000
00100000
00000000
00100000
,  // measure 78
01000000
00000000
01000000
00010000
00000000
00000000
00110000
00000000
00000000
00000000
00000000
00000000
,  // measure 79
00000000
00000000
00000000
00000000
,  // measure 80
00000000
00000000
00000000
00000000
00000000
00000000
00000000
00000000
00010000
00000000
00000000
00010000
01000000
00000000
00000000
01000000
,  // measure 81
00100000
00000000
10000000
00000000
01000000
00000000
00010000
00000000
00001000
00000000
00000000
00010000
00001000
00000000
00000000
00010000
,  // measure 82
00001000
00000000
00000000
00000010
00000200
00000000
00000000
00000000
00001300
00000000
00000000
00001000
00000010
00000000
00000000
00000010
,  // measure 83
00000001
00000000
00000010
00000000
00000100
00000000
00000001
00000000
00001000
00000000
00000000
00000100
00001000
00000000
00000000
00000100
,  // measure 84
00001000
00000000
00000000
00000100
00000010
00000000
00000001
00000000
00000010
00000000
00000000
00000010
00000100
00000000
00000000
00000100
,  // measure 85
00010000
00000000
00000010
00000000
00000100
00000000
00001000
00000000
00010000
00000000
00000000
00001000
00010000
00000000
00000000
00001000
,  // measure 86
00010000
00000000
00000000
00010000
02000000
00000000
00000000
00000000
13000000
00000000
00000000
10000000
00100000
00000000
00000000
00100000
,  // measure 87
00010000
00000000
00100000
00000000
01000000
00000000
00001000
00000000
00010000
00000000
00000000
00010000
00100000
00000000
00000000
00100000
,  // measure 88
10000000
00000000
00000000
10000000
01000000
00000000
00010000
00000000
02000000
00000000
00000000
00000000
03100000
00000000
00001000
00000000
,  // measure 89
00200000
00000000
00000000
00000000
00301000
00000000
00010000
00000000
00001000
00000000
00000000
00000010
00000000
00000000
00000002
00000000
,  // measure 90
00001000
00000000
00000013
00000000
00000200
00000000
00010300
00001000
,  // measure 91
00020000
00000000
00000000
00000000
00130000
00000000
01000000
00000000
00100000
00000000
00000000
10000000
00000000
00000000
00020000
00000000
,  // measure 92
00100000
00000000
10030000
00000000
00010000
01000000
10000000
01000000
,  // measure 93
00020000
00000000
00130000
00000000
00001000
00000100
00000001
00000100
,  // measure 94
00002000
00013000
00200000
00000000
,  // measure 95
20000000
00000000
00000000
30300000
00000000
00000000
10000000
00000000
10000000
00010000
00000000
00010000
,  // measure 96
00100000
00001000
00000110
00000000
;
