#TITLE:HARDCORE NATION;
#SUBTITLE:PART 1;
#ARTIST:Stu Allan and Darwin;
#TITLETRANSLIT:;
#SUBTITLETRANSLIT:;
#ARTISTTRANSLIT:;
#CREDIT:;
#BANNER:HARDCORE NATION.png;
#BACKGROUND:HARDCORE NATION-bg.png;
#LYRICSPATH:;
#CDTITLE:;
#MUSIC:HARDCORE NATION.ogg;
#OFFSET:-0.042;
#SAMPLESTART:64.360;
#SAMPLELENGTH:10.740;
#SELECTABLE:YES;
#BPMS:0.000=179.060,188.000=358.001,196.000=179.000;
#STOPS:;
#BGCHANGES:;

//---------------dance-single - ----------------
#NOTES:
     dance-single:
     :
     Hard:
     9:
     0.714,0.685,0.356,0.374,0.414:
0000
0000
0000
0000
,
0000
0000
0000
0000
,
0000
0000
0000
0000
,
0000
0000
0000
0000
,
0101
1001
1020
0100
,
2030
0000
0000
0001
0000
0000
3001
0000
0010
0000
0000
0000
0100
0000
0000
0000
,
0011
0110
2100
3010
,
2002
0000
0000
3003
0000
0000
0001
0000
0001
0010
0000
0010
,
0100
0000
2100
0000
3001
0000
0100
0010
,
2000
0000
0000
0100
0000
0000
3100
0000
0010
0000
0000
0000
0001
0000
1000
0000
,
1010
0000
0210
0000
0301
0000
0001
0010
,
0200
0000
0000
1000
0000
0000
1300
0000
0001
0000
0100
0000
0010
0000
1000
0000
,
0100
0100
0010
0010
0200
0000
1300
0000
,
0010
0010
0100
0100
0020
0000
1030
0000
,
0100
0000
1000
0000
0100
0000
1000
0000
0001
0100
0001
0000
1000
0100
1000
0000
,
0020
0000
0000
0000
,
1030
0000
1000
0000
1000
0100
0010
0100
,
0001
0000
0000
0100
,
0021
0000
0031
0000
0001
0010
0100
0010
,
1000
0000
0000
0000
0110
0000
1000
0001
,
0200
0000
0301
0000
0001
0100
0010
0100
,
1000
0000
2000
3100
,
0101
0000
0101
0000
0001
0100
0010
1000
,
0200
0020
0000
0330
,
0001
0000
0000
0001
0010
0000
0000
0010
0001
0000
0100
0000
0010
0000
1000
0000
,
0200
0000
0010
1300
,
1000
0000
0000
1000
0010
0000
0000
0010
1000
0000
0100
0000
0010
0000
0001
0000
,
0020
0030
0110
1001
,
0001
0000
0000
0001
1000
0000
0000
1000
0010
0000
0100
0000
0001
0000
0010
0000
,
0002
0003
0102
1000
,
0013
0000
0000
0010
0100
0000
0000
0100
0010
0000
0001
0000
1000
0000
0020
0000
,
0100
0000
0100
0000
0130
0001
0010
1000
,
0010
0000
0000
0010
0001
0000
0000
0001
0100
0000
0010
0000
1000
0000
0100
0000
,
1000
0000
0000
1000
0010
0000
0000
0010
0001
0000
0000
0001
0020
0000
0000
0000
,
1030
0000
0000
1000
0100
0000
0000
0100
0010
0000
0001
0000
1000
0000
0010
0000
,
1000
0000
0000
1000
0001
0000
0000
0001
0010
0000
0000
0010
0100
0000
1000
0000
,
0010
0000
0000
0010
1000
0000
0000
1000
0001
0000
0010
0000
1000
0000
0010
0000
,
0001
0000
0000
0001
0100
0000
0000
0100
0010
0000
0000
0010
2000
0000
0000
0000
,
3001
0000
0000
0001
0010
0000
0000
0010
1000
0000
0010
0000
0001
0000
0100
0000
,
1000
0000
0000
1000
0100
0000
0000
0100
0001
0000
0000
0001
1000
0000
0100
0000
,
0001
0000
0000
0001
0100
0000
0000
0100
1000
0000
0000
1000
0001
0000
0100
0000
,
1000
0000
0000
1000
0100
0000
0000
0100
0001
0000
0000
0001
1000
0000
0100
0000
,
0001
0000
0000
0001
0100
0000
0000
0100
1000
0000
0000
1000
0001
0000
0100
0000
,
0010
0000
0000
0010
1000
0000
0000
1000
0001
0000
0000
0001
0010
0000
0100
0000
,
0010
0000
0000
0010
0001
0000
0000
0001
0010
0000
0000
0010
1000
0000
0000
1000
,
0010
0000
0000
0010
0001
0000
0000
0001
0010
0000
0000
0010
1000
0000
0000
1000
,
0010
0000
0000
0100
0010
0000
0000
0001
0010
0000
0000
0100
0010
0000
0000
0010
,
0002
0000
0000
0000
,
0000
0000
0000
0000
,
1003
0100
0001
0100
1000
0010
0100
0001
,
0010
1001
0100
1001
,
0001
0100
1000
0100
0001
0010
0100
1000
,
0010
0000
0000
0000
1001
0000
0000
0000
0100
0000
0000
0100
0001
0000
1000
0000
,
0001
0010
1000
0010
0001
0100
0010
1000
,
0100
1001
0010
2001
,
3001
0010
1000
0010
0001
0100
0010
1000
,
0100
0000
0000
0100
0010
0000
0000
0010
0001
0000
0000
0001
1000
0000
0010
0000
,
1000
0000
0000
1000
0010
0000
0000
0010
1000
0000
0001
0010
0001
0000
0100
0000
,
0010
0000
0000
0010
1000
0000
0000
1000
0100
0000
0010
0001
0010
0000
0100
0000
,
1000
0000
0000
1000
0001
0000
0000
0001
0010
0000
0100
1000
0100
0000
0010
0000
,
0001
0000
0000
0001
0100
0000
0000
0100
0010
0000
0000
0010
1000
0000
0100
0000
,
1000
0000
0000
1000
0001
0000
0000
0001
0010
0000
0100
1000
0100
0000
0010
0000
,
0001
0000
0000
0001
0100
0000
0000
0100
0010
0000
1000
0001
1000
0000
0010
0000
,
1000
0000
0000
1000
0100
0000
0000
0100
0010
0000
0001
1000
0001
0000
0010
0000
,
0200
2300
3002
0203
,
0310
0000
1010
0000
0101
0000
0001
0010
,
0200
0000
0000
1000
0000
0000
1300
0000
0010
0000
0000
0000
1000
0000
0001
0000
,
0011
0000
0110
0000
1100
0000
1000
0001
,
0200
0000
0000
0010
0000
0000
0310
0000
1000
0000
0100
0000
0010
0000
0001
0000
,
1001
0000
0011
0000
1100
0000
1000
0010
,
0200
0000
0000
1000
0000
0000
1300
0000
0100
0000
0000
0000
0001
0000
0010
0000
,
0110
0000
1100
0000
0011
0000
0001
0010
,
0210
0000
0000
0301
0000
0000
1100
0000
1000
0001
0000
0001
,
0010
0000
0011
0000
1200
0000
1300
0010
,
2000
0000
0000
0001
0000
0000
3001
0000
0010
0000
0000
0000
0001
0000
0100
0000
,
0010
0000
1010
0000
0101
0000
0001
1000
,
0200
0000
0000
0001
0000
0000
0301
0000
0100
0000
1000
0000
0010
0000
0100
0000
,
0001
0001
1000
1000
0020
0000
0130
0000
,
0001
0001
1000
1000
0200
0000
0310
0000
,
0100
0000
1000
0000
0010
0000
1000
0000
0001
0100
0001
0000
1000
0100
1000
0000
,
0020
0032
0203
1300
,
1001
0000
0000
0000
;

//---------------dance-single - ----------------
#NOTES:
     dance-single:
     :
     Medium:
     6:
     0.541,0.576,0.267,0.516,0.009:
0000
0000
0000
0000
,
0000
0000
0000
0000
,
0000
0000
0000
0000
,
0000
0000
0000
0000
,
0011
0001
0200
0010
,
0301
0000
0000
1000
0000
0000
0001
0000
0000
0000
0000
0000
0001
0000
0000
0000
,
0011
0001
2000
0000
,
3010
0000
0000
0100
0000
0000
0010
0000
0000
0000
0000
0000
1000
0000
0000
0000
,
1100
0000
1000
0000
0001
0000
0100
0010
,
0100
0001
0010
1001
,
0001
0000
0100
0000
0010
0000
1000
0100
,
1000
0010
0100
1001
,
0001
0010
0001
0010
0002
0000
1003
0000
,
1000
0010
1000
0010
2000
0000
3001
0000
,
0012
1003
2010
3001
,
2002
3003
0000
0000
,
1000
0000
1000
0000
0100
0010
0100
0000
,
0010
0000
0000
0001
,
1001
0000
0001
0000
0100
0010
0100
0000
,
0010
0000
0000
0000
1001
0000
1000
0100
,
1000
0000
1000
0000
0010
0100
0010
0000
,
0100
0000
1001
0100
,
0001
0000
0001
0000
0010
0100
0010
0000
,
0210
0010
0000
0000
,
1300
0000
1000
0000
0001
0010
0001
0000
,
2000
0000
3010
0100
,
1001
0000
0001
0000
0001
0100
0001
0000
,
0020
0000
0030
0000
0110
0000
0100
1000
,
0100
0000
0010
0000
0001
1000
0001
0000
,
0020
0000
0130
1001
,
0010
0000
0010
0000
0100
0001
0200
0000
,
0010
0010
0010
0310
,
1000
0000
0001
0000
0100
0010
0100
0000
,
0020
1030
0001
2001
,
3010
0000
0100
0000
0001
1000
0001
0000
,
0020
0130
1000
1002
,
0013
0000
0100
0000
1000
0001
1000
0000
,
0020
1030
0001
1002
,
0013
0000
0100
0000
0010
0000
0001
1000
,
0001
0000
0010
0000
0100
0000
1000
1000
,
0001
0000
0010
0000
0100
0000
1000
1000
,
0001
0000
0010
0000
0100
0000
1000
1000
,
0001
0000
0010
0000
0100
0000
1000
1000
,
0001
0000
0010
0000
0100
0000
1000
1000
,
0001
0010
1000
0010
,
0001
0100
1000
0100
,
0201
0001
0001
0301
,
1010
0000
0000
0000
,
0000
0000
0000
0000
,
1000
0000
0001
0000
0100
0010
0100
0000
,
0001
0010
0100
2100
,
3001
0000
1000
0000
0100
0010
0100
0000
,
1000
0000
0100
0000
0010
0000
0001
0100
,
0001
0000
0010
0000
0001
1000
0001
0000
,
1000
0100
0010
0012
,
1003
0000
0010
0000
0100
0001
0100
0000
,
0020
2030
3200
0301
,
0010
1000
0010
0000
0100
0001
0100
0000
,
0002
0013
0100
2100
,
3001
0010
0001
0000
1000
0100
1000
0000
,
0020
0000
1030
0000
0001
0000
0001
1000
,
0002
0000
0013
0000
0100
1000
0100
0000
,
0020
0031
1000
1020
,
1030
0100
1000
0000
0001
0010
0001
0000
,
2000
3200
0320
0031
,
1001
0000
0001
0000
0200
0000
0310
1000
,
0010
0000
0100
0000
0001
0000
1000
0100
,
1000
0000
0010
0000
0200
0000
0301
1000
,
0001
0010
0100
1000
,
1010
0000
1000
0000
0002
0000
0013
0100
,
0010
0000
0001
0000
1000
0000
0010
0100
,
0010
1000
0200
0310
,
0022
0033
0001
0110
,
2000
0000
3200
0000
0320
0000
0031
1000
,
0002
0023
0230
1300
,
0002
0000
0023
0000
0230
0000
1300
0001
,
2000
3200
0320
0031
,
1000
0100
1000
0100
2000
0000
3010
0000
,
0100
0001
0100
0001
0200
0000
0310
0000
,
1000
0020
1000
0000
0130
0000
0100
0000
,
1002
2003
3200
0310
,
1100
0000
0000
0000
;

//---------------dance-single - ----------------
#NOTES:
     dance-single:
     :
     Easy:
     4:
     0.478,0.613,0.507,0.338,0.000:
0000
0000
0000
0000
,
0000
0000
0000
0000
,
0000
0000
0000
0000
,
0000
0000
0000
0000
,
0001
0010
1100
0000
,
1000
1000
1000
0000
,
1000
0010
0101
0000
,
0001
0000
0010
0010
,
0001
0100
1010
1000
,
0100
0100
1001
0000
,
0001
0010
0110
1000
,
0001
0001
0110
0000
,
1000
0100
0010
0010
,
0001
0100
0010
0010
,
2000
3100
0002
0103
,
0110
0000
0000
0000
,
0010
0010
0001
0100
,
0020
0000
0000
1030
,
1100
1000
0001
0100
,
0010
0000
1001
0010
,
0001
0001
1000
0100
,
0020
0000
0031
0100
,
1000
1000
0100
0001
,
0020
0200
0000
0330
,
1000
1000
0100
0010
,
0001
0000
2000
3002
,
0013
0010
0100
1000
,
0001
0000
0101
0001
,
0010
0010
0100
1000
,
0001
0000
1001
1000
,
0010
0010
0100
0001
,
1000
1000
1000
1000
,
0021
0032
0013
0100
,
1000
1000
1000
2000
,
3020
0230
0301
1000
,
0001
0001
0001
0100
,
0020
2030
3001
0010
,
0100
0100
0100
0020
,
0032
2003
3010
0100
,
0001
0010
0100
1000
,
1001
0100
0010
0001
,
0001
0010
0100
1000
,
1000
0100
0010
0001
,
0001
0010
0100
1000
,
1000
0100
0001
0010
,
1000
0100
0001
0010
,
1000
0001
1000
0001
,
0020
0000
0000
0000
,
0030
0000
0000
0000
,
0011
0011
0002
0103
,
1010
1010
1010
1001
,
0110
0110
0020
1030
,
1100
1100
1000
0001
,
0011
0011
0002
1003
,
1010
1010
1010
0110
,
0101
0101
0002
1003
,
2000
3200
0320
0031
,
1000
1000
0200
0310
,
0001
0001
1000
1020
,
0130
0100
0002
0013
,
0100
0100
1000
0002
,
1003
0001
0010
0010
,
0001
0100
0010
2010
,
3100
0100
2000
3010
,
0100
0001
0010
2000
,
3100
0010
0011
0000
,
0001
0100
1010
0000
,
1000
0100
0011
0011
,
0001
0100
1010
0000
,
1000
0100
0011
0001
,
0100
0010
1010
1000
,
0001
0010
1100
0100
,
0012
1003
0020
0130
,
0101
0101
0101
0001
,
1100
1100
1100
1000
,
0011
0011
0011
0001
,
1010
1010
1010
1000
,
0001
0001
0001
0010
,
0100
0100
0100
1000
,
1020
0130
1002
0013
,
0200
1000
0010
0310
,
1001
0000
0000
0000
;

//---------------dance-single - ----------------
#NOTES:
     dance-single:
     :
     Beginner:
     2:
     0.197,0.252,0.036,0.000,0.000:
0000
0000
0000
0000
,
0000
0000
0000
0000
,
0000
0000
0000
0000
,
0000
0000
0000
0000
,
0001
0000
0001
0000
,
0001
0000
0000
0000
,
0001
0000
0001
0000
,
0001
0000
0001
0000
,
0001
0000
0001
0001
,
0001
0000
0000
0000
,
0001
0000
0001
0001
,
0001
0000
0000
0000
,
0001
0000
0000
0000
,
0001
0000
0000
0000
,
0001
0000
0001
0000
,
1001
0000
0000
0000
,
0001
0000
0001
0000
,
0001
0000
0000
0000
,
0001
0000
0001
0000
,
0001
0000
0000
0000
,
0001
0000
0001
0000
,
0001
0000
0000
0000
,
0001
0000
0001
0000
,
0001
0001
0000
0000
,
0001
0000
0000
0000
,
0001
0000
0001
0001
,
0001
0000
0000
0000
,
0001
0000
0000
0001
,
0001
0000
0000
0000
,
0001
0000
0001
0001
,
0001
0000
0000
0000
,
0001
0001
0001
0000
,
0001
0000
0001
0000
,
0001
0000
0001
0000
,
0001
0000
0001
0000
,
0001
0000
0001
0000
,
0001
0000
0001
0000
,
0001
0000
0001
0000
,
0001
0000
0001
0000
,
0001
0001
0001
0000
,
0001
0001
0001
0000
,
0001
0001
0001
0000
,
0001
0001
0001
0000
,
0001
0001
0001
0000
,
0001
0000
0001
0000
,
0001
0000
0001
0000
,
0001
0000
0001
0000
,
1001
0000
0000
0000
,
0000
0000
0000
0000
,
0001
0000
0001
0000
,
0001
0000
0000
0000
,
0001
0000
0001
0000
,
0001
0001
0001
0000
,
0001
0000
0001
0000
,
0001
0000
0000
0000
,
0001
0000
0001
0000
,
0001
0000
0000
0000
,
0001
0000
0001
0000
,
0001
0001
0001
0000
,
0001
0000
0001
0000
,
0001
0001
0001
0000
,
0001
0000
0001
0000
,
0001
0001
0001
0000
,
0001
0000
0001
0000
,
0001
0000
0000
0000
,
0001
0000
0001
0000
,
0001
0000
0001
0000
,
0001
0000
0001
0000
,
0001
0000
0001
0000
,
0001
0001
0001
0000
,
0001
0000
0001
0000
,
0001
0001
0001
0000
,
0001
0000
0000
0000
,
0001
0000
0001
0000
,
0001
0000
0001
0000
,
0001
0000
0001
0000
,
0001
0000
0001
0000
,
0001
0001
0001
0000
,
0001
0001
0001
0000
,
0001
0000
0001
0000
,
1001
0000
0000
0000
,
1001
0000
0000
0000
;

//---------------dance-double - ----------------
#NOTES:
     dance-double:
     :
     Hard:
     9:
     0.703,0.685,0.142,0.294,0.338:
00000000
00000000
00000000
00000000
,
00000000
00000000
00000000
00000000
,
00000000
00000000
00000000
00000000
,
00000000
00000000
00000000
00000000
,
10000000
01000000
00120000
01030000
,
00001000
00000000
00000000
00010000
00000000
00000000
01000000
00000000
00100000
00000000
00000000
00000000
00001000
00000000
00000000
00000000
,
00010000
00000100
00002100
00003010
,
00000201
00000000
00000000
00000310
00000000
00000000
00001000
00000000
00000001
00000010
00000000
00000001
,
00001000
00000000
00002010
00000000
00003100
00000000
00010000
00001000
,
00100000
00000000
00000000
01000000
00000000
00000000
00010000
00000000
00001000
00000000
00000000
00000000
00100000
00000000
00010000
00000000
,
01000000
00000000
00100000
00000000
20010000
00000000
31000000
00100000
,
00010000
00000000
00000000
00100000
00000000
00000000
00001000
00000000
00010000
00000000
00001000
00000000
00000010
00000000
00000100
00000000
,
00001000
00000001
00000100
00001000
00020000
00000000
00032000
00000000
,
00003100
00000001
00000010
00001000
00020000
00000000
00032000
00000000
,
00103000
00010000
01000000
00010000
10000000
01000000
00010000
00001000
,
00022000
00000000
00030000
00003000
,
00100000
00000000
00010000
00000000
10000000
01000000
00010000
00001000
,
00000010
00000000
00000000
00000001
,
00001001
00000000
00001000
00000000
00000001
00000100
00001000
00010000
,
00100000
00000000
00000000
00000000
10100000
00000000
10000000
00010000
,
00100000
00000000
00010000
00000000
10000000
01000000
00010000
00001000
,
00000010
00000000
00000011
00000002
,
00001003
00000000
00000010
00000000
00001000
00000100
00000010
00000000
,
00020100
00032000
00000000
00000000
,
01003000
00000000
00000000
01000000
00010000
00000000
00000000
00010000
00100000
00000000
10000000
00000000
00100000
00000000
00001000
00000000
,
00010000
00000000
00000010
00001000
,
00001001
00000000
00000000
00000001
00000100
00000000
00000000
00000100
00000001
00000000
00001000
00000000
00000100
00000000
00010000
00000000
,
00001000
00000000
00000000
00000000
00012000
00000000
00103000
00010000
,
00100000
00000000
00000000
00100000
01000000
00000000
00000000
01000000
10000000
00000000
00100000
00000000
01000000
00000000
00001000
00000000
,
00010000
00000000
00011000
00020000
,
00030010
00000000
00000000
00000010
00000100
00000000
00000000
00000100
00000001
00000000
00000010
00000000
00001000
00000000
00000010
00000000
,
00000001
00000100
00000010
00001000
00000100
00010000
00001000
00100000
,
00010000
00000000
00000000
00010000
01000000
00000000
00000000
01000000
10000000
00000000
01000000
00000000
00010000
00000000
00100000
00000000
,
01000000
00000000
00000000
01000000
00100000
00000000
00000000
00100000
00001000
00000000
00000000
00001000
00020000
00000000
00000000
00000000
,
00031000
00000000
00000000
00001000
00000100
00000000
00000000
00000100
00000001
00000000
00000010
00000000
00000100
00000000
00010000
00000000
,
00001000
00000000
00000000
00001000
00100000
00000000
00000000
00100000
00010000
00000000
00000000
00010000
10000000
00000000
01000000
00000000
,
10000000
00000000
00000000
10000000
00100000
00000000
00000000
00100000
01000000
00000000
00010000
00000000
00100000
00000000
00001000
00000000
,
00010000
00000000
00000000
00010000
00000010
00000000
00000000
00000010
00001000
00000000
00000000
00001000
00000002
00000000
00000000
00000000
,
00000013
00000000
00000000
00000010
00000100
00000000
00000000
00000100
00010000
00000000
00001000
00000000
00100000
00000000
00010000
00000000
,
10000000
00000000
00000000
10000000
01000000
00000000
00000000
01000000
00010000
00000000
00000000
00010000
00001000
00000000
00010000
00000000
,
00001000
00000000
00000000
00001000
00000100
00000000
00000000
00000100
00000001
00000000
00000000
00000001
00001000
00000000
00000001
00000000
,
00001000
00000000
00000000
00001000
00000100
00000000
00000000
00000100
00000010
00000000
00000000
00000010
00000001
00000000
00001000
00000000
,
00000100
00000000
00000000
00000100
00010000
00000000
00000000
00010000
00001000
00000000
00000000
00001000
00100000
00000000
00010000
00000000
,
10000000
00000000
00000000
10000000
01000000
00000000
00000000
01000000
00100000
00000000
00000000
00100000
00010000
00000000
01000000
00000000
,
00010000
00000000
00000000
00010000
01000000
00000000
00000000
01000000
00001000
00000000
00000000
00001000
00010000
00000000
00000000
00010000
,
00001000
00000000
00000000
00001000
01000000
00000000
00000000
01000000
00001000
00000000
00000000
00001000
00010000
00000000
00000000
00010000
,
00000100
00000000
00000000
00000100
00000010
00000000
00000000
00000010
00000100
00000000
00000000
00000100
00000010
00000000
00000000
00000000
,
00001001
00000000
00000000
00000000
,
00000000
00000000
00000000
00000000
,
00000001
00000100
00001000
00000100
00000010
00010000
00001000
00010000
,
00000010
00000100
00001000
00000100
00000001
00000010
00002000
00000000
,
00013000
01000000
10000000
01000000
00100000
00001000
00010000
00001000
,
01000000
00100000
00010000
00100000
01000000
00001000
00010000
00000100
,
00001000
00000100
00000001
00000100
00001000
00000010
00000100
00000010
,
00001000
00000001
00000010
00000001
00000100
00000010
00020000
00000000
,
00031000
00100000
00010000
01000000
10000000
01000000
00100000
01000000
,
00001000
00000000
00000000
00001000
00010000
00000000
00000000
00010000
00000010
00000000
00000000
00000010
00001000
00000000
00000100
00000000
,
00001000
00000000
00000010
00000000
00000100
00000000
00000010
00000000
00001000
00000000
00000001
00000010
00000001
00000000
00000100
00000000
,
00000010
00000000
00010000
00000000
00001000
00000000
00010000
00000000
00000010
00000000
00001000
00000100
00001000
00000000
00000010
00000000
,
00010000
00000000
00001000
00000000
00100000
00000000
00001000
00000000
00010000
00000000
01000000
00100000
01000000
00000000
10000000
00000000
,
00100000
00000000
01000000
00000000
00001000
00000000
01000000
00000000
00010000
00000000
00100000
01000000
00100000
00000000
00010000
00000000
,
10000000
00000000
00100000
00000000
00010000
00000000
00100000
00000000
01000000
00000000
00001000
00010000
00001000
00000000
00100000
00000000
,
00001000
00000000
00010000
00000000
00000100
00000000
00001000
00000000
00000010
00000000
00000100
00000001
00000100
00000000
00000001
00000000
,
00001000
00000000
00000100
00000000
00000001
00000000
00000100
00000000
00010000
00000000
00001000
00010000
00001000
00000000
00000010
00000000
,
00000100
00010000
00001000
02000000
,
03100000
10000000
01000000
00010000
02000000
00000000
03100000
00001000
,
00010000
00000000
00000000
00000100
00000000
00000000
00001000
00000000
00000020
00000000
00000000
00000000
00001030
00000000
00000001
00000000
,
00000010
00000100
00001000
00000100
00000020
00000000
00000031
00000100
,
00000010
00000000
00000000
00010000
00000000
00000000
00001000
00000000
00010000
00000000
00000010
00000000
00000100
00000000
00001000
00000000
,
00010000
01000000
10000000
01000000
00020000
00000000
01030000
00100000
,
00001000
00000000
00000000
00010000
00000000
00000000
00000010
00000000
00002000
00000000
00000000
00000000
00003100
00000000
00000010
00000000
,
00000001
00000010
00001000
00000010
00000200
00000000
00010300
00001000
,
00012000
00000000
00000000
00103000
00000000
00000000
01000000
00000000
01000000
10000000
00000000
10000000
,
00100000
01000000
00010000
00100000
10000000
00100000
00010000
01000000
,
00100000
00000000
00000000
01000000
00000000
00000000
00001000
00000000
00020000
00000000
00000000
00000000
00030100
00000000
00001000
00000000
,
00000010
00000100
00000001
00000100
00000010
00001000
00000100
00010000
,
00001000
00000000
00000000
00000100
00000000
00000000
00000010
00000000
00010000
00000000
00001000
00000000
00100000
00000000
00010000
00000000
,
10000000
01000000
00010000
01000000
20000000
00000000
30010000
00000000
,
01000000
00001000
00010000
00001000
00200000
00000000
00301000
00000000
,
00000100
00000000
00000001
00000000
00000010
00000000
00000001
00000000
00001000
00000100
00001000
00000000
00000010
00000100
00000010
00000000
,
00020000
00000000
00000000
00032000
00000000
00000000
00003010
00000000
00000010
00000100
00000000
00000000
,
00011000
00000000
00000000
00000000
;

//---------------dance-double - ----------------
#NOTES:
     dance-double:
     :
     Medium:
     6:
     0.541,0.576,0.231,0.543,0.004:
00000000
00000000
00000000
00000000
,
00000000
00000000
00000000
00000000
,
00000000
00000000
00000000
00000000
,
00000000
00000000
00000000
00000000
,
00020000
01030000
20100000
30010000
,
00100000
00000000
00000000
00001000
00000000
00000000
00010000
00000000
00001000
00000000
00000000
00000000
00000100
00000000
00000000
00000000
,
00000102
00000013
00002100
00003010
,
00002010
00000000
00003100
00010000
,
00001000
00000000
01000000
00000000
00100000
00000000
10000000
01000000
,
10000000
00000000
00010000
00000000
00100000
00000000
00001000
00010000
,
00001000
00000000
00000100
00000000
00000001
00000000
00000010
00000100
,
00000010
00000000
00000001
00000000
00001000
00000010
00001000
00000000
,
00000100
00010000
00000100
00001000
00000100
00000000
00010000
00000000
,
00001000
01000000
00010000
01000000
00100000
00000000
10000000
00000000
,
00210000
00301000
00020010
00031000
,
00022000
00000000
00033000
00000000
,
00001000
00000000
00001000
00000000
00000100
00000010
00000100
00000000
,
00000001
00000000
00000000
00001000
,
00001100
00000000
00000100
00000000
00010000
00001000
00010000
00000000
,
00001000
00000000
01001000
00001000
,
00010000
00000000
00010000
00000000
01000000
00100000
01000000
00000000
,
10000000
00000000
00200000
01300000
,
00001000
00000000
00001000
00000000
00010000
00001000
00010000
00000000
,
00000020
00000200
00000000
00000330
,
00100000
00000000
00100000
00000000
00000100
00001000
00000100
00000000
,
00200000
00000000
00301000
00010000
,
00100000
00000000
00000100
00000000
00000100
00010000
00000100
00000000
,
00002000
00000000
00003000
00000000
00011000
00000000
00010000
00100000
,
00100000
00000000
00010000
00000000
00001000
01000000
00001000
00000000
,
00020000
00000000
00130000
01001000
,
00010000
00000000
00010000
00000000
00100000
00001000
00200000
00000000
,
00010000
00010000
00010000
00310000
,
10000000
00000000
00010000
00000000
01000000
00100000
01000000
00000000
,
00200000
10300000
00010000
20010000
,
30100000
00000000
01000000
00000000
00010000
10000000
00010000
00000000
,
00200000
01300000
10000000
10020000
,
00030000
00000000
00100000
00000000
01000000
00001000
01000000
00000000
,
00020000
01030000
00001000
01002000
,
00013000
00000000
00100000
00000000
00010000
00000000
00001000
01000000
,
00001000
00000000
00010000
00000000
00100000
00000000
01000000
01000000
,
00000100
00000000
00001000
00000000
00010000
00000000
00100000
00100000
,
00000100
00000000
00001000
00000000
00010000
00000000
00100000
00100000
,
00000100
00000000
00001000
00000000
00010000
00000000
00100000
00100000
,
00000100
00000000
00001000
00000000
00010000
00000000
00100000
00100000
,
00000010
00000100
00010000
00000100
,
00000010
00001000
00010000
00001000
,
00002010
00000010
00000010
00003010
,
00010100
00000000
00000000
00000000
,
00000000
00000000
00000000
00000000
,
00001000
00000000
00000001
00000000
00000100
00000010
00000100
00000000
,
00000001
00000010
00000100
00002100
,
00003001
00000000
00001000
00000000
00000100
00000010
00000100
00000000
,
00010000
00000000
00001000
00000000
00000100
00000000
00000010
00001000
,
00000010
00000000
00000100
00000000
00000010
00010000
00000010
00000000
,
00010000
00001000
00000100
00000120
,
00010030
00000000
00000100
00000000
00001000
00000010
00001000
00000000
,
00002000
00203000
00320000
00030100
,
00001000
00100000
00001000
00000000
00010000
00000100
00010000
00000000
,
00000200
00001300
00010000
00210000
,
00300100
00001000
00000100
00000000
00100000
00010000
00100000
00000000
,
00020000
00000000
01030000
00000000
00001000
00000000
00001000
01000000
,
00002000
00000000
00013000
00000000
00100000
01000000
00100000
00000000
,
00020000
00031000
01000000
01020000
,
01030000
00100000
01000000
00000000
00001000
00010000
00001000
00000000
,
20000000
32000000
03200000
00310000
,
10010000
00000000
00010000
00000000
02000000
00000000
03100000
10000000
,
00100000
00000000
01000000
00000000
00010000
00000000
10000000
01000000
,
10000000
00000000
00100000
00000000
02000000
00000000
03010000
10000000
,
00001000
00010000
00100000
01000000
,
01010000
00000000
01000000
00000000
00002000
00000000
00013000
00100000
,
00010000
00000000
00001000
00000000
01000000
00000000
00010000
00100000
,
00010000
01000000
00200000
00310000
,
00002200
00003300
00000100
00011000
,
00200000
00000000
00320000
00000000
00032000
00000000
00003100
00100000
,
00000200
00002300
00023000
00130000
,
00000200
00000000
00002300
00000000
00023000
00000000
00130000
00000100
,
00020000
00032000
00003200
00000310
,
00010000
00001000
00010000
00001000
00020000
00000000
00030100
00000000
,
00001000
00000010
00001000
00000010
00002000
00000000
00003100
00000000
,
00010000
00000200
00010000
00000000
00001300
00000000
00001000
00000000
,
00001002
00002003
00003200
00000310
,
00001100
00000000
00000000
00000000
;

//---------------dance-double - ----------------
#NOTES:
     dance-double:
     :
     Easy:
     5:
     0.506,0.649,0.810,0.214,0.000: // measure 1
00000000
00000000
00000000
00000000
,  // measure 2
00000000
00000000
00000000
00000000
,  // measure 3
00000000
00000000
00000000
00000000
,  // measure 4
00000000
00000000
00000000
00000000
,  // measure 5
10000000
00010000
00110000
00000000
,  // measure 6
00100000
00001000
00010000
00000000
,  // measure 7
00000010
00001000
00001010
00000000
,  // measure 8
00000010
00000100
00000001
00000010
,  // measure 9
00000100
00001000
00001100
00000100
,  // measure 10
00010000
00001000
00011000
00000000
,  // measure 11
00001000
00100000
00110000
00010000
,  // measure 12
01000000
00100000
10100000
00000000
,  // measure 13
10000000
00010000
00100000
00100000
,  // measure 14
00001000
00010000
00000100
00000100
,  // measure 15
00002000
00003010
00000002
00000013
,  // measure 16
00000110
00000000
00000000
00000000
,  // measure 17
00000010
00000010
00001000
00000100
,  // measure 18
00010000
00000000
00000000
01000000
,  // measure 19
10000000
10000000
00100000
00010000
,  // measure 20
00001000
00000000
00010000
00001000
,  // measure 21
00011000
00001000
00000010
00000001
,  // measure 22
00000100
00000000
00000110
00000010
,  // measure 23
00001000
00001000
00000100
00010000
,  // measure 24
00011000
00011000
00000000
00000000
,  // measure 25
00001000
00010000
01000000
10000000
,  // measure 26
00100000
00000000
02000000
03020000
,  // measure 27
00130000
00001000
00010000
00000010
,  // measure 28
00000100
00000000
00000101
00000001
,  // measure 29
00001000
00001000
00000100
00010000
,  // measure 30
00001000
00000000
00021000
00032000
,  // measure 31
01003000
01000000
00100000
10000000
,  // measure 32
01000000
01000000
01000000
01000000
,  // measure 33
00100000
00001000
00010000
00000020
,  // measure 34
00000100
00000100
00000130
00000002
,  // measure 35
00000013
00000100
00010000
00002000
,  // measure 36
00100000
00100000
00103000
00020000
,  // measure 37
01030000
10000000
01000000
00020000
,  // measure 38
10000000
10000000
10030000
02000000
,  // measure 39
03100000
00001000
00010000
00000010
,  // measure 40
00001000
00000100
00000010
00000001
,  // measure 41
00000001
00000010
00000100
00001000
,  // measure 42
00010000
00100000
01000000
10000000
,  // measure 43
10000000
01000000
00100000
00010000
,  // measure 44
00001000
00000100
00000010
00000001
,  // measure 45
00000001
00000100
00001000
00000100
,  // measure 46
00000010
00010000
00001000
00010000
,  // measure 47
00100000
01000000
00010000
10000000
,  // measure 48
20020000
00000000
00000000
00000000
,  // measure 49
30030000
00000000
00000000
00000000
,  // measure 50
11000000
11000000
01010000
01010000
,  // measure 51
01100000
00101000
00011000
00010010
,  // measure 52
00001010
00001010
00000011
00000011
,  // measure 53
00000110
00010010
00011000
00101000
,  // measure 54
00110000
11000000
00110000
11000000
,  // measure 55
10100000
10100000
01010000
01001000
,  // measure 56
00011000
00011000
00010100
00001100
,  // measure 57
00002000
00003200
00000320
00000031
,  // measure 58
00001001
00001001
00000010
00000010
,  // measure 59
00001100
00001100
00010000
00010000
,  // measure 60
00101000
00101000
00010000
00010000
,  // measure 61
01100000
01100000
00010000
10000000
,  // measure 62
11000000
10000000
10010000
00010000
,  // measure 63
01001000
00011000
00010100
00010000
,  // measure 64
00001100
00000110
00000011
00000110
,  // measure 65
00000200
00020300
00032000
02003000
,  // measure 66
03010000
00100000
11000000
01000000
,  // measure 67
00100000
00001000
00011000
00000000
,  // measure 68
00010000
00000010
00001010
00000010
,  // measure 69
00000100
00000001
00000011
00000000
,  // measure 70
00000010
00000100
00001001
00000100
,  // measure 71
00010000
00001000
00011000
01000000
,  // measure 72
00010000
00100000
11000000
01000000
,  // measure 73
00200000
00302000
00023000
00030010
,  // measure 74
00001001
00001001
00001001
00001001
,  // measure 75
00001100
00001100
00001100
00001100
,  // measure 76
00011000
00011000
00011000
00011000
,  // measure 77
01010000
01010000
01010000
01010000
,  // measure 78
00110000
11000000
00110000
11000000
,  // measure 79
10000000
01010000
00010000
11000000
,  // measure 80
10000000
01000000
00010000
00001000
,  // measure 81
00000010
00000100
00001001
00001001
,  // measure 82
00000110
00000000
00000000
00000000
;
