#TITLE:Go Go Astrobeat Jr.!;
#SUBTITLE:;
#ARTIST:幡谷尚史;
#TITLETRANSLIT:;
#SUBTITLETRANSLIT:;
#ARTISTTRANSLIT:Naofumi Hataya;
#CREDIT:;
#BANNER:Go Go Astrobeat Jr.!.png;
#BACKGROUND:Go Go Astrobeat Jr.!-bg.png;
#LYRICSPATH:;
#CDTITLE:;
#MUSIC:Go Go Astrobeat Jr.!.ogg;
#OFFSET:-0.394;
#SAMPLESTART:76.902;
#SAMPLELENGTH:10.980;
#SELECTABLE:YES;
#BPMS:0.000=175.660,100.000=351.419,104.000=351.419,175.000=175.720,179.000=175.720,207.000=43.930,210.000=175.720,264.000=175.520;
#STOPS:172.000=2.260
;
#BGCHANGES:;

//---------------dance-single - ----------------
#NOTES:
     dance-single:
     :
     Hard:
     8:
     0.605,0.648,0.113,0.225,0.000:
0000
0000
0000
0000
,
0000
0000
0000
0000
,
0000
0000
0000
0000
,
0000
0000
0000
0000
,
2000
3200
0310
0011
,
2001
0010
0100
3001
,
1000
0001
0100
0000
0100
0010
1000
0000
,
0100
0001
0100
1000
0010
0100
0001
1000
,
0200
0000
0310
0010
0001
1000
0010
0100
,
0002
0000
0013
0010
0001
1000
0010
0100
,
0002
0000
1003
1000
0010
0100
0001
1000
,
0000
1000
0000
0100
1000
0100
0010
0001
,
0020
0000
0130
0100
0010
0001
1000
0010
,
0200
0000
0301
0001
0100
0001
0100
0010
,
2000
0000
3100
0100
0010
0001
1000
0010
,
1000
0100
0010
0001
1000
0100
0010
0001
,
1000
0000
0010
1000
0010
0000
0010
0000
,
1000
0001
0010
0001
0100
0000
0001
0000
,
1000
0001
1000
0010
1000
0000
1000
0000
,
0001
0100
0010
1000
0100
0000
0010
0000
,
0012
0000
1000
0000
0103
0100
0010
0100
,
0001
0001
0000
1000
0100
0100
1000
0100
,
0020
0001
0000
1000
0000
0100
0000
0031
,
1000
0001
0100
0010
0100
1000
0100
0001
,
1001
0000
0000
0000
,
0000
0000
0000
0000
,
0000
0000
0000
0000
,
0010
0100
0010
0000
0100
0000
1000
0000
,
0001
0010
0100
1000
,
0001
0010
0100
1000
,
0001
0010
0100
1000
,
0100
1000
0100
0000
0010
0000
0001
0000
,
1000
0100
0010
0001
,
1000
0100
0010
0001
,
1000
0100
0010
0001
,
0010
0100
0010
0000
0100
0000
1000
0000
,
0001
0010
0100
1000
,
0001
0010
0100
1000
,
0001
0010
0100
1000
,
0001
0100
0001
0000
1000
0000
0100
0000
,
0001
0100
1000
0010
,
1000
1000
0100
0100
,
0010
0010
0001
1000
,
2002
3003
0000
0000
0000
0000
1000
0000
,
1000
0100
0010
0100
1000
0001
0100
0100
,
0000
0010
0000
1000
0100
0001
0100
0000
,
0010
0001
0100
0010
0100
0001
1000
1000
,
0000
0010
0000
0100
0001
1000
0100
0000
,
0010
0100
0010
0001
1000
0010
0100
0100
,
0000
0010
0000
1000
0001
0010
0002
0000
,
0203
0000
0320
0000
2030
0000
3001
0100
,
0010
1000
0001
0100
0010
1000
0200
0000
,
0000
0000
0310
0000
,
0000
0000
0000
0000
0001
0000
0100
0010
,
0100
0001
1000
0100
0000
0100
0000
0100
,
1000
0010
0100
0001
0010
0000
0010
1000
,
0010
0001
0100
0010
0000
0010
0000
0010
,
1000
0100
0001
0100
1100
0000
1000
0100
,
0001
0100
0010
0001
0000
1000
0000
0001
,
0010
0100
0010
0001
1000
0000
0010
0100
,
0010
0001
0010
1000
0000
0100
0000
1000
,
0010
1000
0001
0100
0001
1000
0100
0010
,
1000
0010
0100
0010
1000
0010
0001
1000
,
0010
0100
0001
0010
0100
1000
0010
0100
,
1000
0100
0001
0100
1000
0100
0010
1000
,
0001
0010
0100
1000
1002
0000
0010
0000
,
0100
0100
0100
0000
1000
0000
0010
0000
,
0100
0100
0103
0000
2001
0000
0010
0000
,
0100
0100
0100
0000
0001
0000
0010
0000
,
0100
0100
3100
0000
1100
0000
0110
0000
,
0010
0001
0010
0100
1000
1000
0000
0100
,
0010
0010
0001
1000
0010
0010
0000
0010
,
0000
0010
0000
0010
1000
1000
0100
0100
,
0010
0010
0001
1000
2002
0000
0000
0000
,
0000
0000
3003
0000
;

//---------------dance-single - ----------------
#NOTES:
     dance-single:
     :
     Medium:
     6:
     0.456,0.610,0.215,0.328,0.000:
0000
0000
0000
0000
,
0000
0000
0000
0000
,
0000
0000
0000
0000
,
0000
0000
0000
0000
,
2010
3200
0320
0032
,
2003
0001
0010
3100
,
1100
0000
0210
0000
0310
0001
0000
0000
,
1010
0000
1010
0000
1000
0010
0100
0001
,
0010
0000
0010
0000
0001
1000
0010
0000
,
0100
0000
0100
0000
0001
1000
0010
0000
,
0100
0000
0100
0000
0010
1000
0100
0000
,
1000
0000
1000
0000
0001
0010
0100
0000
,
0010
0000
0110
0000
0010
0001
1000
0000
,
0010
0000
1010
0000
0010
1000
0001
0000
,
0100
0000
0110
0000
0010
1000
0001
0000
,
0001
1001
2000
3100
,
0010
0000
0001
0100
0001
0000
0100
0000
,
0010
0000
1000
0020
0000
0030
1000
0000
,
0001
0000
1000
0100
1000
0000
0100
0000
,
0010
0000
0001
0200
0000
0300
0001
0000
,
0100
0000
0010
0000
0100
0010
0100
0000
,
0001
0000
1000
0000
0100
0010
0100
0000
,
0010
0000
0001
0000
0100
0010
0100
0000
,
2010
0001
0100
3010
,
1001
0000
0000
0000
,
0000
0000
0000
0000
,
0000
0000
0000
0000
,
0012
0000
1000
0000
,
0100
0000
1000
0000
,
0013
0000
0100
0000
,
1000
0000
0001
0000
,
2000
0000
0001
0000
,
0010
0000
0001
0000
,
3100
0000
0010
0000
,
0001
1000
0001
0000
,
0102
0000
1000
0000
,
0010
0000
1000
0000
,
0103
0000
0010
0000
,
1000
0000
0001
0000
,
2000
0000
0001
0000
,
0010
0000
0001
0000
,
3100
0000
0010
0000
,
0001
1000
0001
1000
,
1002
0000
0000
1003
,
0010
0000
1000
0100
1000
0000
1002
0000
,
0000
0023
0000
0000
0230
0000
1300
0000
,
0100
0000
0010
0001
0010
0000
0012
0000
,
0000
0203
0000
0000
2300
0000
3100
0000
,
0010
0100
0001
1002
,
0000
0023
0000
0000
0032
0000
2003
0000
,
3200
0320
0032
1003
,
0100
0010
0001
2002
,
0000
0000
3003
0000
,
0000
0000
0001
1000
,
0100
0010
0100
0010
0000
0000
0001
0000
,
0100
0010
1000
0100
,
0001
0100
1000
0100
0000
0000
0010
0000
,
0001
0100
0010
1000
,
0100
0010
1000
0010
0000
0000
0001
0000
,
0010
0100
1000
0010
,
0100
0001
0010
0100
0000
0000
0010
0000
,
0001
0000
0100
0000
1000
0000
0100
0010
,
0100
0000
0010
0000
1000
0000
0100
0010
,
0000
0000
0011
0000
0100
0000
1000
0010
,
0100
0000
0001
0000
1000
0000
0100
0010
,
0000
0110
0001
0100
,
0010
1000
0010
0000
0100
0000
0001
0000
,
0010
0100
0010
0000
0001
0000
1000
0000
,
0010
0100
0001
0000
0001
1000
0100
0000
,
0100
1000
0001
1000
0100
0000
0010
0000
,
0001
1000
0001
0000
1000
0000
1000
0000
,
0100
0010
0001
0000
0100
0010
0000
1000
,
0000
0001
0000
0010
0100
0000
0010
0000
,
0001
1000
2002
0000
,
0000
0000
3003
0000
;

//---------------dance-single - ----------------
#NOTES:
     dance-single:
     :
     Easy:
     4:
     0.405,0.534,0.113,0.389,0.000:
0000
0000
0000
0000
,
0000
0000
0000
0000
,
0000
0000
0000
0000
,
0000
0000
0000
0000
,
0001
0010
0100
0001
,
0200
1000
0010
0001
,
0310
0001
0100
0010
,
1000
1000
0100
0010
,
0001
0101
0001
1000
,
0100
1200
2300
3200
,
0310
0011
0001
1000
,
0010
2010
3002
0023
,
0031
1001
0001
0010
,
0100
2100
3002
0203
,
0310
1010
1000
0100
,
0020
1000
0001
1000
,
0031
1000
0010
0010
,
1000
0001
0000
1000
,
0000
0001
0010
0100
,
0001
0100
0000
0010
,
0002
0010
0100
0010
,
1000
0010
0100
1003
,
2000
0100
0000
0001
0000
0010
0000
3001
,
1000
0100
0010
0001
,
1001
0000
0000
0000
,
0000
0000
0000
0000
,
0000
0000
0000
0000
,
0002
0000
0010
0000
,
1000
0000
0010
0000
,
1003
0000
0100
0000
,
0010
0000
0001
0000
,
2000
0000
0100
0000
,
0001
0000
0100
0000
,
3001
0000
0010
0000
,
0100
0000
1000
0000
,
0002
0000
0010
0000
,
1000
0000
0010
0000
,
1003
0000
0100
0000
,
0010
0000
0001
0000
,
2000
0000
0100
0000
,
0001
0000
0100
0000
,
3001
0000
0010
0000
,
0100
0000
1000
0000
,
1001
0000
0000
0001
,
0100
0010
0100
0002
,
0000
2003
0000
0000
3002
0000
0103
0000
,
0010
1000
0100
2000
,
0000
3002
0000
0000
2003
0000
3100
0000
,
0010
0100
1000
0002
,
0000
2003
0000
0000
3002
0000
0203
0000
,
0320
2030
3002
0013
,
0100
1000
0001
2002
,
0000
0000
3003
0000
,
1000
0100
1000
0100
,
0010
0000
0001
0100
0000
0010
0000
1000
,
0001
0010
0001
1000
,
0100
0000
0010
0001
0000
1000
0000
0010
,
0100
0010
1000
0010
,
0001
0000
1000
0100
0000
0001
0000
0100
,
0010
1000
0001
0010
,
0100
0000
0001
0100
0000
0010
0000
0100
,
1000
0010
0100
0010
,
1000
1000
0010
0100
,
0000
0001
0000
0100
,
0010
1000
0100
0010
,
0000
0001
0020
0001
,
0100
1000
0100
0001
,
0100
0000
1030
0000
0002
1000
0000
0010
,
0000
0100
0000
0013
0001
0000
0010
0000
,
0100
1000
0200
0001
,
0010
1000
0010
0001
,
0010
0000
1300
0000
2000
0100
0000
0010
,
0000
0001
0000
3100
1000
0000
0100
0000
,
0010
0001
2002
0000
,
0000
0000
3003
0000
;

//---------------dance-single - ----------------
#NOTES:
     dance-single:
     :
     Beginner:
     2:
     0.168,0.226,0.082,0.113,0.000:
0000
0000
0000
0000
,
0000
0000
0000
0000
,
0000
0000
0000
0000
,
0000
0000
0000
0000
,
1000
0000
0100
0000
,
1000
0000
0000
0000
,
0001
0000
0100
0000
,
0001
0000
0010
0000
,
0100
0000
0000
0000
,
0010
0000
0000
0000
,
0001
0000
0000
0000
,
1000
0000
0000
0000
,
0010
0000
0000
0000
,
0100
0000
0000
0000
,
1000
0000
0000
0000
,
0002
0000
0000
0000
,
0013
0000
0000
0000
,
1001
0000
0000
0000
,
0100
0000
0000
0000
,
1001
0000
0000
0000
,
0001
0000
0001
0000
,
0001
0000
0000
0000
,
1000
0000
1000
0000
,
1000
0000
0001
0000
,
1001
0000
0000
0000
,
0000
0000
0000
0000
,
0000
0000
0000
0000
,
0002
0000
0000
0000
,
0000
0000
0000
0000
,
0103
0000
0000
0000
,
0010
0000
0000
0000
,
2000
0000
0000
0000
,
0000
0000
0000
0000
,
3100
0000
0000
0000
,
0010
0000
0000
0000
,
0002
0000
0000
0000
,
0010
0000
0000
0000
,
1003
0000
0000
0000
,
0100
0000
0000
0000
,
2000
0000
0000
0000
,
0010
0000
0000
0000
,
3001
0000
0000
0000
,
1000
0000
0000
0000
,
1001
0000
0000
1000
,
0000
0100
0000
0010
,
0000
0000
0000
0001
,
0000
0100
0000
0010
,
0000
0000
0000
1000
,
0000
0001
0000
1000
,
0000
0000
0000
0001
,
0000
0010
0000
0100
,
0000
1000
0000
2002
,
0000
0000
3003
0000
,
0000
0000
1001
0000
,
0001
0000
1000
0000
,
0010
0000
0100
0000
,
0010
0000
1000
0000
,
0001
0000
1001
0000
,
0001
0000
0010
0000
,
0100
0000
1000
0000
,
0100
0000
0010
0000
,
0001
0000
0100
0000
,
0100
0000
0100
0000
,
0000
0000
0001
0000
,
0100
0000
0100
0000
,
0000
0001
2000
0000
,
0010
0000
0010
0000
,
0010
0000
3002
0000
,
0100
0000
0100
0000
,
0100
0000
2003
0000
,
0100
0000
0100
0000
,
0100
0000
3002
0000
,
0000
0000
1000
1000
,
1003
0000
1001
0000
;

//---------------dance-double - ----------------
#NOTES:
     dance-double:
     :
     Hard:
     9:
     0.613,0.649,0.123,0.430,0.000:
00000000
00000000
00000000
00000000
,
00000000
00000000
00000000
00000000
,
00000000
00000000
00000000
00000000
,
00000000
00000000
00000000
00000000
,
20000000
32000000
03020000
00032000
,
00003010
00000100
00001000
00000010
00000100
00000001
00000010
00001000
,
00010000
00000000
00200000
00000000
10300000
02000000
10000000
00000000
,
03100000
00000000
00101000
00000000
00001000
01000000
00010000
00100000
,
00002000
00000000
00003010
00000100
00010000
00000100
00000010
00000100
,
00001000
00000000
00000010
00000100
00000001
00000100
00001000
00010000
,
00001000
00000000
00100000
00001000
00010000
00001000
00100000
00010000
,
00000000
10000000
00000000
00010000
00100000
01000000
10000000
01000000
,
00010000
00000000
00001000
00000010
00000100
00000010
00000001
00000010
,
00000100
00000000
00010000
00001000
00000100
00001000
00010000
00000010
,
00001000
00000000
00000100
00010000
00001000
00100000
00010000
01000000
,
00000000
00100000
00000000
01000000
00010000
00100000
01000000
10000000
,
02000000
00000000
03100000
00001000
00200000
00000000
00320000
00000000
,
01030000
00001000
00010000
00000100
00000010
00000000
00000011
00000000
,
00000100
00001000
00000010
00010000
00000200
00000000
00002300
00000000
,
00003100
00010000
00001000
01000000
00010000
00000000
00110000
00000000
,
21000000
00000000
00100000
00000000
30010000
00100000
01000000
10000000
,
00010000
00010000
00000000
00010000
00100000
00001000
00010000
00000010
,
00001000
00000100
00000000
00000001
00000000
00000100
00000000
00001000
,
00000010
00000100
00001000
00010000
00100000
10000000
01000000
00010000
,
00002000
00000000
00000000
00000000
,
00003000
00000000
00000000
00000000
,
00000000
00000000
00000000
00000000
,
20000000
32000000
03200000
00320000
,
00032000
00003200
00000320
00000032
,
00001003
00000010
00000000
00100000
,
00000000
00000100
00010000
01000000
,
10000000
01000000
00100000
00010000
,
00001000
00000100
00000010
00000001
,
00001000
00000100
00000000
01000000
,
00000000
00001000
00000000
10000000
,
20000000
32000000
03200000
00320000
,
00032000
00003200
00000320
00000032
,
00001003
00000010
00000000
00010000
,
00000000
01000000
00000000
10000000
,
10000000
01000000
00100000
00010000
,
00001000
00000100
00000010
00000001
,
00000001
00000100
00000010
00001000
,
00000100
00010000
00001000
00100000
,
02000000
03000000
00000000
00000000
00000000
00000000
12000000
00000000
,
13000000
00010000
01000000
00010000
00100000
00001000
00010000
00010000
,
00000000
00000010
00000000
00001000
00000100
00000010
00000011
00000000
,
00000001
00000100
00001000
00000100
00000010
00010000
00001000
00001000
,
00000000
00100000
00000000
00010000
10000000
01000000
21000000
00000000
,
30010000
01000000
00100000
00010000
00001000
00010000
01000000
01000000
,
00000000
00100000
00000000
00001000
00010000
00001000
00000200
00000000
,
00000302
00000000
00000023
00000000
00002030
00000000
00013000
00001000
,
00000010
00000100
00010000
00001000
00100000
00010000
20000000
00000000
,
00000000
00000000
30100000
00000000
,
00000000
00000000
00000000
00000000
01010000
00000000
00010000
10000000
,
00010000
00100000
00001000
00100000
00000000
01000000
00000000
00100000
,
00001000
00010000
00000010
00001000
00000001
00000000
00001000
00000001
,
00001000
00000100
00010000
00000100
00000000
00000010
00000000
00000100
,
00010000
00001000
01000000
00010000
10000000
00000000
00010000
01000000
,
00010000
00100000
00001000
00100000
00000000
01000000
00000000
00100000
,
00001000
00010000
00000010
00001000
00000001
00000000
00001000
00000100
,
00001000
00000010
00010000
00000010
00000000
00000100
00000000
00000010
,
00010000
00001000
00100000
00010000
10000000
01000000
00010000
01000000
,
10000000
00100000
00010000
00000000
00001000
00000100
00000001
00000100
,
00000010
00000000
00001001
00000000
00001000
00000100
00000001
00000100
,
00010000
00001000
00010000
00000000
01000000
10000000
01000000
00100000
,
00001000
00100000
02100000
10000000
,
03100000
00001000
00010000
00000000
00000010
00000000
00001000
00000000
,
00000010
00000100
00000001
00000010
00001200
00000000
00000010
00000000
,
00000001
00000000
00000010
00000000
00001300
00000100
00010000
00001000
,
00100000
00010000
01000000
00100000
10000000
00000000
01000000
00000000
,
00010000
01000000
10000000
00100000
00010000
00001000
00000000
00010000
,
00001000
00000010
00000100
00010000
00001000
00010000
00000000
00000010
,
00000000
00000100
00000000
00001000
00010000
00001000
00000100
00000001
,
00000010
00001000
00010000
01000000
22000000
00000000
00000000
00000000
,
00000000
00000000
00000000
00000000
00000000
33000000
00000000
00000000
;

//---------------dance-double - ----------------
#NOTES:
     dance-double:
     :
     Medium:
     5:
     0.437,0.536,0.164,0.287,0.000:
00000000
00000000
00000000
00000000
,
00000000
00000000
00000000
00000000
,
00000000
00000000
00000000
00000000
,
00000000
00000000
00000000
00000000
,
10000000
01000000
00100000
00001000
,
00012000
00013000
00001000
00010000
,
00000010
00000000
00002000
00000000
00003100
00000020
00000000
00000000
,
00000130
00000000
00001000
00000000
00000001
00000100
00000001
00000000
,
00000010
00000000
00000100
00000000
00010000
00001000
00010000
00000000
,
00000010
00000100
00001000
00010000
,
00100000
00000000
01000000
00000000
00001000
00010000
00001000
00000000
,
01000000
00100000
00010000
00001000
,
00000100
00000000
00000010
00000000
00010000
00001000
00010000
00000000
,
00000100
00000010
00000100
00010000
,
00001000
00000000
00100000
00000000
00010000
01000000
00010000
00000000
,
10000000
01000000
00100000
00001000
,
00020000
00000000
00030100
00001000
00000200
00000000
00000320
00000000
,
00000031
00000000
00001000
00000010
00001000
00000000
00000100
00000000
,
00010000
00000000
00001000
00010000
00002000
00000000
00203000
00000000
,
00310000
00000000
01000000
00010000
01000000
00000000
00100000
00000000
,
20010000
00000000
00100000
00000000
30010000
00100000
00010000
00000000
,
10000000
01000000
00100000
00001000
,
00021000
00001000
00001000
00031000
,
00000010
00000000
00000100
00000000
00010000
00001000
00010000
00000000
,
00000010
00000000
00000000
00000000
,
00000000
00000000
00000000
00000000
,
00000000
00000000
00000000
00000000
,
00000200
00000000
00000301
00000000
,
00000100
00000000
00000010
00000000
,
00010000
00000000
00000100
00000000
,
00010000
00000000
00001000
00010000
,
00001000
00000000
00100000
00000000
,
00010000
00000000
01000000
00000000
,
10000000
00000000
01000000
00000000
,
00010000
00000000
00100000
00000000
,
00002000
00000000
00013000
00000000
,
00000010
00000000
00000100
00000000
,
00000010
00000000
00010000
00000000
,
00000100
00000000
00000010
00000001
,
00000010
00000000
00000100
00000000
,
00010000
00000000
00001000
00000000
,
00100000
00010000
00100000
00000000
,
01000000
10000000
01000000
00000000
,
00210000
00000000
00000000
01300000
,
10000000
00000000
00010000
00100000
00010000
00000000
01000000
00000000
,
00000000
00001000
00000000
00000000
00010000
00000000
00000100
00000000
,
00000010
00000000
00000001
00001000
00000001
00000000
00000100
00000000
,
00000000
00000010
00000000
00000000
00010000
00000000
00001000
00000000
,
00100000
00000000
00010000
01000000
00010000
00000000
10000000
00000000
,
00000000
01000000
00000000
00000000
10000000
00000000
00020000
00000000
,
00230000
00302000
00023000
00030010
,
00000100
00000001
00000010
00002100
,
00000000
00000000
00003000
00000000
,
00000000
00000000
00000010
00001100
,
00000010
00000101
00000010
00010000
,
00001000
00010000
00001000
00000000
00100000
00000000
11000000
00000000
,
00100000
01010000
00100000
10000000
,
00010000
00100000
00010000
00000000
10010000
00000000
00100000
00000000
,
00001000
00010000
00000010
00001000
,
00000001
00000010
00000001
00000000
00000100
00000000
00001010
00000000
,
00000100
00001001
00000100
00000010
,
00010000
00001000
00010000
00000000
00100000
00000000
20000000
00000000
,
01000000
00000000
30010000
00000000
00100000
00010000
00100000
00000000
,
00001000
00011000
00010000
00000020
,
00001000
00000000
00000130
00000000
00000001
00001000
00000001
00000000
,
00000010
00000100
00002001
00003010
,
00000100
00000010
00000100
00000000
00000010
00000000
00010000
00000000
,
00001000
00100000
00210000
01300000
,
10000000
00010000
10000000
00000000
01000000
00000000
00100000
00000000
,
00001000
00010000
00000200
00000310
,
00000001
00000100
00000001
00000000
00002000
00000000
00003100
00000000
,
00010000
00001000
00010000
00000000
00200000
00000000
01300000
00000000
,
00020000
00000000
00130000
00000000
01000000
10000000
01000000
00000000
,
00010000
00001000
00010000
00000000
00022000
00000000
00000000
00000000
,
00000000
00000000
00000000
00000000
00000000
00000000
00000000
00033000
;

//---------------dance-double - ----------------
#NOTES:
     dance-double:
     :
     Easy:
     4:
     0.304,0.420,0.041,0.102,0.000:
00000000
00000000
00000000
00000000
,
00000000
00000000
00000000
00000000
,
00000000
00000000
00000000
00000000
,
00000000
00000000
00000000
00000000
,
00000001
00000100
00000010
00020000
,
00001000
00001000
00001000
00031000
,
00100000
00010000
10010000
00000000
,
10000000
10000000
00010000
00100000
,
00001000
00010000
00000000
00000010
,
00000000
00000100
00000010
00010000
,
00001000
00001000
00000000
00100000
,
00000000
01000000
00100000
00010000
,
10000000
00100000
00000000
00010000
,
00000000
00001000
00000100
00000100
,
00000001
00001000
00000000
00000100
,
00000010
00000100
00010000
00001000
,
00100000
00010000
10000000
10000000
,
00010000
01000000
00100000
00000000
,
01000000
00001000
00010000
00010000
,
00001000
00100000
00010000
00000000
,
00000010
00000010
00000100
00001000
,
00000001
00000001
00000100
00000000
,
00000010
00001000
00000100
00010000
,
01000000
10000000
01000000
00100000
,
00010000
00000000
00000000
00000000
,
00000000
00000000
00000000
00000000
,
00000000
00000000
00000000
00000000
,
00010000
00000000
00000000
00000000
,
00100000
00000000
00000000
00000000
,
01000000
00000000
10000000
00000000
,
01000000
00000000
00100000
00000000
,
00001000
00000000
00000000
00000000
,
00000100
00000000
00000000
00000000
,
00000001
00000000
00000010
00000000
,
00000100
00000000
00000010
00000000
,
00000001
00000000
00000000
00000000
,
00001000
00000000
00000000
00000000
,
00000100
00000000
00010000
00000000
,
00001000
00000000
00010000
00000000
,
01000000
00000000
00000000
00000000
,
00100000
00000000
00000000
00000000
,
01000000
00000000
10000000
00000000
,
01000000
00000000
00100000
00000000
,
00002000
00000000
00000000
00013000
,
00010000
00000010
00000100
00000001
,
00001000
00001001
00000000
00000001
,
00000010
00000100
00000100
00010000
,
00001000
00010000
00000000
00100000
,
00100000
10000000
01000000
00100000
,
00010000
10010000
00000000
20000000
,
32000000
03020000
00032000
00003010
,
00000100
00010000
00001000
02000000
,
00000000
00000000
03000000
00000000
,
00000000
00000000
00010000
10000000
,
00000000
01000000
00000000
00100000
,
00001000
00010000
00000010
00001000
,
00000000
00000001
00000000
00000010
,
00000100
00001000
00000002
00000103
,
00000000
00001000
00000000
00010000
,
00100000
00100000
01000000
00001000
,
00000000
00010000
00000000
01000000
,
10000000
01000000
00100000
00001000
,
00010000
00010000
00000010
00000100
,
00000001
00000000
00000010
00000100
,
00010000
00010000
00000100
00001000
,
00000010
00000000
00010000
00001000
,
00100000
00100000
00001000
00010000
,
00000010
00000000
00001000
00000100
,
00000001
00000100
00010000
00001000
,
00100000
00010000
10000000
10000000
,
00100000
00010000
00001000
00001000
,
00010000
00000000
00100000
10000000
,
01000000
00100000
00001000
00000100
,
00000001
00000010
00002200
00000000
,
00000000
00000000
00000000
00000000
00000000
00003300
00000000
00000000
;
