#TITLE:Emotion Burst Locomotion;
#SUBTITLE:;
#ARTIST:Waterflame;
#TITLETRANSLIT:;
#SUBTITLETRANSLIT:;
#ARTISTTRANSLIT:;
#CREDIT:;
#BANNER:Emotion Burst Locomotion.png;
#BACKGROUND:Emotion Burst Locomotion-bg.png;
#LYRICSPATH:;
#CDTITLE:;
#MUSIC:Emotion Burst Locomotion.ogg;
#OFFSET:-2.760;
#SAMPLESTART:100.000;
#SAMPLELENGTH:12.000;
#SELECTABLE:YES;
#BPMS:0.000=90.000,32.000=180.000,160.000=90.000,192.000=180.000;
#STOPS:;
#BGCHANGES:;

//---------------dance-single - ----------------
#NOTES:
     dance-single:
     :
     Hard:
     8:
     0.638,0.743,0.167,0.809,0.142: // measure 1
0000
0000
0000
0000
,  // measure 2
0000
0000
0000
0000
,  // measure 3
0110
0000
0001
0000
0010
0000
0010
0100
0000
1000
0100
0000
0010
0000
0001
0000
,  // measure 4
0101
0000
0100
0000
0001
0000
1000
0100
0000
1000
0001
0000
0001
0000
0100
0000
,  // measure 5
1010
0000
1000
0000
0100
0000
0010
0001
0000
1000
0001
0000
0100
0000
0010
1000
,  // measure 6
0010
0000
0100
0000
0001
0000
0010
0100
0000
1000
0100
0000
0010
0000
0001
0000
,  // measure 7
0101
0000
0001
0100
0000
0000
0100
0010
0000
1000
0010
0000
0100
0000
0001
0000
,  // measure 8
0010
0000
1000
0000
0010
0000
0001
0000
0001
0000
0001
0000
1000
0010
1000
0000
,  // measure 9
0010
1000
0100
0010
0000
0100
0010
0001
,  // measure 10
2000
0000
3010
2000
0000
3001
1000
0001
,  // measure 11
0200
0000
0310
0200
0000
0310
0100
0001
,  // measure 12
0020
0000
0130
0020
0000
0130
0010
0001
,  // measure 13
2000
0000
3100
2000
0000
3010
0100
0001
,  // measure 14
0020
0000
0031
0020
0000
0031
0100
0010
,  // measure 15
2000
0000
3001
0200
0000
0301
0020
0000
,  // measure 16
0031
0000
0100
0000
1000
0000
0100
0000
0010
0000
1000
0000
0100
0000
1000
0001
,  // measure 17
2000
0000
3010
0200
0000
0301
0020
0000
,  // measure 18
0032
0000
0103
0020
0000
1030
0200
0000
,  // measure 19
2300
0000
3001
0020
0000
0031
0100
0010
,  // measure 20
2000
0000
3010
0002
0000
0013
1000
0100
,  // measure 21
2000
0000
3001
0020
0000
0031
0100
0010
,  // measure 22
2000
0000
3001
0200
0000
0310
1000
0100
,  // measure 23
0020
0000
0031
0100
0010
0100
0001
1000
,  // measure 24
0100
0000
0010
0000
0100
0000
0000
0000
1100
0000
0000
0000
1000
0000
0001
0100
,  // measure 25
0001
0010
0100
0010
0001
0100
0020
0000
,  // measure 26
1030
0100
2000
0000
3001
0010
0001
0100
,  // measure 27
0010
1000
0200
0000
0310
0001
0020
0000
,  // measure 28
0031
0100
1000
0100
0010
1000
0020
0000
,  // measure 29
2030
0000
3001
0020
0000
0031
0200
0000
,  // measure 30
0310
1000
0200
0000
0310
0001
1000
0001
,  // measure 31
0010
0100
2000
0000
3001
0100
2000
0000
,  // measure 32
3100
0010
1000
0100
0010
0001
0010
0100
,  // measure 33
2000
0000
3001
0020
0000
0031
0200
0000
,  // measure 34
0310
1000
0200
0000
0310
0001
1000
0001
,  // measure 35
0010
0100
0002
0000
0103
0010
0002
0000
,  // measure 36
1003
0100
2000
0000
3001
0010
0200
0000
,  // measure 37
0320
0000
0031
0200
0000
0301
0020
0000
,  // measure 38
0130
1000
0020
0000
0130
0001
0010
0100
,  // measure 39
1000
0100
0002
0000
0103
1000
0002
0000
,  // measure 40
0103
0010
1000
0100
1000
0010
0100
0000
,  // measure 41
0101
0020
1030
0200
0300
0020
0031
2000
,  // measure 42
3001
0200
1300
0200
0302
2003
3200
0320
,  // measure 43
0031
0200
0301
0020
0030
0200
2300
3020
,  // measure 44
0030
2000
3001
2000
3020
2030
3200
0310
,  // measure 45
0001
0000
1000
0000
0001
0010
0000
0001
1000
0000
0001
0100
0000
0001
1000
0000
,  // measure 46
0010
1000
0000
0001
1000
0000
0100
1000
0000
0100
0010
0000
0001
0100
0000
0001
,  // measure 47
1000
0000
0100
0000
0010
0001
0000
1000
0001
0000
0100
0001
0000
1000
0001
0000
,  // measure 48
1000
0000
0100
0000
0010
0001
0010
0100
1000
0001
1000
0002
0010
0000
0100
0000
,  // measure 49
1003
0000
1020
0000
1030
0100
0002
0000
,  // measure 50
0103
0000
0210
0000
0310
0002
0100
0000
,  // measure 51
0013
0000
2100
0000
3010
0200
0001
0000
,  // measure 52
0301
0000
0012
0000
1003
0100
0001
0100
,  // measure 53
1000
0010
0100
0000
0002
0000
0013
0100
,  // measure 54
1000
0000
0021
0000
0130
1000
0001
1000
,  // measure 55
0100
0010
0001
0000
0001
0010
1000
0010
,  // measure 56
0001
0100
0010
1000
0100
0010
0001
0010
,  // measure 57
0100
0000
2100
0000
3010
0100
0002
0000
,  // measure 58
1003
0000
1200
0000
0310
0001
0200
0000
,  // measure 59
0301
0120
1030
1200
,  // measure 60
1300
0100
0020
0000
0031
0000
0201
0000
,  // measure 61
0310
2010
3100
0012
,  // measure 62
0103
2010
3100
0012
,  // measure 63
0103
0000
0100
0000
0100
0001
0010
0100
,  // measure 64
1000
0000
0010
0000
0001
0000
0010
0000
1000
0000
0001
0000
0010
0000
0100
2000
,  // measure 65
0200
0000
0000
0000
,  // measure 66
0000
0000
3000
0000
,  // measure 67
0300
0000
0000
0000
;

//---------------dance-double - Hard Edit----------------
#NOTES:
     dance-double:
     Hard Edit:
     Edit:
     8:
     0.631,0.715,0.092,0.559,0.204:
00000000
00000000
00000000
00000000
,
00000000
00000000
00000000
00000000
,
01100000
00000000
00010000
00000000
00100000
00000000
00100000
01000000
00000000
10000000
01000000
00000000
00100000
00000000
00010000
00000000
,
01010000
00000000
01000000
00000000
00010000
00000000
10000000
01000000
00000000
10000000
00010000
00000000
00010000
00000000
01000000
00000000
,
01010000
00000000
01000000
00000000
00100000
00000000
00010000
00001000
00000000
01000000
00001000
00000000
00100000
00000000
00010000
01000000
,
00010000
00000000
00100000
00000000
00001000
00000000
00010000
00100000
00000000
01000000
00100000
00000000
00010000
00000000
00001000
00000000
,
00101000
00000000
00000000
00101000
00000000
00000000
00100000
00010000
00000000
01000000
00010000
00000000
00100000
00000000
00001000
00000000
,
00010000
00000000
00000000
01000000
00000000
00000000
00000000
00000000
00000000
00000000
00000000
00000000
00000000
00000000
00000000
00000000
,
10000000
01000000
00010000
00001000
00010000
01000000
10000000
00000000
,
02010000
00000000
03001000
00020000
00000000
00030100
00001000
00000001
,
00000020
00000000
00000130
00020000
00000000
01030000
10000000
01000000
,
00200000
00000000
00301000
00020000
00000000
00030010
00000100
00000010
,
00000002
00000000
00000013
00002000
00000000
00003100
00010000
00001000
,
00200000
00000000
01300000
20000000
00000000
30100000
01000000
00100000
,
00020000
00000000
00031000
00000200
00000000
00000301
00000010
00000100
,
00001000
00000000
00000100
00000000
00010000
00000000
00001000
00000000
00100000
00000000
00010000
00000000
01000000
00000000
00100000
10000000
,
00200000
00000000
10300000
02000000
00000000
13000000
00010000
01000000
,
00002000
00000000
00103000
00020000
00000000
00030010
00000001
00000100
,
00000020
00000000
00001030
00000200
00000000
00000310
00000001
00000100
,
00002000
00000000
01003000
00020000
00000000
00130000
01000000
10000000
,
02000000
00000000
03100000
00020000
00000000
00031000
00000200
00000000
,
00000320
00000000
00000130
00002000
00000000
00003100
00010000
00001000
,
00000200
00000000
00000310
00020000
00000000
00031000
00100000
01000000
,
10000000
00000000
01000000
00000000
00010000
00000000
00000000
00000000
01100000
00000000
00000000
00000000
10000000
00000000
00010000
00100000
,
00010000
00100000
01000000
00010000
00001000
00000010
00000002
00000000
,
00000103
00000010
00001000
00000100
00010000
00001000
00200000
00000000
,
01300000
10000000
00020000
00000000
01030000
00100000
20000000
00000000
,
31000000
00100000
00001000
00010000
00000010
00001000
00000020
00000000
,
00000130
00000001
00001000
00000100
00000010
00001000
00020000
00000000
,
01030000
00100000
00010000
10000000
00010000
00100000
00002000
00000000
,
01003000
00100000
02000000
00000000
13000000
01000000
20000000
00000000
,
31000000
00010000
00100000
00001000
00010000
00000100
00000020
00000000
,
00000031
00000100
00001000
00010000
00100000
10000000
00020000
00000000
,
10030000
01000000
00010000
00001000
00000010
00000001
00002000
00000000
,
00003010
00000100
00000002
00000000
00000013
00000100
00020000
00000000
,
00031000
01000000
00010000
01000000
00100000
01000000
20000000
00000000
,
31000000
00100000
10000000
00010000
00100000
00001000
02000000
00000000
,
03010000
00100000
00001000
00010000
00000100
00010000
00000010
00001000
,
00000200
00000000
00000310
00000001
00000200
00000000
00000301
00000010
,
00001000
00010000
01000000
10000000
00100000
01000000
00001000
00100000
,
00010000
00000000
00010000
00000000
01000000
00000000
00100000
10000000
00100000
01000000
00010000
00000000
00100000
00000000
00001000
00010000
,
00000100
00000000
00000100
00000000
00000010
00000000
00000001
00000100
00000010
00000100
00001000
00000000
00000100
00000000
00000010
00000000
,
00010000
00000000
00000100
00000000
00001000
00000000
00000100
00010000
00001000
00100000
00001000
00000000
00010000
00000000
00100000
00000000
,
10000000
00000000
01000000
00000000
00100000
00000000
00010000
01000000
10000000
01000000
10000000
00000000
01000000
00001000
00010000
00001000
,
00100000
00000000
00001000
00000000
00010000
00000100
00000000
00001000
00000010
00000000
00000100
00000001
00000000
00000010
00000001
00000000
,
00001000
00000100
00000000
00010000
00001000
00000000
00100000
00010000
00000000
01000000
00100000
00000000
10000000
01000000
00000000
10000000
,
00010000
00000000
00100000
01000000
00100000
10000000
00000000
00100000
00010000
00000000
00100000
00001000
00000000
00010000
00001000
00000000
,
00000100
00000000
00000001
00000000
00000010
00000100
00000010
00000100
00010000
00001000
00010000
00001000
00100000
00010000
00100000
00010000
,
01000000
00100000
20000000
00000000
31000000
00100000
00002000
00000000
,
00013000
00000010
00001000
00000010
00000100
00000002
00001000
00000000
,
00000013
00000100
00001000
00000100
00010000
00002000
00100000
00000000
,
01003000
00010000
00100000
01000000
00010000
02000000
10000000
00000000
,
13000000
00100000
00020000
00000000
00230000
00000000
01300000
00001000
,
00100000
00000000
00012000
00000000
00003010
00000100
00010000
00001000
,
00000010
00000100
00002000
00000000
00003001
00000010
00000001
00000100
,
00000010
00001000
00000100
00000001
00000100
00010000
00001000
00100000
,
00001000
01000000
00020000
00000000
10030000
01000000
20000000
00000000
,
30010000
01000000
00200000
00000000
01300000
00001000
00010000
00000100
,
00001000
00000100
00000020
00000000
00000031
00000100
00002000
00000000
,
00003100
00000010
00010000
00000000
00012000
00000000
00103000
00000000
,
00120000
00000000
01030000
00200000
10000000
00000000
02300000
00000000
,
03001000
00100000
00020000
00000000
00130000
01000000
12000000
00000000
,
13000000
00000000
01000000
00000000
00010000
00001000
00000100
00000001
,
00000100
00000000
00000010
00000000
00010000
00000000
00100000
00000000
10000000
00000000
01000000
00000000
00100000
00001000
00010000
00000200
,
00002000
00000000
00000000
00000000
,
00000000
00000000
00003000
00000000
,
00000300
00000000
00000000
00000000
;

//---------------dance-double - ----------------
#NOTES:
     dance-double:
     :
     Hard:
     8:
     0.637,0.660,0.100,0.600,0.192:
00000000
00000000
00000000
00000000
,
00000000
00000000
00000000
00000000
,
01200000
00000000
00000000
00010000
00000000
00000000
00301000
00010000
00000000
00001000
00010000
00000000
00000010
00000000
00000100
00000000
,
00000201
00000000
00001000
00000000
00000310
00000000
00001000
00000100
00000000
00001000
00000100
00000000
00000010
00000000
00000001
00000000
,
00000210
00000000
00000000
00001000
00000000
00000300
00010000
00000100
00000000
00000100
00010000
00000000
00001000
00000000
00100000
00000000
,
00120000
00000000
10000000
00000000
01030000
00000000
00010000
00100000
00000000
00100000
00010000
00000000
01000000
00000000
00100000
00000000
,
20100000
00000000
00000000
01000000
00000000
00000000
30010000
00100000
00000000
00100000
00001000
00000000
00010000
00000000
00000010
00000000
,
00000001
00000000
00000010
00000000
00000100
00000000
00001000
00000000
00010000
00000000
00100000
00000000
10000000
00010000
10000000
00000000
,
10000000
01000000
00010000
00001000
00010000
01000000
10000000
00000000
,
02010000
00000000
03001000
00020000
00000000
00030100
00001000
00000001
,
00000020
00000000
00000130
00020000
00000000
01030000
10000000
01000000
,
00200000
00000000
00301000
00020000
00000000
00030010
00000100
00000010
,
00000002
00000000
00000013
00002000
00000000
00003100
00010000
00001000
,
00200000
00000000
01300000
20000000
00000000
30100000
01000000
00100000
,
00020000
00000000
00031000
00000200
00000000
00000301
00000010
00000100
,
00001000
00000000
00000100
00000000
00010000
00000000
00001000
00000000
00100000
00000000
00010000
00000000
01000000
00000000
00100000
10000000
,
00200000
00000000
10300000
02000000
00000000
13000000
00010000
01000000
,
00002000
00000000
00103000
00020000
00000000
00030010
00000001
00000100
,
00000020
00000000
00001030
00000200
00000000
00000310
00000001
00000100
,
00002000
00000000
01003000
00020000
00000000
00130000
01000000
10000000
,
02000000
00000000
03100000
00020000
00000000
00031000
00000200
00000000
,
00000320
00000000
00000130
00002000
00000000
00003100
00010000
00001000
,
00000200
00000000
00000310
00020000
00000000
00031000
00100000
01000000
,
10000000
00000000
01000000
00000000
00010000
00000000
00000000
00000000
01100000
00000000
00000000
00000000
10000000
00000000
00010000
00100000
,
00010000
00100000
01000000
00010000
00001000
00000010
00000002
00000000
,
00000103
00000010
00001000
00000100
00010000
00001000
00200000
00000000
,
01300000
10000000
00020000
00000000
01030000
00100000
20000000
00000000
,
31000000
00100000
00001000
00010000
00000010
00001000
00000020
00000000
,
00000130
00000001
00001000
00000100
00000010
00001000
00020000
00000000
,
01030000
00100000
00010000
10000000
00010000
00100000
00002000
00000000
,
01003000
00100000
02000000
00000000
13000000
01000000
20000000
00000000
,
31000000
00010000
00100000
00001000
00010000
00000100
00000020
00000000
,
00000031
00000100
00001000
00010000
00100000
10000000
00020000
00000000
,
10030000
01000000
00010000
00001000
00000010
00000001
00002000
00000000
,
00003010
00000100
00000002
00000000
00000013
00000100
00020000
00000000
,
00031000
01000000
00010000
01000000
00100000
01000000
20000000
00000000
,
31000000
00100000
10000000
00010000
00100000
00001000
02000000
00000000
,
03010000
00100000
00001000
00010000
00000100
00010000
00000010
00001000
,
00000200
00000000
00000310
00000001
00000200
00000000
00000301
00000010
,
00001000
00010000
01000000
10000000
00100000
01000000
00001000
00000000
,
00100000
00000000
00010000
00000000
01000000
00000000
00100000
10000000
00100000
01000000
00010000
00000000
00100000
00000000
00001000
00010000
,
00000100
00000000
00000100
00000000
00000010
00000000
00000001
00000100
00000010
00000100
00001000
00000000
00000100
00000000
00000010
00000000
,
00010000
00000000
00000100
00000000
00001000
00000000
00000100
00010000
00001000
00100000
00001000
00000000
00010000
00000000
00100000
00000000
,
10000000
00000000
01000000
00000000
00100000
00000000
00010000
01000000
10000000
01000000
10000000
00000000
01000000
00001000
00010000
00001000
,
00100000
00000000
00001000
00000000
00010000
00000100
00000000
00001000
00000010
00000000
00000100
00000001
00000000
00000010
00000001
00000000
,
00001000
00000100
00000000
00010000
00001000
00000000
00100000
00010000
00000000
01000000
00100000
00000000
10000000
01000000
00000000
10000000
,
00010000
00000000
00100000
01000000
00100000
10000000
00000000
00100000
00010000
00000000
00100000
00001000
00000000
00010000
00001000
00000000
,
00000100
00000000
00000001
00000000
00000010
00000100
00000010
00000100
00010000
00001000
00010000
00001000
00100000
00000000
00010000
00000000
,
01000000
00100000
20000000
00000000
31000000
00100000
00002000
00000000
,
00013000
00000010
00001000
00000010
00000100
00000002
00001000
00000000
,
00000013
00000100
00001000
00000100
00010000
00002000
00100000
00000000
,
01003000
00010000
00100000
01000000
00010000
02000000
10000000
00000000
,
13000000
00100000
00020000
00000000
00230000
00000000
01300000
00001000
,
00100000
00000000
00012000
00000000
00003010
00000100
00010000
00001000
,
00000010
00000100
00002000
00000000
00003001
00000010
00000001
00000100
,
00000010
00001000
00000100
00000001
00000100
00010000
00001000
00100000
,
00001000
01000000
00020000
00000000
10030000
01000000
20000000
00000000
,
30010000
01000000
00200000
00000000
01300000
00001000
00010000
00000100
,
00001000
00000100
00000020
00000000
00000031
00000100
00002000
00000000
,
00003100
00000010
00010000
00000000
00012000
00000000
00103000
00000000
,
00120000
00000000
01030000
00200000
10000000
00000000
02300000
00000000
,
03001000
00100000
00020000
00000000
00130000
01000000
12000000
00000000
,
13000000
00000000
01000000
00000000
00010000
00001000
00000100
00000001
,
00000100
00000010
00010000
00001000
00100000
00010000
01000000
00100000
,
20020000
00000000
00000000
00000000
,
00000000
00000000
00030000
00000000
,
30000000
00000000
00000000
00000000
;

//---------------dance-single - ----------------
#NOTES:
     dance-single:
     :
     Medium:
     6:
     0.446,0.495,0.267,0.275,0.025: // measure 1
0000
0000
0000
0000
,  // measure 2
0000
0000
0000
0000
0000
0000
0000
0100
,  // measure 3
0010
0000
0000
0010
0000
0000
0001
0000
1000
0000
0000
0000
0001
0000
1000
0000
,  // measure 4
0100
0000
0000
0100
0000
0000
0010
0000
0001
0000
0000
0000
0010
0000
0100
0000
,  // measure 5
1000
0000
0000
1000
0000
0000
0010
0000
0001
0000
0000
0000
0001
0000
0010
0000
,  // measure 6
1000
0000
0000
1000
0000
0000
0100
0000
1000
0000
0100
0000
0010
0000
0001
0000
,  // measure 7
0101
0000
0000
0101
0000
0000
0001
0000
1000
0000
0100
0000
1000
0000
0000
0000
,  // measure 8
0001
0020
0230
2300
,  // measure 9
3010
0000
0100
0001
0000
0000
0101
0000
,  // measure 10
0200
0000
0310
1000
0000
0000
1010
0000
,  // measure 11
1000
0000
0100
0010
0000
0000
0110
0000
,  // measure 12
0020
0000
0031
1000
0000
0000
1001
0000
,  // measure 13
2100
0000
3100
0010
0000
0000
0011
0000
,  // measure 14
0020
0000
0130
0010
0000
0000
1100
0000
,  // measure 15
0200
0000
1300
0001
0000
0001
1000
0000
,  // measure 16
0010
1000
0010
0000
0100
0000
0100
0000
,  // measure 17
1002
0000
0103
0001
0000
0000
0110
0000
,  // measure 18
0200
0000
0310
1000
0000
0000
1001
0000
,  // measure 19
2000
0000
3100
0010
0000
0000
0011
0000
,  // measure 20
0002
0000
0103
0010
0000
0000
1010
0000
,  // measure 21
0102
0000
0013
0100
0000
0000
1100
0000
,  // measure 22
0200
0000
0310
0100
0000
0000
0011
0000
,  // measure 23
0002
0000
0103
0001
0100
0000
0010
0000
,  // measure 24
1000
0100
1000
0000
1000
0000
0100
0010
,  // measure 25
0001
0000
1000
0100
0000
0100
1000
0000
,  // measure 26
0010
0000
0100
0001
0000
0001
0100
0000
,  // measure 27
0010
1010
1000
1100
,  // measure 28
0100
0000
0010
0000
0001
0100
0001
0000
,  // measure 29
1000
0000
0001
0010
0000
0010
0001
0000
,  // measure 30
0100
0000
0010
1000
0000
1000
0010
0000
,  // measure 31
0100
0101
0001
0011
,  // measure 32
0010
0000
0100
0000
1000
0001
1000
0000
,  // measure 33
0010
0000
1000
0100
0000
0100
1000
0000
,  // measure 34
0010
0000
0100
0001
0000
0001
0100
0000
,  // measure 35
0010
1010
0100
0101
,  // measure 36
0001
0000
0010
0000
0100
1000
0100
0000
,  // measure 37
0010
0000
0001
1000
0000
1000
0001
0000
,  // measure 38
0010
0000
0001
1000
0000
1000
0001
0000
,  // measure 39
0101
0000
1100
0000
,  // measure 40
0011
0000
0001
0000
1000
0010
1000
0000
,  // measure 41
0200
1000
0000
1000
0000
0010
0300
0010
,  // measure 42
0002
1000
0000
1003
0100
1000
0010
0100
,  // measure 43
0002
0010
0000
0010
0003
0001
0100
0001
,  // measure 44
2000
0100
0000
3100
0010
0100
1000
0010
,  // measure 45
0200
0001
0000
0010
0000
1000
0000
0310
,  // measure 46
2000
0001
3000
0001
0010
0100
0010
0001
,  // measure 47
2000
0010
0000
0010
3000
1000
0100
0010
,  // measure 48
0001
0000
0001
0000
0001
1000
0001
0000
1000
0000
0100
0000
1000
0000
0001
0000
,  // measure 49
0102
1003
0010
0010
,  // measure 50
2100
0000
3001
0000
0001
0100
0001
0000
,  // measure 51
0200
0000
0310
0000
1000
0100
1000
0000
,  // measure 52
0020
0000
0130
0000
0001
0010
0001
0000
,  // measure 53
1000
0000
0100
0000
0010
0000
0001
1000
,  // measure 54
0001
0100
0010
0100
,  // measure 55
0001
0010
0001
0000
1000
0000
0100
0020
,  // measure 56
0100
0001
1030
0100
,  // measure 57
2100
0000
3001
0000
0100
0001
0100
0000
,  // measure 58
0102
0000
1003
0000
0100
1000
0100
0000
,  // measure 59
0010
0001
0100
0001
,  // measure 60
0010
0100
1000
0010
,  // measure 61
2010
0000
3001
0000
0001
0010
0001
0000
,  // measure 62
0012
0000
1003
0000
1000
0010
1000
0000
,  // measure 63
0001
0010
0100
0010
,  // measure 64
0001
0100
0001
0000
1000
0000
0100
1000
,  // measure 65
0200
0000
0000
0020
0000
0000
0000
0000
,  // measure 66
0000
0000
0300
0000
,  // measure 67
0030
0000
0000
0000
;

//---------------dance-single - ----------------
#NOTES:
     dance-single:
     :
     Easy:
     3:
     0.325,0.385,0.050,0.200,0.000: // measure 1
0000
0000
0000
0000
,  // measure 2
0000
0000
0000
0000
0000
0000
0000
0100
,  // measure 3
1000
1000
0010
0100
,  // measure 4
0001
0010
0001
0000
0100
0000
0010
1000
,  // measure 5
0010
0000
0010
0100
0000
0001
0000
0001
,  // measure 6
0010
0000
0010
0100
0000
0100
0010
0000
,  // measure 7
0001
0000
0001
1000
0000
1000
0010
0000
,  // measure 8
0100
0002
0023
2030
,  // measure 9
3010
0010
0100
0010
,  // measure 10
0001
0000
0000
0001
0000
0000
1000
0000
,  // measure 11
0010
0000
0000
0010
0000
0000
1000
0000
,  // measure 12
0100
0000
0000
0010
0000
0000
0001
0000
,  // measure 13
0100
0010
1000
0010
,  // measure 14
0100
0000
0000
0100
0000
0000
0001
0000
,  // measure 15
0010
0000
0000
0010
0000
0000
0010
0000
,  // measure 16
0100
1000
0100
0010
,  // measure 17
0001
0100
0010
0100
,  // measure 18
0001
0000
0000
0001
0000
0000
1000
0000
,  // measure 19
0010
0000
0000
0010
0000
0000
1000
0000
,  // measure 20
0100
0000
0000
0010
0000
0000
0001
0000
,  // measure 21
1000
0100
0010
0100
,  // measure 22
1000
0000
0000
1000
0000
0000
0010
0000
,  // measure 23
0100
0001
0100
0100
,  // measure 24
1010
1010
1000
0100
,  // measure 25
0010
0002
0100
2003
,  // measure 26
0010
3002
0100
2003
,  // measure 27
3010
0000
0000
0010
0000
0000
0010
0000
,  // measure 28
1000
0000
0001
0000
,  // measure 29
1000
2000
0100
3002
,  // measure 30
0010
2003
0100
3002
,  // measure 31
0013
0000
0000
0010
0000
0000
0010
0000
,  // measure 32
0001
0000
1000
0000
,  // measure 33
0001
0200
0001
0320
,  // measure 34
1000
0230
0001
0320
,  // measure 35
1030
0000
0000
1000
0000
0000
1000
0000
,  // measure 36
0001
0010
0100
0010
,  // measure 37
0002
0100
2003
0100
,  // measure 38
3002
0100
2003
3100
,  // measure 39
0110
0000
0110
0000
,  // measure 40
0010
0001
0100
0010
,  // measure 41
1000
0100
0000
0010
0000
0100
0000
0010
,  // measure 42
0000
0001
0000
0100
0001
0000
1000
0100
,  // measure 43
0000
0010
0000
0100
0000
0010
0001
1000
,  // measure 44
0000
0100
0000
0100
0010
0100
1000
0000
,  // measure 45
0001
0000
0100
0000
0001
0010
0001
0000
,  // measure 46
1000
0000
0100
0000
1000
0100
1000
0001
,  // measure 47
0010
0001
0010
0000
0001
0100
0001
0000
,  // measure 48
1000
1000
0100
0100
0010
0000
0010
0000
,  // measure 49
0001
0100
1000
0000
,  // measure 50
0100
0000
0010
0000
1000
0020
0000
0000
,  // measure 51
0130
0000
0010
0000
1000
0020
0000
0000
,  // measure 52
0130
0001
1000
0100
,  // measure 53
1000
0010
0100
0000
,  // measure 54
0010
0001
0010
0000
,  // measure 55
1000
0100
1000
0001
,  // measure 56
0020
0001
0032
0100
,  // measure 57
0103
0010
1000
0010
,  // measure 58
1000
0010
0100
0001
,  // measure 59
1000
0100
0010
0001
,  // measure 60
0010
0000
0010
0000
,  // measure 61
0100
1000
0001
0001
,  // measure 62
0100
0001
1000
1000
,  // measure 63
0100
0100
0100
0100
,  // measure 64
0100
0010
0100
0011
,  // measure 65
2100
0000
0000
0000
,  // measure 66
0000
0000
0000
0000
,  // measure 67
3000
0000
0000
0000
;

//---------------dance-single - ----------------
#NOTES:
     dance-single:
     :
     Challenge:
     9:
     0.660,0.743,0.292,0.559,0.225: // measure 1
0000
0000
0000
0000
,  // measure 2
0000
0000
0000
0000
0000
0000
0000
1000
,  // measure 3
1200
0000
0000
0010
0000
0000
1300
0100
0000
0010
0100
0000
1000
0000
0001
0100
,  // measure 4
0002
0000
0000
0010
0000
0000
1003
0001
0000
0010
0001
0000
0100
0000
0010
0000
,  // measure 5
1000
0000
0100
0000
0011
0000
0001
0100
1000
0100
0001
0000
1010
0000
1000
0100
,  // measure 6
1000
0000
0010
0000
0101
0000
0001
0010
1000
0010
0001
0000
1100
0000
1000
0000
,  // measure 7
1020
0000
0000
0001
0000
0000
0130
0010
0000
0010
0100
0000
0001
0000
0000
0001
,  // measure 8
0010
0000
0000
0000
0200
0000
1000
0000
2300
0000
0010
0000
3001
0010
0002
0000
,  // measure 9
0103
0010
2000
0001
0000
3100
1100
0000
,  // measure 10
0200
0000
2300
0001
0000
3010
1010
0000
,  // measure 11
0020
0000
0230
1000
0000
0301
0101
0000
,  // measure 12
0002
0000
0023
1000
0000
0130
0110
0000
,  // measure 13
0021
0000
0130
2000
0000
3010
1010
0000
,  // measure 14
0020
0000
0230
0001
0000
0310
1010
0000
,  // measure 15
2000
0000
3200
0001
0000
1300
1100
0000
,  // measure 16
0100
0000
0010
0000
0100
0000
0001
0000
1000
0000
0010
0000
0001
0000
0100
0010
,  // measure 17
0200
0000
0301
0020
0000
0031
1001
0000
,  // measure 18
2000
0000
3020
0100
0000
1030
1001
0000
,  // measure 19
0002
0000
0203
0010
0000
0301
1001
0000
,  // measure 20
2000
0000
3001
0020
0000
0031
0011
0000
,  // measure 21
2100
0000
3100
0020
0000
0031
1001
0000
,  // measure 22
0002
0000
0203
0010
0000
0310
1010
0000
,  // measure 23
2000
0000
3100
0020
0000
0031
2000
0000
,  // measure 24
3010
0000
0100
0000
0010
0000
0000
0000
1000
0000
0000
0000
0001
0000
1000
0100
,  // measure 25
1000
0001
0020
0000
0130
1000
0020
0000
,  // measure 26
0130
0001
2000
0000
3100
0010
1000
0010
,  // measure 27
0002
0000
0103
0102
0000
1003
1100
0000
,  // measure 28
1000
0100
0010
0001
0010
0100
1000
0010
,  // measure 29
0200
0000
0301
2000
0000
3001
0100
1000
,  // measure 30
0100
0010
1000
0100
0000
0001
0100
0010
,  // measure 31
0001
1000
0010
0100
0000
0001
0100
0001
,  // measure 32
0010
0100
1000
0100
1000
0010
0100
0001
,  // measure 33
0020
0000
0130
2000
0000
3001
0100
1000
,  // measure 34
0100
0001
0000
0010
0100
1000
0000
0100
,  // measure 35
0010
0001
0200
0000
0310
1000
0200
0000
,  // measure 36
0310
0001
0100
0001
0010
0100
1000
0010
,  // measure 37
0210
0000
0301
0021
0000
0031
0100
0010
,  // measure 38
2000
0000
3001
0010
0002
0000
1003
0100
,  // measure 39
0210
0000
1300
0000
0021
0000
0031
0100
,  // measure 40
0010
1000
0200
0000
0310
0001
1000
0000
,  // measure 41
1100
0000
0100
0000
0010
0000
0001
0100
1000
0100
0001
0000
0010
0000
0100
0000
,  // measure 42
1100
0000
1000
0000
0010
0000
0100
0001
0010
0001
0100
0000
0010
0000
1000
0000
,  // measure 43
1100
0000
1000
0000
0001
0000
0100
0010
1000
0010
0100
0000
0001
0000
0010
0000
,  // measure 44
1100
0000
0000
0000
1000
0000
0000
0000
0010
0000
0000
0000
0100
0000
0001
0000
1000
0000
0001
0000
0010
0000
0000
0000
0100
0000
1000
0000
0001
0000
0100
0010
,  // measure 45
0100
0001
1000
0100
0010
0001
0000
0100
0001
0000
0010
0001
0000
0100
0010
0000
,  // measure 46
1000
0100
0000
1000
0010
0000
1000
0100
0000
0010
0001
0000
0100
0010
0000
0010
,  // measure 47
1000
0001
0100
0001
0010
0001
0000
0100
0001
0000
0010
0001
0000
0100
0001
0000
,  // measure 48
0010
0000
0100
0000
1000
0100
0010
0001
0010
0000
0100
0000
1000
0010
0100
0001
,  // measure 49
1000
0010
0200
0001
0000
0301
0010
0100
,  // measure 50
1000
0010
0200
0001
0000
0301
0010
0100
,  // measure 51
1000
0010
0200
0001
0000
0301
0010
0100
,  // measure 52
1000
0010
0200
0001
0000
0301
0100
1000
,  // measure 53
0100
0001
0020
1000
0000
0031
0100
1000
,  // measure 54
0100
0001
0020
1000
0000
0031
0100
1000
,  // measure 55
0100
0001
0020
1000
0000
0031
0100
0010
,  // measure 56
1000
0100
0010
0100
1000
0010
0100
0010
,  // measure 57
1000
0100
0020
0001
0000
0031
0100
1000
,  // measure 58
0100
0001
0020
0100
0000
1030
0010
0001
,  // measure 59
0010
0100
2000
0010
0000
3001
0100
1000
,  // measure 60
0100
0010
2000
0100
0000
3001
0010
0100
,  // measure 61
1000
0001
0100
2000
0000
3100
0110
0000
,  // measure 62
0010
1000
0100
0002
0000
0103
0110
0000
,  // measure 63
0011
0000
1100
0000
1000
0010
0100
0001
,  // measure 64
0010
0000
0100
0000
1000
0000
0100
0000
0010
0000
0001
0000
1000
0100
0010
0001
,  // measure 65
0020
0000
0000
0002
0000
0000
0000
0000
,  // measure 66
0030
0000
1000
0000
,  // measure 67
0103
0000
0000
0000
;

//---------------dance-double - ----------------
#NOTES:
     dance-double:
     :
     Medium:
     6:
     0.473,0.550,0.225,0.542,0.063:
00000000
00000000
00000000
00000000
,
00000000
00000000
00000000
00000000
,
00210000
00000000
00000000
00001000
00000000
00000000
00310000
00000000
01000000
00000000
00010000
00000000
00100000
00000000
00000000
00000000
,
00102000
00000000
00000000
01000000
00000000
00000000
00013000
00000000
00000100
00000000
00000010
00000000
00000100
00000000
00001000
00000000
,
00002100
00000000
00000000
00000010
00000000
00000000
00003001
00001000
00000000
00000000
00000010
00000000
00001000
00000000
00000100
00000000
,
00001200
00000000
00000000
00010000
00000000
00000000
00001300
00000100
00000000
00000000
00010000
00000000
00001000
00000000
01000000
00000000
,
02010000
00000000
00000000
00100000
00000000
00000000
13000000
01000000
00000000
00000000
00100000
00000000
10000000
00000000
01000000
00000000
,
00100000
00010000
00200000
00000000
00302000
00000000
00023000
00000000
,
00030100
00000000
00000010
00000001
00000000
00000000
00000210
00000000
,
00001300
00000000
00000010
00001000
00000000
00000000
00000102
00000000
,
00001003
00000000
00000100
00010000
00000000
00000000
00012000
00000000
,
00103000
00000000
00010000
01000000
00000000
00000000
01010000
00000000
,
00210000
00000000
01300000
10000000
00000000
00000000
10200000
00000000
,
01300000
00000000
00010000
00100000
00000000
00000000
00210000
00000000
,
00301000
00000000
00010000
00001000
00000000
00001000
00010000
00000000
,
00000010
00001000
00000100
00000100
,
00000021
00000000
00000130
00001000
00000000
00001000
00000100
00000000
,
00000020
00000000
00000000
00000230
00000000
00000000
00010300
00000000
,
00021000
00000000
00031000
00100000
00000000
00100000
00001000
00000000
,
00020000
00000000
00000000
02030000
00000000
00000000
13000000
00000000
,
20100000
00000000
31000000
00100000
00000000
00100000
01000000
00000000
,
00200000
00000000
00000000
00302000
00000000
00000000
00013000
00000000
,
00000100
00001000
00000100
00000010
,
00000001
00000100
00000001
00000000
00001000
00000000
00000100
00000000
,
00000010
00000000
00000021
00000000
00000130
00001000
00000200
00000000
,
00010300
00001000
00020000
00000000
00130000
00000000
20000000
00000000
,
31000000
00200000
00310000
02000000
,
03010000
00100000
00001000
00000100
,
00000100
00000010
00000200
00000000
00000301
00001000
00000002
00000000
,
00000013
00000100
00000020
00000000
00000130
00000000
00002000
00000000
,
00003010
00020000
00031000
00200000
,
00310000
01000000
00100000
10000000
,
10000000
01000000
20000000
00000000
30010000
01000000
00020000
00000000
,
01030000
00100000
02000000
00000000
03001000
00000000
00200000
00000000
,
00301000
00020000
00030100
00002000
,
00003010
00000100
00000001
00001000
,
00001000
00000010
00002000
00000000
00003001
00000010
00000002
00000000
,
00000013
00000100
00000020
00000000
00000130
00000000
00020000
00000000
,
00032000
00100000
00023000
01030000
,
10000000
00000000
01000000
00000000
00100000
00010000
00100000
00000000
,
00001000
00010000
00000000
00100000
00000000
10000000
00000000
01000000
,
00100000
00010000
00000000
00100000
00001000
00010000
00010000
00000100
,
00000000
00001000
00000000
00000010
00000000
00000001
00000010
00000100
,
00000000
00000001
00000000
00001000
00000100
00000010
00000010
00000100
,
00010000
00000000
00001000
00000000
00100000
00000000
00000000
00010000
00000000
00000000
00100000
00000000
00000000
01000000
00000000
00000000
,
00100000
00000000
00010000
00000000
01000000
00000000
00000000
10000000
00000000
00000000
01000000
00000000
00000000
00010000
00000000
00000000
,
00100000
00000000
00001000
00000000
00010000
00000000
00000000
00000100
00000000
00000000
00001000
00000000
00000000
00000010
00000000
00000000
,
00000100
00000000
00000100
00000000
00000010
00000100
00000010
00000000
00001000
00000000
00000100
00000000
00010000
00000000
00000000
00000000
,
00012000
00000000
00103000
00000000
01000000
10000000
01000000
00000000
,
00100000
00001000
00020000
00032000
,
00003010
00000000
00000001
00000000
00000100
00000010
00000100
00000000
,
00000001
00000010
00002000
00023000
,
00031000
00100000
00001000
00000000
01000000
00000000
00100000
10000000
,
00100000
00000000
10000000
00000000
01000000
00000000
00100000
00001000
,
00100000
00001000
00010000
00000100
,
00000010
00000001
00000010
00000000
00000100
00001000
00000100
00000000
,
00010000
00012000
00103000
00120000
,
01030000
01200000
10300000
12000000
,
03100000
00102000
00013000
00010200
,
00001300
00001000
00000020
00000130
,
00000100
00000120
00001030
00001200
,
00010300
00012000
00103000
00120000
,
10030000
00000000
00100000
00000000
01000000
00010000
01000000
00000000
,
00001000
00000000
00010000
00000000
00000100
00001000
00000100
00000020
,
00000002
00000000
00000000
00000000
,
00000000
00000000
00000030
00000000
,
00000003
00000000
00000000
00000000
;

//---------------dance-double - Copied from----------------
#NOTES:
     dance-double:
     Copied from:
     Easy:
     3:
     0.314,0.385,0.075,0.083,0.008:
00000000
00000000
00000000
00000000
,
00000000
00000000
00000000
00000000
00000000
00000000
00000000
01000000
,
10000000
00000000
00100000
00000000
01000000
00000000
00010000
00100000
,
00001000
00010000
00000010
00000100
,
00000001
00000010
00000001
00000000
00001000
00000000
00001010
00000000
,
00000010
00001000
00000010
00000000
00010000
00000000
00001000
00100000
,
00010000
00000000
00100000
01000000
00000000
01000000
00100000
00000000
,
00020000
20030000
30200000
02300000
,
03001000
01000000
10000000
01000000
,
00100000
00000000
00000000
00010000
00000000
00000000
10000000
00000000
,
00100000
00000000
00000000
10000000
00000000
00000000
00010000
00000000
,
00100000
00000000
00000000
00001000
00000000
00000000
00010000
00000000
,
00000100
00001000
00000010
00000100
,
00000001
00000000
00000000
00000001
00000000
00000000
00000100
00000000
,
00000010
00000000
00000000
00001000
00000000
00000000
00000001
00000000
,
00000010
00000100
00010000
00001000
,
00100000
00010000
01000000
10000000
,
01000000
00000000
00000000
00100000
00000000
00000000
01000000
00000000
,
00010000
00000000
00000000
00100000
00000000
00000000
00001000
00000000
,
00010000
00000000
00000000
00000010
00000000
00000000
00001000
00000000
,
00000100
00000010
00000001
00000010
,
00000100
00000000
00000000
00010000
00000000
00000000
00000100
00000000
,
00010000
00000000
00000000
00001000
00000000
00000000
00010000
00000000
,
00100000
10000000
01000000
00100000
,
00010000
01000000
10000000
01000000
,
00010000
01000000
10000000
01000000
,
00001000
00010000
00000100
00010000
,
00000100
00000010
00000011
00000001
,
00000100
00000010
00001000
00000010
,
00000100
00000010
00001000
00000100
,
00010000
00001000
00100000
00001000
,
00010000
01000000
10000000
00010000
,
20010000
00000000
00000000
00010000
00000000
00000000
30100000
00000000
,
10000000
00100000
01000000
00010000
,
00100000
00001000
00010000
00001000
,
00000010
00000001
00001000
00000001
,
00001002
00000000
00000000
00001000
00000000
00000000
00000013
00000000
,
00000110
00000000
00001100
00000000
,
00000100
00010000
00001000
01000000
,
01010000
00010000
11000000
10000000
,
10000000
01000000
00000000
00010000
00000000
00001000
00000000
00000010
,
00000000
00000001
00000000
00000100
00000001
00001000
00000001
00000000
,
00000010
00000100
00000000
00010000
00000000
00001000
00010000
00001000
,
00000000
00100000
00000000
01000000
10000000
01000000
00100000
00100000
,
00001000
00000000
00000000
00000000
00010000
00000000
00000000
00000000
00000010
00000000
00000000
00001000
00000000
00000000
00000010
00000000
,
00000100
00000000
00000001
00000000
00000001
00000010
00000100
00001000
,
00000100
00000000
00000000
00000000
00010000
00000000
00000000
00000000
00001000
00000000
00000000
01000000
00000000
00000000
00001000
00000000
,
00100000
00010000
00100000
00000000
01000000
10000000
00010000
10000000
,
00010000
01000000
10000000
00000000
,
01000000
00001000
00010000
00000000
,
00000100
00000010
00000001
00000000
,
00000100
00000010
00010000
00001000
,
00000010
00000001
00001000
00000100
,
00010000
00001000
00010000
00000000
,
00100000
10000000
00100000
01000000
,
00002000
00000000
00023000
00000000
,
00030010
00001000
00000001
00001000
,
00000010
00001000
00000001
00000000
,
00000010
00000100
00010000
00001000
,
00000010
00010000
00001000
00000000
,
00100000
01000000
00100000
00010000
,
00100000
00001000
00010000
00000000
,
00001000
01000000
01000000
01000000
,
00001000
00010000
00000100
00000010
,
00002002
00000000
00000000
00000000
,
00000000
00000000
00000000
00000000
,
00003003
00000000
00000000
00000000
;

//---------------dance-double - ----------------
#NOTES:
     dance-double:
     :
     Challenge:
     9:
     0.683,0.798,0.492,0.450,0.217:
00000000
00000000
00000000
00000000
,
00000000
00000000
00000000
00000000
00000000
00000000
00000000
01000000
,
10020000
00000000
00000000
00130000
00000000
00000000
00001000
00010000
00000000
00100000
01000000
00000000
00001000
00000000
00010000
00000100
,
00002000
00000000
00000010
00000000
00003100
00000000
00000010
00000001
00000000
00001000
00000010
00000000
00010000
00001000
00010000
00000000
,
00100000
00000000
10000000
00000000
11000000
00000000
01000000
00100000
00001000
00100000
01000000
00000000
00100000
00000000
00001000
00000000
,
00010000
00000000
00000010
00000000
00000110
00000000
00000010
00010000
00000100
00010000
00000010
00000000
00000100
00000000
00000001
00000000
,
00002100
00000000
00000000
00003100
00000000
00000000
00010000
00000010
00000000
00001000
00000100
00000000
00010000
00000000
00000100
00000000
,
00000001
00000000
00000100
00000000
00010000
00000000
01000000
00000000
00100000
00000000
00010000
00000000
10000000
01000000
10000000
00000000
,
00010000
01000000
10000000
01000000
00100000
01000000
00001000
00000000
,
00021000
00000000
00031000
00002100
00000000
00013000
00021000
00000000
,
00030010
00001000
00000100
00000001
00000100
00001000
00000010
00000000
,
00001200
00000000
00010300
00012000
00000000
01003000
01010000
00000000
,
00100000
10000000
01000000
10000000
00010000
00100000
00001000
00000000
,
00210000
00000000
10300000
10200000
00000000
00310000
00210000
00000000
,
00301000
01000000
00010000
01000000
00001000
00010000
00000010
00001000
,
00000100
00000000
00010000
00000000
00001000
00000000
00100000
00000000
00010000
00000000
01000000
00000000
00100000
00000000
10000000
01000000
,
10000000
00010000
00100000
01000000
00100000
00001000
00010000
00000000
,
00010020
00000000
00001030
00001020
00000000
00010030
00020010
00000000
,
00030200
00000000
00000310
00000001
00000010
00001000
00010000
00000000
,
00001020
00000000
00010030
00012000
00000000
00103000
00210000
00000000
,
00310000
01000000
10000000
01000000
00100000
00010000
00001000
00000010
,
00000002
00000000
00000103
00000120
00000000
00001030
00002100
00000000
,
00003010
00000100
00000001
00000100
00001000
00010000
00000100
00000000
,
00010000
00000000
00001000
00000000
00010000
00000000
00000000
00000000
00100000
00000000
10000000
00000000
01000000
00000000
00100000
00010000
,
00100000
00001000
01000000
00001000
00010000
00100000
02000000
00000000
,
03001000
00010000
00000010
00001000
00000100
00010000
00000020
00000000
,
00010030
00001000
01000000
00010000
00100000
00010000
01000000
00000000
,
10100000
01010000
00101000
00010200
,
00001300
00000100
00000010
00001000
00010000
00000100
00000020
00000000
,
00001030
00010000
01000000
00100000
00010000
10000000
02000000
00000000
,
03010000
00001000
00200000
00000000
00301000
00010000
00000010
00000000
,
00000101
00001010
00010100
00201000
,
00310000
01000000
10000000
00010000
00100000
10000000
00020000
00000000
,
00130000
00001000
00010000
00000100
00010000
00001000
00000020
00000000
,
00000031
00000100
00001000
00000001
00000010
00001000
00000100
00000000
,
00000011
00001100
00110000
11000000
,
10000000
01000000
00100000
00001000
00010000
00000100
00000020
00000000
,
00000031
00000100
00000010
00010000
00001000
00100000
02000000
13000000
,
12000000
00000000
03010000
00000000
00012000
00000000
00003010
00000001
,
00000100
00001000
00020000
00000000
00030010
00000100
00001000
00000000
,
10000000
00000000
01000000
00000000
00120000
00000000
10030000
01000000
00010000
01000000
10000000
00000000
01020000
00000000
00000000
00000000
,
00030010
00000000
00000100
00000000
00002100
00000000
00003001
00000100
00001000
00000100
00000001
00000000
00002010
00000000
00000000
00000000
,
00003100
00010000
00000100
00000000
00000011
00000000
00000100
00010000
00001000
00100000
00010000
00000000
21000000
00000000
00000000
00000000
,
30100000
00000000
10000000
00000000
00100000
00000000
00000000
00000000
01001000
00000000
00000000
00000000
00010000
00000000
00100000
00000000
00001000
00000000
00010000
00000000
00000100
00000000
00000000
00000000
00000010
00000000
00000100
00000000
00000010
00000000
00000100
00000010
,
00000100
00001000
00000010
00000001
00000010
00001000
00000000
00000100
00010000
00000000
00000010
00001000
00000000
00000100
00010000
00000000
,
00001000
00100000
00000000
01000000
00100000
00000000
00001000
00100000
00010000
00100000
01000000
00000000
11000000
00000000
01100000
00000000
,
00100000
00001000
01000000
00010000
00100000
00001000
00000000
01000000
00001000
00000000
00010000
00001000
00000000
00000010
00000100
00000000
,
00001100
00000000
00010100
00000000
00010000
00001000
00100000
00010000
01000000
00100000
10000000
01000000
00100000
00000000
00012000
00000000
,
00003100
00000001
00000010
00001000
00010000
00001000
00000020
00000000
,
00000130
00010000
00000010
00001000
00000100
00010000
00002000
00000000
,
00013000
01000000
10000000
01000000
00100000
00001000
00020000
00000000
,
01030000
00100000
10000000
00100000
00010000
01000000
00001000
00010000
,
00000010
00000100
00001000
00000000
00021000
00000000
00031000
00000010
,
00000001
00000000
00000110
00000000
00000100
00010000
00001000
00000100
,
00000001
00000100
00000010
00010000
00001000
00100000
00010000
01000000
,
10000000
01000000
00010000
00100000
01000000
10000000
01000000
00100000
,
00001000
00210000
00301000
00001020
,
00010030
00000000
00201000
00000000
00310000
01000000
00001000
00010000
,
00000100
00000000
00000021
00000000
00000130
00001000
00001002
00000000
,
00000103
00001000
00000100
00000000
00000110
00000000
00000010
00001000
,
00000100
00010000
00000010
00000100
00001000
00010000
00021000
00000000
,
00130000
00000000
20100000
00000000
31000000
00100000
00010000
00100000
,
11000000
00000000
00210000
00000000
00301000
00010000
00100000
01000000
,
00001000
00000000
00010000
00000000
00000100
00000000
00000010
00000000
00001000
00000000
00010000
00000000
01000000
00100000
01000000
10000000
,
00020000
00000000
00000000
00000000
,
00000000
00000000
00000010
00000000
,
00130000
00000000
00000000
00000000
;

//---------------dance-single - ----------------
#NOTES:
     dance-single:
     :
     Beginner:
     1:
     0.126,0.187,0.008,0.000,0.000: // measure 1
0000
0000
0000
0000
,  // measure 2
0000
0000
0000
0000
,  // measure 3
1000
0000
1000
0000
,  // measure 4
0010
0000
0010
0000
,  // measure 5
1000
1000
1000
0000
,  // measure 6
0001
0001
0001
0000
,  // measure 7
0010
0000
0100
0000
,  // measure 8
0010
0010
0010
0000
,  // measure 9
0001
0000
0001
0000
,  // measure 10
1000
0000
0000
0000
,  // measure 11
1000
0000
1000
0000
,  // measure 12
0001
0000
0000
0000
,  // measure 13
0001
0000
0000
0000
,  // measure 14
0100
0000
0000
0000
,  // measure 15
1000
0000
1000
0000
,  // measure 16
1000
0000
0000
0000
,  // measure 17
0100
0000
0010
0000
,  // measure 18
0100
0000
0010
0000
,  // measure 19
1000
0000
0000
0000
,  // measure 20
1000
0000
0000
0000
,  // measure 21
0001
0000
0010
0000
,  // measure 22
0001
0000
0010
0000
,  // measure 23
0100
0000
0000
0000
,  // measure 24
0100
0000
0000
0000
,  // measure 25
0010
0000
0010
0000
,  // measure 26
0010
0000
0000
0000
,  // measure 27
0001
0000
0001
0000
,  // measure 28
1000
0000
1000
0000
,  // measure 29
0010
0000
0010
0000
,  // measure 30
0010
0000
0000
0000
,  // measure 31
1000
0000
1000
0000
,  // measure 32
0001
0000
0001
0000
,  // measure 33
0010
0000
0010
0000
,  // measure 34
0010
0000
0000
0000
,  // measure 35
0100
0000
1000
0000
,  // measure 36
0100
0000
1000
0000
,  // measure 37
0010
0000
0010
0000
,  // measure 38
0010
0000
0000
0000
,  // measure 39
0100
0000
0000
0000
,  // measure 40
0010
0000
0000
0000
,  // measure 41
1000
0000
0001
0000
,  // measure 42
0010
0000
0001
0000
,  // measure 43
1000
0000
0010
0000
,  // measure 44
1000
0000
1000
0000
,  // measure 45
0001
0000
0001
0000
,  // measure 46
0010
0000
0010
0000
,  // measure 47
0001
0000
1000
0000
,  // measure 48
0010
0010
0010
0000
,  // measure 49
1000
0000
1000
0000
,  // measure 50
0001
0000
0000
0000
,  // measure 51
0010
0000
0010
0000
,  // measure 52
0100
0000
0000
0000
,  // measure 53
1000
0000
0100
0000
,  // measure 54
1000
0000
0000
0000
,  // measure 55
0001
0000
0100
0000
,  // measure 56
0001
0000
0000
0000
,  // measure 57
1000
0000
1000
0000
,  // measure 58
1000
0000
0000
0000
,  // measure 59
0010
0000
0010
0000
,  // measure 60
0010
0000
0000
0000
,  // measure 61
1000
0000
0000
0000
,  // measure 62
0001
0000
0000
0000
,  // measure 63
0010
0000
0010
0000
,  // measure 64
0010
0000
0000
0000
,  // measure 65
1001
0000
0000
0000
;
