#TITLE:8th REMIX;
#SUBTITLE:From Rhythm Heaven;
#ARTIST:NINTENDO;
#TITLETRANSLIT:;
#SUBTITLETRANSLIT:;
#ARTISTTRANSLIT:;
#CREDIT:;
#BANNER:8th Remix.png;
#BACKGROUND:8th Remix-bg.png;
#LYRICSPATH:;
#CDTITLE:;
#MUSIC:8th Remix.ogg;
#OFFSET:-0.004;
#SAMPLESTART:76.426;
#SAMPLELENGTH:10.580;
#SELECTABLE:YES;
#BPMS:0.000=182.000,70.001=364.001,72.001=182.000,286.001=364.000,288.001=182.000;
#STOPS:70.001=0.041
,70.251=0.041
,70.501=0.041
,70.751=0.041
,71.001=0.041
,71.251=0.041
,71.501=0.041
,71.751=0.041
,286.001=0.041
,286.251=0.041
,286.501=0.041
,286.751=0.041
,287.001=0.041
,287.251=0.041
,287.501=0.041
,287.751=0.041
;
#BGCHANGES:;

//---------------dance-single - ----------------
#NOTES:
     dance-single:
     :
     Hard:
     8:
     0.723,0.630,0.269,0.488,0.000:
0000
0000
0000
0000
,
0000
0000
0000
0000
,
0000
1000
0000
0001
,
0000
1000
0001
1010
,
0001
0100
1000
0100
0001
0010
0010
0000
,
0100
1000
0010
1000
0100
0001
0001
0000
,
0100
1000
0010
0001
0010
0100
0100
0000
,
0001
0010
1000
0000
0001
0100
1000
0000
,
0001
0100
0010
1000
0100
0100
1000
0000
,
0001
0100
1000
0100
0010
0010
1000
0000
,
0001
0010
1000
0010
0100
0100
0001
0000
,
0100
1000
0010
0000
0100
0001
0010
0000
,
0001
0100
1000
0200
0000
0001
0000
0310
,
1000
0000
0010
0100
0002
0000
0013
0000
,
2001
0000
3100
0010
0002
0000
1003
0000
,
1020
0000
0100
0000
0031
0010
1000
0100
,
0001
0100
0010
0001
1000
0010
0001
0010
,
1000
0100
0010
0001
2010
0000
0000
0000
,
3020
0000
0130
0001
0020
0000
0130
0000
,
1001
0000
0120
0000
0000
1030
2100
0000
,
3001
0010
0100
0010
0001
0100
1000
0100
,
0002
0000
0000
1000
1003
0000
0010
0000
,
0102
0000
0000
1003
0100
0010
0001
0010
,
0100
0100
1000
0001
2000
0000
3010
1000
,
0001
0010
1000
0010
0000
0001
0100
0002
,
0000
1000
0000
0100
0000
0013
0000
0001
,
0100
1010
0100
1001
,
0001
0100
1000
0100
0010
1000
0100
0010
,
0001
1000
0010
1000
0000
0012
0000
0013
,
0100
1000
0100
0010
0002
0000
0000
0000
,
1003
0001
0010
0001
0000
1002
0000
0103
,
1000
0100
0001
0010
2000
0000
0000
0000
,
3010
0001
0010
0100
0000
0001
1000
0000
,
1000
0001
0010
0100
0000
0010
0001
0000
,
0010
0100
1000
0100
0000
0010
0001
1000
,
1001
0001
0001
0001
,
1000
0000
0100
0000
0010
0100
1000
0000
,
0010
0100
1000
0000
0010
0100
1000
0100
,
0001
0000
0200
0000
0310
0001
0010
2000
,
0000
3001
0010
2000
0000
3001
0010
1000
,
0010
0001
0000
1000
0100
0010
0001
1000
,
0001
0000
0010
0000
1100
0000
0011
0001
,
1000
0000
0002
0000
0103
0010
1000
0002
,
0000
0013
0100
2000
0000
3000
0001
0100
,
0000
0001
0010
1000
0010
0002
0000
0103
,
0010
1000
0100
1000
0010
0100
0001
0010
,
0001
0000
2100
0000
3010
0100
0001
0020
,
0000
1030
0010
0002
0000
0103
0010
1000
,
0100
0002
0000
0103
1000
0100
0010
0002
,
0100
0000
1003
0000
1001
0000
0001
0010
,
0002
0000
1000
0000
0103
0010
1000
0020
,
0000
0130
0001
2000
0000
3100
0010
0001
,
0000
1000
0100
0001
0100
1000
0001
2000
,
0000
3001
0100
1000
0100
0001
1000
0002
,
0000
1003
0100
0001
0100
1000
0001
2000
,
0000
3001
0100
1000
0010
0001
0100
0000
,
0001
1000
0001
1000
0001
1000
0001
1000
,
0001
1000
0001
1000
0001
0000
1001
0000
,
0201
0000
0310
1000
0100
0001
0100
1000
,
0010
0000
0100
0001
0010
1000
0010
0001
,
0100
0000
0010
1000
0100
0001
0100
1000
,
0010
0101
0001
1100
,
1000
0100
0010
0001
0010
0100
1000
0000
,
0001
0010
0100
1000
0100
0010
0001
0000
,
1000
0100
0001
0100
1000
0001
0001
0000
,
1000
0010
0001
0010
1000
0100
0010
0001
,
1000
0010
1000
0200
0000
1300
0010
0100
,
0002
0000
1003
0100
2000
0000
3010
0000
,
0102
0000
0013
0100
0020
0000
1030
0000
,
0210
0010
1300
0001
,
0100
1000
0100
0001
0010
0100
1000
0100
,
0010
0001
0100
0001
2000
0000
0000
0000
,
3020
0000
1030
0100
0020
0000
0031
0000
,
1001
0000
0210
0000
0000
1300
1010
0000
,
0202
0000
0000
0303
0000
0000
0000
0000
;

//---------------dance-single - ----------------
#NOTES:
     dance-single:
     :
     Medium:
     6:
     0.551,0.556,0.448,0.408,0.000:
0000
0000
0000
0000
,
0000
0000
0000
0000
,
0000
0000
0000
0000
,
0000
0000
0000
1010
,
1000
0100
1000
0000
0001
0010
0000
0000
,
0001
0100
0001
0000
1000
0010
0000
0000
,
1000
0100
1000
0000
0001
0010
0000
0000
,
0011
0000
1001
0000
,
1010
0000
1000
0010
1000
0000
0000
0000
,
0011
0000
0001
0010
0001
0000
1000
0000
,
1100
0000
1000
0100
1000
0000
0000
0000
,
2001
3010
2010
3001
,
1001
0000
1000
0100
0000
0100
1000
0000
,
0002
1003
0020
1030
,
0002
0000
0013
0100
0010
0000
0001
0000
,
2001
0100
3001
0010
,
0100
1000
0100
0000
0010
0000
0001
0000
,
1000
0001
0020
0000
,
0032
0000
1003
0010
,
0110
0000
0120
0000
0000
1000
1030
0000
,
0001
0010
1100
0010
,
0002
0000
0000
1000
1003
0000
0010
0000
,
0201
0000
0000
0301
1000
0000
0100
0000
,
0021
0001
0230
0310
,
0001
1000
0000
0001
0000
1000
0100
1000
,
0000
0100
0000
0010
0000
0001
0000
0001
,
1000
1010
0000
0101
,
0000
0000
0011
0000
0100
1000
0100
0000
,
2002
0000
0000
3003
0000
0110
0000
0000
,
1001
0000
0010
0100
0010
0000
0001
0000
,
2020
0000
0000
3030
0000
0101
0000
0000
,
1010
0000
1000
0100
2000
0000
0000
0000
,
3001
0000
0001
0010
0000
1000
0000
0010
,
0001
0000
1000
0010
0000
0001
0000
0010
,
1000
0000
0100
0010
0000
1000
0000
0010
,
0100
0100
0010
0000
0001
0000
1000
0000
,
1000
0000
0001
0000
,
1000
0100
0010
0001
,
1000
0000
2010
0000
3001
0000
0010
0100
,
0000
0100
0010
0000
0001
0000
0010
0002
,
0000
2003
0000
3010
1000
0000
0001
0010
,
0000
0001
1000
0000
0010
0000
0100
0000
,
1001
0000
0002
0000
0103
0000
0010
1000
,
0000
1000
0100
2000
0000
3000
0001
0000
,
0012
0000
1003
0000
1000
0010
1000
0000
,
0001
0010
0110
1001
,
1000
0000
0020
0000
1030
0100
1000
0001
,
0000
0100
0001
0000
1000
0000
0010
0100
,
0000
0002
0000
1003
0100
0000
0010
0001
,
0000
0001
0010
0000
0100
0000
1001
0000
,
0110
0000
0110
0000
0010
0000
0001
1000
,
0000
1000
0010
1000
0000
0001
0000
0001
,
0020
0000
0031
0100
0000
0010
0000
1000
,
0200
0000
1300
0010
0000
0100
0000
0001
,
0020
0000
0031
0100
0000
0010
0000
1000
,
0200
0000
1300
0010
0000
0100
0000
0001
,
1000
0010
0000
0010
,
0000
0010
1000
1010
,
0100
0001
0100
0000
0010
1000
0000
0000
,
1000
0100
1000
0000
0001
0010
0000
0000
,
0001
0100
0001
0000
1000
0010
0000
0000
,
1100
0000
1001
0000
,
0011
0000
0001
0010
0001
0000
0000
0000
,
1010
0000
1000
0010
1000
0000
0001
0000
,
0101
0000
0001
0100
0001
0000
0000
0000
,
1100
0000
0110
0000
,
0020
0000
0031
1000
0001
0000
0100
0000
,
0020
1030
0200
1300
,
0002
0013
0200
0310
,
0210
0000
1300
0000
0001
0100
0001
0000
,
0001
0000
0010
0000
0100
1000
0001
1000
,
0100
0010
1001
0000
,
0002
0103
2000
3100
,
1001
0000
0012
0000
0000
0100
0103
0000
,
2020
0000
0000
3030
0000
0000
0000
0000
;

//---------------dance-double - Copied from----------------
#NOTES:
     dance-double:
     Copied from:
     Edit:
     8:
     0.622,0.692,0.448,0.129,0.000:
10000000
00000000
01000000
00000000
,
00010000
00000000
01000000
00000000
,
10000000
00100000
00010000
00100000
,
10000000
01000000
00010000
01000000
,
01000000
00010000
00001000
00010000
01000000
00100000
00001000
00100000
,
01000000
00011000
01000000
00101000
,
01000000
00010000
00001000
00010000
01000000
00100000
00001000
00100000
,
01000000
00110000
00001000
00110000
,
00100000
00000100
00001000
00010000
00100000
00000000
00001100
00000000
,
00000100
00100000
00010000
00001000
00000100
00000000
00110000
00000000
,
00100000
00010000
00000100
00001000
00000100
00010000
00100000
00001000
,
00010000
00100000
00001000
00100000
,
00010000
00001000
00000100
00000010
00010000
00000010
00000100
00001000
,
00010000
00001010
00010000
00000110
,
00010000
00001000
00000100
00000010
00010000
00000010
00000100
00001000
,
00010000
00000110
00010000
00001010
,
00000001
00000100
00001000
00000100
00000001
00000000
00000110
00000000
,
00001000
00000100
00000001
00000100
00001000
00000000
00000011
00000000
,
00001000
00000100
00000001
00000010
00001000
00000100
00000001
00000100
,
00001000
00000001
00000010
00001000
00000001
00000100
00001000
00000010
,
00010000
00001000
00000010
00001000
,
00010000
00000100
00001000
00000010
00000100
00000000
00010010
00000000
,
00000010
00001000
00010000
00001000
,
00000010
00001000
00000100
00010000
00001000
00000000
00001100
00000000
,
00000000
00000100
00000000
00000100
00000000
00000100
00000000
00000100
,
00000000
00200000
00000000
00010000
00000000
00301000
00000000
00001200
,
00000000
00100300
00000000
00100000
00000000
00100000
00000000
00100000
,
00000000
00000200
00000000
00001000
00000000
00010300
00000000
00110000
,
01000000
00010000
00001000
00010000
,
01000000
00100000
00010000
00001000
01000000
00000000
00110000
00000000
,
00001000
00100000
01000000
00100000
,
00001000
00010000
00100000
01000000
00001000
00000000
00110000
00000000
,
00000000
10000000
00000000
01000000
00000000
00100000
00000000
00010000
,
00000000
21000000
00000000
30100000
00000000
01020000
00000000
00130000
,
00000000
00010000
00000000
00100000
00000000
01000000
00000000
10000000
,
00000000
01020000
00000000
00130000
00000000
21000000
00000000
30100000
,
00100000
00000000
00100000
00000000
,
00100000
00100000
00100000
00100000
,
01001000
00001000
00001000
00001000
,
01000000
00000000
00100000
00000000
00010000
00000000
00001000
01001000
,
00000000
00000100
00000000
00001000
00000000
00010000
00000000
00100000
,
00000100
00100000
00001000
00100000
00110000
00000000
00100000
00000000
,
00000100
00010000
00100000
00010000
,
00000100
00000000
00001000
00000000
00010000
00000000
00100000
00100000
,
00000000
00010000
00000000
00001000
00000000
00000010
00000000
00001000
,
00010000
00000010
00010000
00000100
00010010
00000000
00000010
00000000
,
00000000
00000000
00020000
00000000
00000000
00030000
00010010
00000000
,
00000010
00001100
00010000
00001100
,
00000002
00001003
00000002
00001003
,
00000100
00001000
00000100
00000000
00000010
00000010
00000010
00000000
,
00000000
00000000
00000002
00000000
00000000
00000003
00001001
00000000
,
00001000
00000110
00000001
00000110
,
00020000
00031000
00000020
00001030
,
00010000
00001000
00010000
00000000
00000100
00000100
00000100
00000000
,
00000010
00000000
00001000
00000000
,
00010000
00000000
00001000
00000000
,
00000100
00001000
00100000
00001000
,
00000100
00001000
00100000
00001000
,
00000100
00010000
00100000
00010000
00000100
00001000
00100000
00001000
,
00000100
00101000
00000100
00110000
,
00001000
00010000
01000000
00001000
00100000
01000000
00001000
00010000
,
00100000
01001000
00010000
01001000
,
00001000
00100000
00010000
01000000
00001000
00000000
01100000
00000000
,
01000000
00010000
00100000
00001000
00010000
00000000
01100000
00000000
,
10000000
00100000
00010000
00100000
10000000
00010000
00100000
10000000
,
00010000
01000000
10000000
00010000
01000000
10000000
01000000
00010000
,
00100000
01000000
10000000
01000000
00100000
00010000
10000000
00100000
,
10000000
01010000
10000000
00110000
,
00001000
00100000
00010000
01000000
00001000
00010000
01000000
00010000
,
00001000
01100000
00010000
00101000
,
00001000
00010000
01000000
00010000
00100000
00000000
01001000
00000000
,
01000000
00010000
00001000
00010000
00100000
00000000
01001000
00000000
,
00000100
00001000
00100000
00001000
00000100
00010000
00100000
00010000
,
00000100
00001000
00100000
00001000
00000100
00010000
00100000
00010000
,
00000100
00000000
00000000
00000000
,
00000000
00000000
00000000
00000000
,
00000000
00000000
00000000
00000000
,
00000000
00000000
00000000
00000000
,
00000000
00000000
00000000
00000000
,
00000000
00000000
00000000
00000000
,
00000000
00000000
00000000
00000000
,
00000000
00000000
00000000
00001101
;

//---------------dance-double - ----------------
#NOTES:
     dance-double:
     :
     Hard:
     8:
     0.717,0.667,0.219,0.518,0.005:
00000000
00000000
00000000
00000000
,
00000000
00001000
00000000
00000000
,
00000000
10000000
00000000
00000000
,
00000000
00010000
00100000
10010000
,
10000000
01000000
00010000
01000000
00100000
00001000
00000000
00001000
,
00010000
00000100
00000010
00000100
00000001
00001000
00000000
00001000
,
00000010
00000100
00010000
00001000
00100000
00010000
00000000
00010000
,
01000000
10000000
01000000
00100000
10000000
00100000
01000000
00010000
,
00100000
00010000
00000000
00100000
00001000
00000000
00010000
00000100
,
00000000
00001000
00000010
00000000
00000100
00000001
00000000
00000001
,
00000010
00000000
00000010
00000100
00000000
00000100
00010000
00000000
,
00010000
00001000
00100000
00001000
00010000
01000000
10000000
01000000
,
00100000
00001000
00010000
02000000
00000000
03100000
00001000
00010000
,
00000020
00000000
00001030
00000100
00000002
00000000
00000103
00010000
,
00002000
00000000
00003010
00000100
00020000
00000000
00130000
00000000
,
20100000
00000000
31000000
00000000
00100000
00010000
00100000
01000000
,
10000000
00100000
00010000
00100000
10000000
01000000
00010000
00001000
,
00000010
00000100
00010000
00001000
02000000
00000000
00000000
00000000
,
03200000
00000000
10300000
01000000
00100000
00000000
00010000
00000000
,
10010000
00000000
02010000
00000000
00000000
00001000
03001000
00000000
,
00000100
00000001
00000010
00000001
00000100
00000010
00001000
00000100
,
00000010
00000000
00000000
00001000
00010000
00000000
01000000
00000000
,
20010000
00000000
00000000
00000000
30000000
00000000
00010000
01000000
00010000
00000000
00100000
00000000
10000000
00000000
00100000
00000000
,
00001000
00010000
00100000
01000000
00002000
00000000
00013000
00000010
,
00001000
00000100
00000010
00000001
00000000
00000100
00001000
00010000
,
00000000
00100000
00000000
01000000
00000000
00001000
00000000
00100000
,
00010000
11000000
00010000
10100000
,
10000000
01000000
00100000
00010000
00000010
00000100
00001000
00000100
,
00001002
00000000
00000000
00000000
00001003
00000200
00001000
00000000
,
00010300
01000000
10000000
00100000
00010000
00000000
00001000
00000000
,
00012000
00000000
00000000
00000000
00003010
00000200
00000010
00000000
,
00000301
00000100
00010000
00001000
00010000
00000000
00000010
00000000
,
00000001
00000100
00001000
00000200
00000000
00000001
00000000
00000310
,
00001000
00000100
00010000
00002000
00000000
00100000
00000000
00013000
,
01000000
00100000
00010000
20000000
00000000
00100000
00000000
31000000
,
00100000
00100000
00010000
00000000
10000000
10000000
00010000
00000000
,
00100000
00001000
00000010
00001000
,
00100000
00001000
00000010
00000100
,
00010000
00001000
00000200
00000000
00000301
00000010
00001000
00020000
,
00000000
00030010
00001000
00020000
00000000
01030000
00100000
10000000
,
01000000
00200000
00000000
00301000
00010000
00001000
00000100
00000001
,
00000000
00000001
00000100
00000010
00010000
00000000
00000010
00001000
,
00001000
00000000
00000200
00000000
00010300
00001000
01000000
00020000
,
00000000
00130000
01000000
20000000
00000000
30100000
01000000
00020000
,
00000000
00130000
00001000
00010000
01000000
10000000
00000000
01000000
,
10000000
01000000
00100000
00010000
00001000
00000100
00000010
00000100
,
00001001
00000000
00000020
00000000
00000031
00000100
00001000
00020000
,
00000000
00030100
00001000
00020000
00000000
00130000
01000000
10000000
,
00100000
20000000
00000000
30010000
00100000
00010000
01000000
00001000
,
00000000
00001000
00010000
00000100
00001000
00000000
00000001
00000010
,
00001001
00000000
00000200
00000000
00010300
00001000
00000010
00000200
,
00000000
00010300
00001000
02000000
00000000
03010000
00100000
20000000
,
00000000
30100000
00010000
00100000
00001000
00010000
00000010
00002000
,
00000000
00003010
00010000
00001000
00100000
00010000
00100000
00002000
,
00000000
00013000
00000010
00001000
00000010
00010000
00001000
00200000
,
00000000
00301000
00010000
00001000
00000100
00000001
00001000
00000000
,
00000001
00000100
00000010
00001000
00000100
00010000
00001000
00100000
,
00010000
01000000
00100000
10000000
01000000
00000000
10010000
00000000
,
00210000
00000000
01300000
10000000
01000000
00100000
00001000
00000000
,
00021000
00000000
00030010
00001000
00000010
00000100
00000001
00000000
,
00000021
00000000
00000130
00010000
00001000
00010000
00000100
00000000
,
00021000
00000000
00031000
00100000
00010000
01000000
00100000
00000000
,
10000000
01000000
00000000
00100000
00001000
00000000
00010000
00000010
,
00000000
00001000
00000100
00000000
00000010
00000001
00000000
00000001
,
00001000
00000000
00000100
00010000
00000000
00001000
01000000
00000000
,
00010000
00100000
01000000
10000000
00010000
00100000
01000000
10000000
,
00010000
00100000
00001000
00020000
00000000
00030010
00001000
00000010
,
00000200
00000000
00000301
00000010
00002000
00000000
00003010
00000100
,
00020000
00000000
00031000
01000000
00200000
00000000
10300000
00000000
,
02100000
00000000
03010000
00000000
10000000
01000000
00010000
01000000
,
00100000
00001000
00010000
00001000
00000100
00000010
00000100
00000001
,
00001000
00000100
00000010
00000001
00002000
00000000
00000000
00000000
,
00003200
00000000
00010300
00001000
02000000
00000000
03100000
00000000
,
10100000
00000000
01010000
00000000
00000000
00011000
00011000
00000000
,
00000220
00000000
00000000
00000330
00000000
00000000
00000000
00000000
;

//---------------dance-single - ----------------
#NOTES:
     dance-single:
     :
     Easy:
     5:
     0.511,0.518,0.329,0.697,0.000:
0000
0000
0000
0000
,
0000
0000
0000
0000
,
0000
0000
0000
0000
,
0000
0000
0000
0000
,
2000
3001
0010
0010
,
0002
1003
0010
0010
,
2000
3100
0001
0001
,
0200
1300
0200
0310
,
0002
0103
1000
0100
,
0002
0013
1000
0010
,
0002
0103
0010
1000
,
0200
1300
0002
1003
,
0020
2000
3030
1000
,
0100
0010
0011
0001
,
0200
0310
0200
0310
,
2002
0003
3010
0100
,
0001
0010
0100
1000
,
0100
0010
1002
0000
,
0203
0310
0200
0310
,
1000
0000
2000
0000
0000
0001
3002
0000
,
0013
0100
1000
0100
,
0021
0000
0031
0100
,
2010
0000
3100
0010
,
0001
2000
0020
3030
,
1000
0100
0110
0010
,
0001
0100
0110
0010
,
1000
0101
0001
1010
,
0001
0010
0200
2300
,
3020
0000
0000
0000
0000
0130
0000
0000
,
2002
0000
3003
0000
,
0002
0000
0000
0000
0000
1003
0000
0000
,
0220
0000
0330
0000
,
1000
0100
0010
0001
,
1000
0100
0010
0001
,
0001
0010
0100
1000
,
1020
0100
0000
0230
,
0001
0000
1000
0000
,
0001
1000
0001
1000
,
0301
0011
0010
0200
,
1000
0320
0001
0230
,
1300
0010
0100
0001
,
0010
0100
1001
1001
,
0001
0200
0310
2000
,
0100
3002
0010
1003
,
0010
0100
0001
0100
,
0020
2030
3200
0320
,
0031
0011
0001
2000
,
0010
3002
0100
2003
,
3010
0100
0001
0010
,
0100
1000
1001
1001
,
0001
0200
0310
2000
,
0100
3002
0100
1003
,
0120
0100
0100
0130
,
2001
0001
0001
3001
,
0210
0010
0010
0310
,
1002
1000
1000
1003
,
0100
0011
0000
0001
,
0000
1000
0010
1010
,
0102
1003
0100
0100
,
2000
3001
0100
0100
,
0002
1003
0100
0100
,
0011
0001
0101
0000
,
1000
0010
1000
1000
,
0001
0010
0001
0001
,
0100
0010
1000
0100
,
0011
0100
1001
1000
,
0010
0200
0001
0310
,
2000
3100
0002
0103
,
0020
0031
2000
3010
,
0201
0000
0320
0000
,
1030
0100
0001
0100
,
0010
0001
2001
0000
,
3002
0010
2003
3010
,
0101
0000
2010
0000
0000
0001
3001
0000
,
0020
0000
0000
0030
0000
0000
0000
0000
;

//---------------dance-single - ----------------
#NOTES:
     dance-single:
     :
     Beginner:
     1:
     0.161,0.221,0.040,0.020,0.000:
0000
0000
0000
0000
,
0000
0000
0000
0000
,
0000
0000
0000
0000
,
0000
0000
0000
0000
,
1000
0000
0000
0000
,
0100
0000
0000
0000
,
0010
0000
0000
0000
,
0100
0000
1000
0000
,
0001
0000
0000
0000
,
0100
0000
0000
0000
,
0010
0000
0000
0000
,
0100
0000
0001
0000
,
0010
0000
0010
0000
,
0001
0000
0001
0000
,
1000
0000
1000
0000
,
0010
0000
0000
0000
,
0100
0000
0100
0000
,
0100
0000
0000
0000
,
0001
0000
1000
0000
,
1001
0000
0000
0000
,
0001
0000
0010
0000
,
0001
0000
0001
0000
,
1000
0000
0010
0000
,
1000
0000
0000
0000
,
0001
0000
0000
0000
,
0100
0000
0000
0000
,
0010
0000
0010
0000
,
1000
0000
0100
0000
,
0010
0000
0000
0000
,
0200
0000
0000
0000
,
1300
0000
0000
0000
,
0002
0000
0000
0000
,
1003
0000
0000
0000
,
1000
0000
0000
0000
,
0010
0000
0010
0000
,
0100
0000
0000
0000
,
0001
0000
0001
0000
,
1000
0000
1000
0000
,
0010
0000
0010
0000
,
1000
0000
0100
0000
,
1000
0000
0001
0000
,
0010
0000
0000
0000
,
0001
0000
0001
0000
,
0100
0000
0010
0000
,
1000
0000
1000
0000
,
0001
0000
0000
0000
,
0010
0000
0100
0000
,
0010
0000
0000
0000
,
0001
0000
1000
0000
,
0001
0000
0100
0000
,
0010
0000
0010
0000
,
1000
0000
0000
0000
,
0001
0000
0001
0000
,
0010
0000
0010
0000
,
0001
0000
0001
0000
,
1000
0000
1000
0000
,
0010
0000
0000
0000
,
0000
0000
0000
1000
,
1001
0000
0000
0000
,
0001
0000
0000
0000
,
1000
0000
0000
0000
,
0010
0000
1000
0000
,
0100
0000
0000
0000
,
0010
0000
0000
0000
,
0100
0000
0000
0000
,
1000
0000
0001
0000
,
0100
0000
0100
0000
,
0010
0000
0010
0000
,
1000
0000
0001
0000
,
1000
0000
0000
0000
,
0100
0000
0010
0000
,
0100
0000
0000
0000
,
1000
0000
0001
0000
,
1001
0000
0000
0000
,
1001
0000
0000
0000
;

//---------------dance-double - ----------------
#NOTES:
     dance-double:
     :
     Easy:
     5:
     0.415,0.479,0.139,0.309,0.000:
00000000
00000000
00000000
00000000
,
00000000
00000000
00000000
00000000
,
00000000
00000000
00000000
00000000
,
00000000
00000000
00000000
00000000
,
10000000
01000000
00010000
00000000
,
00001000
00000100
00000001
00000000
,
00000010
00000100
00010000
00000100
,
00002000
00000000
00003020
00000000
,
00001030
00000100
00000001
00000001
,
00000100
00010000
00001000
00001000
,
01000000
00010000
00100000
00100000
,
00020000
00000000
02030000
00000000
,
03100000
10000000
01000000
01000000
,
10000000
00010000
00100000
00001000
,
00010000
00001000
00010000
00001000
,
00000100
00000001
00000020
00000000
,
00000130
00001000
00000100
00000010
,
00000001
00001000
00000200
00000000
,
00010300
00000000
00001000
00000000
,
00100000
00200000
00000000
00310000
,
10000000
00100000
00010000
00100000
,
10000000
00000000
01000000
00100000
,
00001000
00000000
00010000
00000100
,
00001000
00000100
00000010
00000001
,
00000100
00000010
00001000
00000010
,
00000100
00001000
00010000
01000000
,
10000000
00000000
00010000
00000000
,
00100000
00001000
00010000
00000100
,
00000210
00000000
00000000
00000000
00000000
00010300
00000000
00000000
,
00022000
00003000
00030000
00000000
,
01200000
00000000
00000000
00000000
00000000
00301000
00000000
00000000
,
00022000
00030000
00003000
00000000
,
00001000
00000100
00000001
00000010
,
00001000
00000010
00000001
00000100
,
00001000
00010000
00100000
10000000
,
01000000
00100000
00000000
00100000
,
00001000
00010000
00001000
00010000
,
00000010
00001000
00000010
00000100
,
00000001
00000020
00000001
00000230
,
00001000
00020300
00001000
00030200
,
00010300
00001000
00100000
00010000
,
01000000
00100000
10000000
00010000
,
10000000
00020000
00130000
00002000
,
00013000
00000200
00001300
00000100
,
00000010
00000001
00000100
00000001
,
00000010
00001000
00010000
01000000
,
10000000
10010000
00000000
01010000
,
00010000
10000000
01000000
00100000
,
00001000
00010000
00000100
00001000
,
00000010
00000100
00000001
00001000
,
00001001
00000000
00000010
00000000
,
00000100
00001000
00000100
00000010
,
00000002
00001003
00000100
00010000
,
00002000
00013000
00000100
00001000
,
00000002
00001003
00000100
00010000
,
00002000
00103000
00010000
01000000
,
00100000
10010000
00000000
00010000
,
00000000
10000000
01000000
00110000
,
01100000
00100000
00001000
00010000
,
00000010
00010000
00001000
00010000
,
00000100
00001000
00000010
00000100
,
00000001
00000100
00001000
00000100
,
00000010
00010000
00001000
00010000
,
00000100
00010000
00001000
00100000
,
01000000
00100000
00001000
00010000
,
01000000
10000000
00100000
10000000
,
01000000
00200000
00010000
00301000
,
00020000
00000100
00032000
00100000
,
00023000
00000100
00032000
00003010
,
00000210
00000000
00001300
00000001
,
00000100
00000010
00001000
00000100
,
00010000
00001000
00200000
00000000
,
00301000
00010000
00000100
00010000
,
00011000
00011000
00000000
00001000
,
00110000
00000000
00000000
00000000
;

//---------------dance-double - ----------------
#NOTES:
     dance-double:
     :
     Medium:
     6:
     0.528,0.593,0.209,0.359,0.000:
00000000
00000000
00000000
00000000
,
00000000
00000000
00000000
00000000
,
00000000
00000000
00000000
00000000
,
00000000
00000000
00001000
00110000
,
11000000
00000000
10000000
00000000
00010000
00100000
00010000
00000000
,
01000000
00000000
00001000
00000000
00010000
00000100
00010000
00000000
,
00000010
00000000
00001000
00000000
00000001
00000010
00000001
00000000
,
00000200
00000310
00020000
00031000
,
00100000
00010000
00000000
00010000
00100000
00000000
01000000
00000000
,
10000000
00100000
00000000
00100000
10000000
00000000
01000000
00000000
,
00100000
00001000
00000000
00001000
00010000
00000000
00000010
00001000
,
00000000
00001000
00000010
00000000
00000100
00000000
00000001
00000000
,
00000010
00000100
00000000
00001000
00000000
00000100
00000000
00010000
,
00002000
00103000
00020000
00130000
,
00002000
01003000
00200000
10300000
,
21000000
30010000
00100000
00001000
,
00010000
00001000
00010000
00000000
00000100
00001000
00000100
00000000
,
00000010
00000100
00000010
00000000
00000002
00000000
00000000
00000000
,
00002003
00000000
00003200
00000000
,
00010300
00000000
00002000
00000000
00000000
00010000
00013000
00000000
,
01000000
10000000
00100000
10000000
,
01000000
00000000
00010000
00001000
00010000
00000000
01000000
00000000
,
00100000
00000000
00001000
00010000
00001000
00000000
00000010
00000000
,
00000100
00001000
00001001
00000000
,
00000001
00000000
00000100
00000000
00000010
00000000
00001000
00000100
,
00000000
00000010
00000000
00000100
00000000
00010000
00000000
00001000
,
00010000
00000010
00010000
00000100
,
00010000
00000000
00001000
00000000
01000000
00010000
01000000
00000000
,
00200000
00000000
10000000
00000000
01300000
00020000
00000000
00000000
,
00230000
00000000
00301000
00010000
,
00000100
00000000
00001000
00000000
00000001
00000200
00000000
00000000
,
00000320
00000000
00010030
00000100
,
00001000
00000000
00000010
00000100
00000000
00000100
00000010
00000000
,
00010000
00000000
00000100
00001000
00000000
00001000
00000100
00000000
,
00010000
00000000
00001000
00100000
00000000
00010000
00000000
00100000
,
01000000
01000000
00100000
00000000
00010000
00000000
10000000
00000000
,
00010000
01000000
00001000
01000000
,
00010000
00100000
00001000
00010000
,
00000100
00000000
00000020
00000000
00000130
00001000
00000000
00001000
,
00000010
00000000
00000010
00000000
00001000
00000100
00000000
00000100
,
00001000
00000100
00010000
00001000
,
01000000
00010000
00100000
11000000
,
20000000
00000000
30100000
00000000
01000000
00010000
00000000
00010000
,
01000000
00000000
00010000
00000000
00100000
00000000
00001000
00010000
,
00001000
00000100
00000001
00000010
,
00000100
00001001
00000011
00001100
,
00002000
00000000
00003010
00000000
00010000
00001000
00000000
00001000
,
00010000
00000000
00000100
00000000
00000010
00000001
00000000
00000001
,
00000010
00000100
00010000
00001000
,
01000000
00010000
00110000
11000000
,
20000000
00000000
30020000
00000000
00130000
00000000
00001000
00010000
,
00000000
00010000
00001000
00000000
00000100
00000000
00000001
00000000
,
00000010
00000001
00000100
00001000
,
00010000
00001000
00000100
00000010
,
00001000
00001000
01000000
10000000
,
00100000
10000000
01000000
00100000
,
00001000
00011000
00000000
00010100
,
00000000
00011000
01001000
01010000
,
00210000
00000000
01300000
00000000
10000000
00010000
10000000
00000000
,
02010000
00000000
03001000
00000000
00010000
00001000
00010000
00000000
,
00010200
00000000
00001300
00000000
00000010
00000100
00000010
00000000
,
00002000
00003100
00000002
00000103
,
00000010
00000001
00000000
00000001
00000010
00000000
00000100
00000000
,
00001000
00000010
00000000
00000010
00001000
00000000
00000100
00000000
,
00010000
00001000
00000000
00001000
00010000
00000000
01000000
00000000
,
10000000
00100000
10000000
00000000
00010000
00100000
00010000
00000000
,
01000000
00000000
00100000
10000000
00000000
10000000
00100000
00000000
,
02000000
03001000
00020000
00030100
,
00002000
00003010
00000200
00000310
,
00002000
00000000
00003100
00000000
00000010
00000001
00000010
00000000
,
00000100
00001000
00000100
00000000
00010000
00000000
00001000
00000000
,
01000000
00010000
01000000
00100000
02000000
00000000
00000000
00000000
,
03010000
00000000
10000000
01000000
20000000
00000000
30100000
00000000
,
01010000
00000000
01020000
00000000
00000000
00100000
00130000
00000000
,
00022000
00000000
00000000
00033000
00000000
00000000
00000000
00000000
;
