#TITLE:Scatman (Ski-Ba-Bop-Ba-Dop-Bop);
#SUBTITLE:;
#ARTIST:Scatman John;
#TITLETRANSLIT:;
#SUBTITLETRANSLIT:;
#ARTISTTRANSLIT:;
#GENRE:;
#CREDIT:PsyHunter29;
#MUSIC:Scatman (Ski-Ba-Bop-Ba-Dop-Bop).ogg;
#BANNER:Scatman (Ski-Ba-Bop-Ba-Dop-Bop).png;
#BACKGROUND:Scatman (Ski-Ba-Bop-Ba-Dop-Bop)-bg.png;
#CDTITLE:;
#SAMPLESTART:21.176;
#SAMPLELENGTH:15.000;
#SELECTABLE:YES;
#OFFSET:0.000;
#BPMS:0.000=136.000
,128.000=136.350
,144.000=136.000
;
#STOPS:;
#DISPLAYBPM:136.000;
#JACKET:Scatman (Ski-Ba-Bop-Ba-Dop-Bop)-jacket.png;
#BGCHANGES:;
#FGCHANGES:;

//--------------- dance-single - PsyHunter29 ----------------
#NOTES:
     dance-single:
     PsyHunter29:
     Beginner:
     2:
     0,0,0,0,0:
0000
0000
0000
0000
,
0000
0000
0000
0000
,
0000
0000
0000
0000
,
0000
0000
0000
0000
,
1000
0000
0000
0000
,
0100
0000
0000
0000
,
0001
0000
0000
0000
,
0100
0000
0000
0000
,
0001
0000
0000
0000
,
0010
0000
0000
0000
,
1000
0000
0000
0000
,
0010
0000
0000
0000
,
0001
0001
0001
0000
,
0000
0000
0001
0000
,
1000
1000
1000
0000
,
0000
0000
1000
0000
,
0001
0001
0001
0000
,
0000
0000
0010
0000
,
1000
1000
1000
0000
,
0010
0000
0000
0000
,
0200
0000
0300
0000
,
0002
0000
0003
0000
,
2000
0000
3000
0000
,
0200
0000
0300
0000
,
0010
0000
0100
0000
,
1000
0000
0100
0000
,
0010
0000
0100
0000
,
0001
0000
0010
0010
,
0010
0000
0001
0000
,
0010
0000
1000
0000
,
0100
0000
0001
0000
,
0100
0000
1000
0000
,
0100
0200
0300
0000
,
0000
0000
0000
0000
,
0010
0020
0030
0000
,
0100
0200
0300
0000
,
0100
0000
0001
0000
,
0010
0000
0001
0000
,
0100
0000
1000
0000
,
0010
0000
1000
1000
,
1000
0000
0001
0000
,
0010
0000
0100
0000
,
0010
0000
0001
0000
,
1000
0000
0100
0000
,
1000
2000
3000
0000
,
0010
0010
0010
0000
,
0000
0000
0010
0000
,
0100
0100
0100
0000
,
0000
0000
0100
0000
,
0010
0010
0010
0000
,
0000
0000
1000
0000
,
0100
0100
0100
0000
,
0000
0000
0001
0000
,
0001
0001
0001
0000
,
1000
0000
0001
0000
,
1000
1000
1000
0000
,
0001
0000
1000
0000
,
0100
0100
0100
0000
,
0010
0000
0001
0000
,
0100
0100
0100
0000
,
0010
0000
1000
0000
,
0100
0000
0000
0000
;

//--------------- dance-single - PsyHunter29 ----------------
#NOTES:
     dance-single:
     PsyHunter29:
     Easy:
     6:
     0,0,0,0,0:
0000
0000
0000
0000
,
0000
0000
0000
0000
,
0000
0000
0000
0000
,
0000
0000
0000
0000
,
1000
0100
1000
1000
,
0100
0000
1000
0000
,
0001
0010
0001
0001
,
0100
0000
0010
0000
,
0100
0001
1000
1000
,
0100
0000
0010
0000
,
0001
0010
0100
0100
,
1000
0000
0001
1000
,
1002
1003
0100
1000
,
0001
1000
0010
0100
,
0002
0013
0001
0100
,
0001
0000
1000
0000
0010
0000
1000
0001
,
2000
3010
0100
0010
,
1000
0100
0010
0100
,
2000
3010
0100
0001
,
1000
0100
0010
0001
,
0200
0000
0000
0301
,
0002
0000
0000
1003
,
2000
0000
0000
3100
,
0200
0000
0000
0300
,
0010
0100
1000
0001
,
1000
0010
0200
0300
,
0001
0100
1000
0100
,
0001
0000
1000
0000
0001
1000
0100
0000
,
0010
0100
1000
0100
,
0010
0001
2000
3000
,
0010
0100
0001
1000
,
1010
0001
0101
1000
,
1100
2200
0000
0000
,
0000
0000
3300
0100
,
0011
0022
0033
0010
,
1001
2002
0000
3003
,
0100
0001
0010
0100
,
0010
0001
0100
0010
,
1000
0001
1000
0010
,
0100
0000
0001
0000
1000
0001
1000
0000
,
0010
0100
0001
1000
,
0010
1000
0200
0310
,
0001
0100
0010
1000
,
0001
0010
0100
1000
,
1001
2002
0000
3003
,
0120
1030
0100
0010
,
1001
0100
0010
1000
,
0002
0013
0100
1000
,
0001
0000
1000
0000
0010
0000
1000
1000
,
0002
0013
0100
1100
,
1000
0010
0001
0101
,
0100
0001
0010
1000
,
1100
1010
0101
0011
,
0001
0100
0010
0100
,
0002
0000
0003
0000
1000
0001
1000
0000
,
0010
0100
0001
0100
,
2000
0000
3000
0000
0001
0100
0001
0000
,
0010
1000
0001
0010
,
0200
0000
0300
0000
0010
0001
0100
0000
,
0001
0100
1000
0100
,
0020
0001
0001
0031
,
0200
0000
0000
0000
,
0300
0000
0000
0000
;

//--------------- dance-single - PsyHunter29 ----------------
#NOTES:
     dance-single:
     PsyHunter29:
     Medium:
     9:
     0,0,0,0,0:
0000
0000
0000
0000
,
0000
0000
0000
0000
,
0000
0000
0000
0000
,
0000
0000
0000
0000
,
1000
0001
1000
0000
0100
0000
0010
0000
,
0001
0000
0100
0000
0001
1000
0001
0000
,
0010
0100
0010
0000
1000
0000
0100
0000
,
0010
0000
0001
0000
0100
0010
0100
0000
,
0010
1000
0010
0000
1000
0000
0100
0000
,
1000
0000
0010
0000
0100
0001
0100
0000
,
0001
0010
0001
0000
0100
0000
0010
0000
,
1000
0000
0001
0000
1000
0100
1000
0000
,
2001
0000
3100
0000
0010
0001
0010
0000
,
0100
0000
0100
0000
0001
0100
1000
0000
,
0020
0000
0130
0000
0001
0010
0001
0000
,
0100
0000
0010
0000
0001
0000
1000
1000
,
2000
0000
3010
0000
0100
0001
1000
0000
,
0100
0000
0010
0000
0100
1000
0001
0000
,
0200
0000
0310
0000
0010
1000
0100
0000
,
1100
0011
1100
0011
,
0000
1000
0000
0000
0100
0000
0010
0000
0001
0000
0000
0000
0100
0000
0010
0000
,
1000
0000
0000
0100
0000
0000
0001
0000
0000
0100
0000
0000
1000
0000
0000
0000
,
0001
0000
0000
0010
0000
0000
1000
0000
0000
0010
0000
0000
0001
0000
0000
0000
,
0100
0110
1001
0110
,
0010
0100
1000
0000
0010
0100
0001
0000
,
0100
0000
0001
1000
0200
0000
0300
0000
,
1000
0100
0010
0000
0100
0010
0001
0000
,
1100
0000
0101
0000
0100
0100
0100
0000
,
0010
1000
0100
0000
0010
0001
0100
0000
,
0010
0000
0100
0001
2000
0000
3000
0000
,
0100
1000
0010
0000
0100
0001
0010
0000
,
0011
0000
1100
0000
0010
0001
1000
0000
,
2100
0200
0300
0002
,
3000
0200
0300
2003
,
0010
0020
3000
0230
,
0001
0302
0000
1003
,
0010
0100
1000
0000
0100
0001
0010
0000
,
0100
0000
0010
0000
0001
1000
0100
0000
,
0001
0100
0001
0000
0100
1000
0100
0000
,
1000
0000
0001
0000
1001
1001
1001
0000
,
0010
1000
0100
0000
0001
0100
0010
0000
,
0001
1000
0200
0300
,
1000
0010
0100
0000
1000
0100
0001
0000
,
0101
1010
1100
0011
,
2000
0000
0000
0002
0000
0000
0000
0000
3003
0000
0000
0000
0010
0000
0100
0000
,
0110
0000
1001
0000
0100
0001
1000
0000
,
0100
0000
0010
0000
0100
1000
0001
0000
,
0020
0000
0031
0000
1000
0100
0001
0000
,
0100
0000
0010
0000
0001
0000
1000
1000
,
2000
0000
3010
0000
0100
0001
1000
0000
,
0100
0000
0010
0000
0001
0100
0010
0000
,
2000
0000
3001
0000
1000
0100
0010
0000
,
1100
0110
0011
0110
,
1000
0100
1000
0001
1000
0100
1000
0000
,
0200
0000
0310
0000
0001
1000
0001
0000
,
0010
0100
1000
0100
0010
0100
1000
0000
,
0020
0000
0130
0000
1000
0100
0001
0000
,
0100
0001
0010
0001
0100
0001
1000
0000
,
0200
0000
1300
0000
0010
1000
0100
0000
,
0010
0100
1000
0010
0100
0001
1000
0000
,
0100
0010
1001
0100
,
2002
0000
0000
0000
,
3003
0000
0000
0000
;

//--------------- dance-single - PsyHunter29 ----------------
#NOTES:
     dance-single:
     PsyHunter29:
     Hard:
     13:
     0,0,0,0,0:
0000
0000
0000
0000
,
0000
0000
0000
0000
,
0000
0000
0000
0000
,
0000
0000
1000
0001
0110
0000
1001
0000
,
0001
0010
0001
0010
0001
0000
1000
0000
0001
0100
0000
0001
0000
0000
1000
0000
,
0100
0000
0000
0000
0100
0000
0010
0000
0001
1000
0000
0001
0000
0000
0000
0000
,
0100
0010
0100
0010
0100
0000
0001
0000
0010
0001
0000
0100
0000
0000
0010
0000
,
1000
0000
0000
0000
0100
0000
1000
0000
0010
0100
0000
0001
0000
0000
0000
0000
,
1000
0100
0010
0100
1000
0000
0001
0000
0010
0100
0000
1000
0000
0000
0001
0000
,
0100
0000
0000
0000
0010
0000
1000
0010
0000
0100
0000
0001
0000
0000
1000
0000
,
0001
0100
0010
0100
0001
0000
1000
0000
0100
0010
0000
0001
0000
0000
1000
0000
,
0100
1000
0001
0010
0100
1000
0001
1000
,
0020
0000
0000
0000
1030
0000
0001
0000
0010
0100
0000
0010
0000
0000
0001
0000
,
0100
0000
0000
0000
0010
0000
1000
0000
0100
0010
0000
0001
0000
0000
1000
0000
,
0020
0000
0000
0000
0130
0000
0001
0000
1000
0100
0000
0010
0000
0000
0100
0000
,
1000
0000
0000
0000
0001
0000
0010
0000
0001
1000
0000
0000
0010
0100
0010
0100
,
0020
0000
0000
0000
1030
0000
0100
0000
0010
0001
0000
1000
0000
0000
0010
0000
,
0100
0000
0000
0000
0100
0000
0010
0000
1000
0001
0000
0100
0000
0000
0010
0000
,
2000
0000
0000
0000
3100
0000
0010
0000
0001
1000
0000
0010
0000
0000
0100
0000
,
0101
0011
1100
1010
,
0000
0010
0000
0001
1000
0000
0010
0100
0000
0001
1000
0000
0001
0010
0100
1000
,
0100
0000
1000
0100
1000
0000
0001
0010
0001
0000
0100
0010
0100
0000
0010
1000
,
0010
0000
0100
0001
0100
0000
0001
1000
0001
0000
0100
0000
0100
0001
1000
0100
,
0000
0110
1001
0110
,
0010
0100
0010
0000
0100
0000
0001
0000
1000
0000
0010
0100
0000
0000
0010
0100
,
0000
0000
0001
0000
0010
0000
0001
1000
0000
0000
0100
0000
0100
0000
0001
0000
,
0010
0001
0100
0000
0001
0000
1000
0000
0100
1000
0010
0000
0100
0000
0001
0000
,
1000
0000
0100
0000
0010
0001
0000
0000
1000
0000
0001
0000
0200
0000
0000
0000
,
0301
0100
0010
0000
1000
0000
0001
0010
0100
0000
0100
0000
1000
0000
1000
0100
,
0000
0001
0100
0000
0010
0000
1000
0001
0200
0000
0000
0000
0310
0000
0000
0010
,
1000
0000
0001
0000
0100
0000
0010
1000
0010
0000
0100
0000
0001
0000
0010
0001
,
0010
0000
0100
0000
1000
0000
0001
0100
0010
0000
1000
0000
0001
0000
0100
0000
,
1002
0000
0000
0100
0000
0000
1000
0000
0000
0100
0000
0000
0013
0000
0010
0000
,
2001
0000
0000
0010
0000
0000
0100
0000
0000
0010
0000
0000
3001
0000
0001
0000
,
0210
0000
0000
0001
0000
0000
1000
0000
0000
0001
0000
0000
0310
0000
0010
0000
,
0120
0000
0000
0001
0000
0000
1000
0000
0000
0100
0000
0000
1030
0000
1000
0000
,
0010
0000
0100
0000
1000
0100
0000
0010
0000
1000
0000
0100
0000
0010
0001
0000
,
0100
0000
0001
0000
1000
0100
0000
1000
0000
0001
0000
0010
0000
0100
1000
0000
,
0001
0000
0100
0000
1000
0100
0000
0010
0000
0100
0000
0001
0000
1000
0100
0000
,
1000
0001
0100
0010
1010
0100
0101
0000
,
0001
0010
0001
0000
0100
0000
0001
0010
0000
0100
0000
1000
0000
0001
0100
0000
,
1000
0000
0100
0000
0010
1000
0000
0010
0000
0100
0000
0001
0000
1000
0100
0000
,
1000
0100
1000
0000
0001
0100
0000
0001
0000
1000
0000
0001
0000
0010
0100
0000
,
0010
0000
1000
0000
0001
0100
0000
0001
0000
1000
0000
0100
0000
0010
0001
0000
,
0011
0000
0000
0202
0000
0000
0000
0000
0303
0000
0000
0001
1000
0001
1000
0000
,
0210
0000
0000
0000
0301
0000
1000
0000
0001
0100
0000
0010
0000
0000
1000
0000
,
0001
0000
0000
0000
1000
0000
0100
0000
1000
0010
0000
1000
0000
0000
0001
0000
,
0020
0000
0000
0000
0130
0000
1000
0000
0001
1000
0000
0010
0000
0000
0100
0000
,
0001
0000
0000
0000
1000
0000
0001
0000
0010
0100
0000
0000
1000
0001
1000
0001
,
2000
0000
0000
0000
3010
0000
0100
0000
0010
1000
0000
0001
0000
0000
0010
0000
,
0100
0000
0000
0000
1000
0000
0010
0000
0100
0010
0000
1000
0000
0000
0100
0000
,
0002
0000
0000
0000
0103
0000
0010
0000
0001
0100
0000
0010
0000
0000
1000
0000
,
0001
0100
1000
0100
0001
0010
1000
0010
,
0001
0100
0001
0100
0001
0000
0010
0000
0100
1000
0000
0001
0000
0000
1000
0000
,
0001
0000
0000
0000
0100
0000
0010
0000
0100
1000
0000
0001
0000
0000
0000
0000
,
0001
0100
1000
0100
0001
0000
1000
0000
0001
0100
0000
0001
0000
0000
0010
0000
,
0100
0000
0000
0000
1000
0000
0001
0000
1000
0100
0000
1000
0000
0000
0000
0000
,
0001
0010
0100
1000
0001
0000
0010
0000
0100
0010
0000
0001
0000
0000
1000
0000
,
0001
0000
0000
0000
0001
0000
0100
0000
0001
1000
0000
0100
0000
0000
0100
0000
,
0010
0100
1000
0010
0100
0000
0001
0000
1000
0100
0000
1000
0000
0000
0001
0000
,
0100
0010
1000
0001
0100
0010
1000
0001
,
2002
0000
0000
0000
,
3003
0000
0000
0000
;

//--------------- dance-single - PsyHunter29 ----------------
#NOTES:
     dance-single:
     PsyHunter29:
     Challenge:
     17:
     0,0,0,0,0:
0000
0000
0000
0000
,
0000
0000
0000
0000
,
0000
0000
0000
0000
,
0000
0000
2000
3001
0220
0330
2002
3003
,
0001
0010
0001
0010
0001
0000
1000
0000
0001
0100
0000
0010
0000
0100
0001
0000
,
1000
0000
0010
0000
0100
0000
0010
0000
1000
0100
0000
0010
0000
0001
1000
0000
,
0010
0100
0010
0100
0010
0000
0100
0000
0010
1000
0000
0001
0000
0010
0100
0000
,
1000
0000
0100
0000
0010
0000
0100
0000
0010
0001
0000
0100
0000
0010
0100
0000
,
0001
0100
0010
0100
0001
0000
1000
0000
0010
0100
0000
0001
0000
0100
1000
0000
,
0100
0000
0010
0000
1000
0000
0001
0000
0010
0100
0000
1000
0000
0001
0100
0000
,
1000
0100
0010
0100
1000
0000
0100
0000
0010
1000
0000
0100
0000
0010
0001
0000
,
1000
0100
1000
0100
0010
0100
0010
0100
0010
0001
0010
0001
1000
0001
1000
0001
,
0210
0000
0000
0000
0310
0000
1000
0000
0010
0100
0000
0010
0000
1000
0100
0000
,
1001
0000
0100
0000
0010
0000
1000
0000
0100
0010
0000
0001
0000
0100
0001
0000
,
0021
0000
0000
0000
0130
0000
1000
0000
0010
0100
0000
0001
0000
0100
1000
0000
,
0100
0000
0001
0000
1000
0000
0010
0000
1000
0001
0000
0010
0100
0010
0100
0010
,
1002
0000
0000
0000
0013
0000
0100
0000
0010
0001
0000
0100
0000
0010
0100
0000
,
0001
0000
1000
0000
0100
0000
0010
0000
0001
0100
0000
1000
0000
0100
0001
0000
,
2010
0000
0000
0000
3100
0000
0010
0000
0001
1000
0000
0001
0000
0010
0100
0000
,
1100
1000
1010
0010
0110
0100
0101
0001
,
0000
0000
0000
1000
0000
0000
0000
0000
0000
0001
0000
0000
0010
0000
0000
0100
0000
0000
1000
0000
0000
0001
0000
0000
1000
0000
0100
0000
0010
0000
0001
0000
0000
0000
0000
0000
1000
0000
0000
0010
0000
0000
0100
0000
0000
0001
0000
0000
,
0100
0000
0000
0000
0000
0000
0001
0000
0100
0000
0001
0000
0010
0000
0000
0100
0000
0000
1000
0000
0010
0000
1000
0000
0001
0000
0000
0010
0000
0000
0100
0000
0010
0000
0001
0000
1000
0000
0000
0010
0000
0000
1000
0000
0010
0000
0100
0000
,
0001
0000
0000
0100
0000
0000
0001
0000
1000
0000
0100
0000
0010
0000
0000
0001
0000
0000
1000
0000
0001
0000
0100
0000
0010
0000
0000
0000
0000
0000
0100
0000
0000
0000
0000
0000
0100
0000
0000
0001
0000
0000
1000
0000
0000
0200
0000
0000
,
0000
0300
0220
0330
2002
3003
0220
0330
,
0010
0100
0001
1000
0100
0010
0002
0000
1003
0010
0100
0002
0000
0013
0100
2000
,
0000
0001
0000
3100
0010
0001
1000
0020
0000
0000
0100
0000
0130
0000
0010
1000
,
0010
0100
0001
0020
0000
0130
1000
0001
0100
0001
1000
0100
2000
0000
3100
1000
,
0010
0000
0100
0010
1000
0001
0000
0000
1001
0000
0110
0000
2002
0000
3003
0000
,
0001
0100
0010
1000
0001
0010
0100
0010
0002
0000
1003
0000
0001
0100
1000
0200
,
0000
0301
1000
0100
0010
0001
1000
0010
0200
0000
0000
0000
0310
0000
0000
0010
,
1000
0001
0020
0000
0130
1000
0100
0010
0001
0010
0200
0000
1300
0000
0001
0100
,
0010
0100
0001
0100
0020
0000
1030
0001
0010
0000
0010
0200
0000
1300
0000
0001
,
1000
0100
0000
1000
0001
0000
1000
0100
0000
1000
0010
0000
0100
0010
0000
0010
,
1000
0001
0000
0010
0001
0000
0100
0010
0000
0100
0001
0000
0001
1000
0000
0001
,
0100
0010
0000
0100
0001
0000
0100
1000
0000
0100
0010
0000
0010
1000
0000
1000
,
0010
0001
0000
0001
0010
0000
0010
1000
0000
1000
0100
0000
0100
0010
0000
0001
,
0010
0100
0001
0100
1000
0100
0010
0100
1000
0001
0100
0010
0100
0001
1000
0010
,
0001
0010
1000
0001
0100
1000
0100
0001
0000
1000
0000
0100
0000
1000
0001
0000
,
0001
0100
1000
0001
0010
1000
0010
0002
0000
1003
0100
0001
0010
1000
0010
0100
,
1000
0001
0100
0010
1000
0001
1000
0100
1100
0000
0011
0000
2200
0000
3300
0000
,
0001
0010
0001
0100
1000
0100
0001
0020
0000
0130
1000
0020
0000
0130
0001
2000
,
0000
3200
0000
0310
0001
1000
0010
0200
0000
0001
0000
0310
0000
0000
0001
1000
,
0001
0100
0001
0020
0000
0130
0001
0000
0100
1000
0001
0010
0200
0000
1300
0010
,
0100
0000
0000
0000
0001
0000
0000
0000
0010
0000
0000
0000
1000
0000
0000
0001
0000
0000
0100
0000
0000
1000
0000
0000
0010
0000
0000
0000
0000
0000
0100
0000
0000
0000
0000
0000
0010
0000
0000
0000
1000
0000
0000
0000
0001
0000
0000
0000
,
0101
0000
0000
2200
0000
0000
0000
0000
3300
0000
0000
0001
1000
0001
1000
0001
,
0210
0000
0301
0000
0210
0000
1300
0000
0001
0100
0000
0010
0000
0100
0001
0000
,
1000
0000
0100
0000
0011
0000
0100
0000
1000
0010
0000
0001
0000
0010
1000
0000
,
2010
0000
3100
0000
0012
0000
0103
0000
0001
1000
0000
0010
0000
0100
0001
0000
,
0100
0000
0010
0000
1001
0000
0010
0000
0100
0001
0000
0001
0100
1000
0100
0001
,
0120
0000
0031
0000
1002
0000
0103
0000
0010
1000
0000
0001
0000
0010
1000
0000
,
0010
0000
0100
0000
1001
0000
0010
0000
0100
0001
0000
1000
0000
0100
0010
0000
,
0012
0000
1003
0000
2100
0000
3001
0000
0100
0001
0000
1000
0000
0100
0010
0000
,
0001
0100
0001
0100
1000
0100
1000
0100
0001
1000
0001
1000
0100
0010
0100
0010
,
0001
0100
0010
0100
0001
0000
1100
0000
0010
0001
0000
0100
0000
0010
0100
0000
,
0001
0000
1000
0000
0100
0010
0100
1000
0000
0001
0000
0110
0000
1000
0100
0000
,
0010
0100
1000
0100
0001
0000
1100
0000
0001
0100
0000
1000
0000
0100
0010
0000
,
1000
0000
0100
0000
0010
0100
0001
0100
0000
0010
0000
0101
0000
0010
1000
0000
,
0001
0100
1000
0100
0010
0000
1001
0000
0010
0100
0000
0110
0000
0001
1000
0000
,
0010
0000
0100
0000
0001
0100
0001
0010
0000
1000
0000
0101
0000
1000
0100
0000
,
0001
0100
0010
0100
1000
0000
0110
0000
1000
0001
0000
0110
0000
0001
1000
0000
,
0000
0000
0000
0001
0000
0000
0000
0000
0000
1000
0000
0000
0010
0000
0000
0100
0000
0000
0001
0000
0000
1000
0000
0000
0001
0000
0010
0000
0001
0000
0100
0000
0000
0000
0000
0000
1000
0000
0000
0100
0000
0000
0001
0000
0000
1000
0000
0000
,
0100
0000
0000
0000
0000
0000
0010
0000
0100
0000
1000
0000
0001
0000
0000
0100
0000
0000
0010
0000
0100
0000
0001
0000
0010
0000
0000
0100
0000
0000
0001
0000
0100
0000
1000
0000
0001
0000
0000
0010
0000
0000
0001
0000
0100
0000
1000
0000
,
0100
0000
0000
0010
0000
0000
1000
0000
0001
0000
0010
0000
1000
0000
0000
0010
0000
0000
0100
0000
1000
0000
0010
0000
0100
0000
0000
0000
0000
0000
0010
0000
0000
0000
0000
0000
0010
0000
0000
1000
0000
0000
0001
0000
0000
0200
0000
0000
,
0000
0300
0000
0000
0000
0000
0000
0000
;
