#TITLE:24K Magic;
#SUBTITLE:;
#ARTIST:Bruno Mars;
#TITLETRANSLIT:;
#SUBTITLETRANSLIT:;
#ARTISTTRANSLIT:;
#GENRE:;
#CREDIT:;
#MUSIC:24K Magic.ogg;
#BANNER:24K Magic.png;
#BACKGROUND:24K Magic-bg.png;
#CDTITLE:;
#SAMPLESTART:65.047;
#SAMPLELENGTH:15.000;
#SELECTABLE:YES;
#OFFSET:0.000;
#BPMS:0.000=107.000;
#STOPS:;
#JACKET:24K Magic-jacket.png;
#BGCHANGES:0.000=24K Magic.avi=1.000=0=0=0,
99999.000=-nosongbg-=1.000=0=0=0;
#FGCHANGES:;

//--------------- dance-single - PsyHunter29 ----------------
#NOTES:
     dance-single:
     PsyHunter29:
     Beginner:
     2:
     0.130092,0.171584,0.028757,0,0:
0000
0000
0000
0000
,
0000
0000
0000
0000
,
0000
0000
0000
0000
,
0000
0000
0000
0000
,
0000
0000
0000
0000
,
0010
0010
0010
0010
,
0010
0000
0000
0000
,
0000
0000
0100
0100
,
0100
0000
0000
0000
,
1000
1000
1000
1000
,
1000
0000
0000
0000
,
0000
0000
0001
0001
,
0001
0000
0100
0000
,
0010
0000
1000
0000
,
1001
0000
1001
0000
,
1000
1000
1000
0000
,
0001
0000
0001
0000
,
0010
0010
0010
0000
,
0100
0000
1000
0000
,
0100
0100
0100
0000
,
1000
0000
0010
0000
,
0001
0000
0000
0000
,
1001
0000
0000
0000
,
0100
0000
0001
0000
,
1000
0000
0000
0000
,
0100
0000
1000
0000
,
0001
0000
0000
0000
,
0010
0000
0001
0000
,
0100
0000
1000
0000
,
0010
0010
0010
0010
,
0010
0000
0000
0000
,
1000
0000
1000
1000
,
1000
0000
0000
0000
,
0100
0100
0100
0100
,
0100
0000
0000
0000
,
1000
0000
0001
0001
,
0001
0000
1000
0000
,
0010
0010
0010
0010
,
0010
0000
1000
0000
,
0001
0000
1000
1000
,
1000
0000
0010
0000
,
0001
0000
0100
0100
,
0100
0000
0010
0000
,
1000
0000
0010
0010
,
0010
0000
0100
0000
,
0001
0001
0001
0001
;

//--------------- dance-single - PsyHunter29 ----------------
#NOTES:
     dance-single:
     PsyHunter29:
     Easy:
     4:
     0.217732,0.283497,0.162957,0.105443,0:
0000
0000
0000
0000
,
0000
0000
0000
0000
,
0000
0000
0000
0000
,
0000
0000
0000
0000
,
0000
0000
0000
0000
,
0010
1001
0100
1001
,
0020
0030
1000
0001
,
0100
0000
0001
1000
,
0100
0000
0100
0000
,
1000
0100
0001
0100
,
2000
0000
3002
0000
,
0103
0000
0010
0100
,
0020
0000
0000
0030
,
1001
0000
0001
0010
,
1000
1000
0000
0000
0001
0001
0000
0000
,
1000
0100
1000
0001
,
0100
0100
0000
0000
0010
0010
0000
0000
,
1000
0010
0001
0100
,
0010
1010
0100
0101
,
0001
0000
1000
0000
0100
0010
0010
0000
,
0100
1001
0010
1001
,
0100
0000
0110
1001
,
0020
0000
0000
0030
,
0001
0100
1000
0100
,
0002
0000
0000
0003
,
0100
1000
0010
1000
,
0200
0000
0000
0300
,
0010
0001
1000
0001
,
0020
0000
0000
0030
,
1001
0010
1001
0110
,
2000
3000
0100
1000
,
0001
0000
0100
0001
,
1000
0000
0100
0100
,
0001
0010
1000
0010
,
0002
0000
1000
0000
,
0103
0000
0010
0010
,
1000
0000
0001
0000
,
1001
0100
1001
0110
,
0002
0103
1000
0100
,
0001
0000
0100
0000
1000
0001
1000
0001
,
1000
0010
0100
0001
,
0010
0000
0100
0000
0010
0100
0010
0100
,
0010
0001
0100
1000
,
0100
0001
0011
1000
,
1100
0001
0100
0010
,
1000
0000
1000
0000
0001
0000
0001
2000
,
0000
0000
3000
0000
;

//--------------- dance-single - PsyHunter29 ----------------
#NOTES:
     dance-single:
     PsyHunter29:
     Medium:
     7:
     0.330022,0.34892,0.124614,0.210886,0.057514:
0000
0000
0000
0000
,
0000
0000
0000
0000
,
0000
0000
0000
0000
,
0000
0000
0000
0000
,
0000
0000
0000
0000
,
0101
1010
1010
0101
,
1001
0000
1000
0100
1000
0000
0001
0000
,
0100
0010
1000
0000
1000
0100
0001
0100
,
1000
0000
0001
0000
1000
0100
0010
0000
,
0100
0010
0001
0000
1000
0010
0001
0010
,
2000
0000
0000
0001
,
0002
0000
3003
0000
0100
0001
0010
0000
,
0110
0000
1000
0000
0100
0010
0001
0000
,
1001
0000
0110
0010
,
1000
1000
0100
0000
0001
0001
0100
0000
,
1000
0100
1000
0001
0100
0000
0110
0000
,
1000
0010
0010
0000
0001
0010
0010
0000
,
1000
0010
0100
0001
1000
0000
0100
0000
,
1000
0100
0001
0000
1000
0010
0001
0000
,
0010
0001
1000
0000
0100
1000
1000
0000
,
0010
1000
0010
0000
0100
0001
0100
0001
,
1000
0000
1100
0011
,
2200
0300
0001
3001
,
1000
0100
1000
0000
0001
0010
0100
0010
,
0002
0000
1000
1003
,
0001
0100
0010
0100
0001
1000
0010
0000
,
0200
0000
1000
0310
,
0010
1000
0100
0000
0010
1000
0100
0010
,
0002
0000
1000
0103
,
1100
0101
1010
0011
,
1001
0000
0010
0001
0100
0000
0010
0000
,
0100
0001
1000
0000
0001
1000
0100
1000
,
0001
0000
0100
0001
0010
0000
0001
0000
,
0010
0100
1000
0100
0010
0100
0001
0100
,
2000
3100
0002
0103
,
2000
0000
3002
0000
0103
0010
1000
0000
,
2020
3030
0100
0001
,
0011
1100
1010
0101
,
0110
0000
1000
0001
0100
0001
1000
0000
,
0100
1000
0010
0000
0100
0001
0010
0001
,
0100
0000
0010
1000
0001
0010
0001
0000
,
1000
0100
0001
0100
1000
0001
0100
0001
,
2000
3010
0200
0301
,
1000
0000
0010
0000
0001
1000
0010
0000
,
0220
0330
0001
1000
,
0011
0000
1100
0000
0001
0001
1000
2000
,
0000
0000
3000
0000
;

//--------------- dance-single - PsyHunter29 ----------------
#NOTES:
     dance-single:
     PsyHunter29:
     Hard:
     10:
     0.524475,0.588802,0.325914,0.124614,0.321121:
0000
0000
0000
0000
,
0000
0000
0000
0000
,
0000
0000
0000
0000
,
0000
0000
0000
0000
,
0000
0000
0000
0000
,
0001
0100
0000
0000
0010
1000
0000
0000
0100
1000
0000
0000
0001
0010
0000
0000
,
1001
0000
0000
0000
0010
0000
0100
0000
0010
1000
0000
0000
0001
0000
1000
0000
,
1100
0000
1000
0001
1000
0100
0001
0000
,
0101
0000
0000
0000
0010
0000
0100
0000
0001
1000
0000
0000
1000
0000
0000
0000
,
0001
0100
1000
0100
0001
0010
0100
1000
,
0020
0000
1030
0000
0010
1000
0100
0000
,
0020
0000
0031
0000
0001
1000
0001
0100
,
0110
0000
0001
1000
0001
0010
0011
0000
,
2200
0000
3300
0000
0101
0001
0001
0000
,
1000
0001
1001
0000
0010
0100
0110
0000
,
1000
0100
0001
0100
1000
0010
0100
0000
,
1000
0010
1100
0000
0001
0010
0101
0000
,
1000
0100
1000
0001
0100
0000
0010
0000
,
1000
0010
0001
0000
0001
0010
1000
0000
,
1000
0100
0010
0100
1000
0001
0100
0000
,
0010
1000
0100
1000
0001
0100
0010
1000
,
0200
0300
1001
0110
,
2002
0000
0000
0000
3003
0000
0100
0000
0001
1000
0000
0000
0100
0000
0010
0000
,
0100
1000
0001
0000
0010
0000
0100
0000
1000
0001
0100
0000
0010
0000
1000
0000
,
0001
0000
0000
0000
1000
0000
0100
0000
1000
0001
0000
0000
0100
0000
0010
0000
,
0001
1000
0100
0000
1000
0000
0010
0000
0001
1000
0100
0000
0010
0000
0100
0000
,
0001
0000
0000
0000
0100
0000
0010
0000
1000
0001
0000
0000
0010
0000
1000
0010
,
1000
0000
0001
0000
1000
0000
0001
0100
0001
0000
0010
0000
0100
0000
0010
0001
,
0000
0000
0000
0000
0000
0000
0100
0000
0001
1000
0000
0000
0110
0000
0000
0000
,
1000
0100
0000
0000
1000
0010
0000
0000
0001
0100
0000
0000
0001
0010
0000
0000
,
0110
0000
0000
0000
1000
0000
0001
0000
0100
0010
0000
0000
0010
0000
1000
0000
,
1010
0000
1000
0001
1000
0100
0001
0000
,
0011
0000
0000
0000
0001
0000
1000
0000
0001
1000
0000
0000
0100
0000
0010
0000
,
1000
0010
0001
0010
1000
0100
0010
0001
,
0020
0000
0130
1000
0020
0000
0130
0001
,
2000
0000
3100
1000
0001
0100
1000
0100
,
0002
0000
0103
0101
0000
1100
0000
0000
,
1000
0100
0000
0000
0001
0100
0000
0000
1000
0010
0000
0000
0001
0010
0000
0000
,
1002
0000
0000
0000
0013
0000
0001
0000
0100
0010
0000
0000
0010
0000
1000
0000
,
2001
0000
3100
0000
0001
0100
1000
0100
,
0120
0000
0000
0000
0031
0000
1000
0000
0100
0010
0000
0000
0001
0000
1000
0000
,
0001
0100
0001
1000
0100
1000
0001
0010
,
0210
0000
0000
0000
0310
0000
0100
0000
1000
0001
0000
0000
0100
0000
0010
0000
,
2000
0000
3100
0010
0011
0000
1100
0000
,
1002
0000
0000
0000
0103
0000
0010
0000
1000
0100
0000
0000
0010
0000
0100
0000
,
0001
1000
0001
0000
0010
0000
0010
0000
0001
0000
0001
0000
1000
0000
2000
0000
,
0000
0000
3000
0000
;

//--------------- dance-single - PsyHunter29 ----------------
#NOTES:
     dance-single:
     PsyHunter29:
     Challenge:
     14:
     0,0,0,0,0:
0000
0000
0000
0000
,
0000
0000
0000
0000
,
0000
0000
0000
0000
,
0000
0000
0000
0000
,
0000
0000
0000
0000
,
0001
0100
0001
0100
0010
1000
0010
1000
0100
1000
0100
1000
0001
0010
0000
0000
,
1001
0000
0000
0000
0010
0000
0100
0000
0010
0010
0000
0000
0001
0000
1000
0000
,
2100
0000
0000
3001
1000
0000
0001
0000
1000
0000
0100
0000
0001
0000
0100
0001
,
0201
0000
0000
0000
0310
0000
0100
0000
0001
0001
0000
0000
1000
0000
0000
0000
,
0001
0100
0001
0000
1000
0000
0100
0000
1000
0000
0001
0000
0010
0000
0001
0000
,
2000
0000
0000
0000
3020
0000
0000
0000
1030
1000
0000
0000
0100
0000
0010
0000
,
1002
0000
0000
0000
0013
0000
0100
0000
1000
0000
0001
0100
0000
0000
0100
0000
,
0210
0000
0000
0000
0301
0000
1000
0000
0001
0010
0001
1000
0000
0000
0100
0000
,
1200
0000
0300
0000
0101
0001
0011
0100
,
1000
1000
1001
1001
0010
0010
0110
0110
,
1000
0000
0100
0000
0001
0000
0100
1000
0000
0000
0010
0000
0100
0000
0001
1000
,
0001
0000
0011
0000
0101
0000
1000
0001
1000
0000
1010
0000
1100
0000
0001
1000
,
0001
0000
0100
0001
1000
0001
0000
0100
0000
0000
0010
0100
0000
0000
0001
0000
,
1000
0010
0001
0101
0001
0010
1000
1010
,
1000
0001
1000
0000
0100
0000
0010
0000
0100
0000
1100
0000
0011
0000
1000
0000
,
0010
0000
1000
0000
0100
0000
1000
0000
0001
0000
0100
0010
0000
0000
0010
1000
,
0100
1000
0001
1000
0010
0000
0100
0000
1001
0000
0000
0000
0110
0000
0000
0000
,
2001
0000
0000
0000
3010
0000
0100
0000
0001
1000
0001
0000
0100
0000
0010
1000
,
0100
1000
0001
0020
0000
0000
0130
1000
0001
0100
0010
0100
0001
1000
0010
0100
,
0002
0000
0000
0000
1003
0000
0100
0000
1000
0001
1000
0000
0100
0010
0001
1000
,
0001
0010
0100
1000
0001
0100
0010
1000
0001
0100
0001
1000
0100
1000
0010
0100
,
0002
0000
0000
0000
0103
0000
0010
0000
1000
0001
1000
0000
0010
0000
1000
0010
,
1000
0000
0001
0100
0001
0000
1000
0100
1000
0001
0010
0001
1000
0010
0100
0010
,
1000
0000
0000
0000
0100
0000
0010
0001
1000
0001
0000
0000
0010
0100
0000
0000
,
1000
0100
1000
0001
1000
0010
1000
0001
0100
0010
0100
0001
1000
0100
0000
0000
,
0210
0000
0000
0000
1300
0000
0001
0000
0100
0100
0000
0000
0010
0000
1000
0000
,
1010
0000
0000
0010
1000
0000
0001
0000
1000
0000
0100
0000
0001
0000
0010
0000
,
1020
0000
0000
0000
0031
0000
1000
0000
0001
0001
0000
0000
0100
0000
0010
0000
,
1000
0001
1000
0000
0010
0000
1000
0000
0100
0000
0010
0000
0001
0000
0100
0000
,
1020
0000
0000
0000
0130
0000
0001
0000
0010
0010
0000
0000
0100
0000
1000
0000
,
1002
0000
0000
0000
1003
0000
0001
0000
1000
0000
0100
0001
0000
0000
0100
0000
,
2000
0100
3001
0101
0000
1010
0000
0010
,
1000
0100
0001
0100
1000
0010
0001
0010
1000
0010
0100
0010
1000
0001
0000
0000
,
1002
0000
0000
0000
0013
0000
0001
0000
0100
0010
0100
0000
0010
0000
1000
0000
,
2100
0000
3001
1000
0001
0100
1000
0100
,
0120
0000
0000
0000
1030
0000
0001
0000
1000
0100
0010
0000
0001
0000
1000
0000
,
0001
0010
0001
0000
1000
0000
0100
0000
1000
0000
0001
0000
0100
0000
0001
0000
,
2001
0000
0000
0000
3010
0000
0100
0000
0001
1000
0001
0000
0100
0000
0010
0000
,
2100
0000
3100
0010
0011
0100
1100
0010
,
1002
0000
0000
0000
0103
0000
0010
0000
1000
0100
1000
0000
0010
0000
0100
0000
,
0001
1000
0100
0000
0010
0000
0001
0000
0011
0000
0001
0000
1100
0000
2000
0000
,
0000
0000
3000
0000
;
