#VERSION:0.83;
#TITLE:不埒な喝采;
#SUBTITLE:;
#ARTIST:ポリスピカデリー & 花譜 feat. 可不(KAFU);
#TITLETRANSLIT:Furachi na Kassai;
#SUBTITLETRANSLIT:;
#ARTISTTRANSLIT:Police Picadilly & Kaf feat. KAFU;
#GENRE:J-Pop;
#CREDIT:;
#MUSIC:Unscrupulous Cheers.ogg;
#BANNER:Unscrupulous Cheers.png;
#BACKGROUND:Unscrupulous Cheers-bg.png;
#CDTITLE:;
#SAMPLESTART:28.489;
#SAMPLELENGTH:19.106;
#SELECTABLE:YES;
#OFFSET:-0.688;
#BPMS:0.000=158.000;
#STOPS:;
#SPEEDS:0.000=1.000=0.000=0;
#SCROLLS:0.000=1.000;
#TICKCOUNTS:0.000=4;
#TIMESIGNATURES:0.000=4=4;
#LABELS:0.000=Song Start;
#COMBOS:0.000=1;
#ORIGIN:;
#TAGS:;
#PREVIEWVID:;
#JACKET:;
#CDIMAGE:;
#DISCIMAGE:;
#BGCHANGES:1.000=Unscrupulous Cheers.avi=1.000=1=0=1===CrossFade==,
99999.000=-nosongbg-=1.000=0=0=0=StretchNoLoop====
;
#FGCHANGES:;

//--------------- dance-single - Pruz ----------------
#NOTEDATA:;
#STEPSTYPE:dance-single;
#DESCRIPTION:Pruz;
#DIFFICULTY:Beginner;
#METER:3;
#RADARVALUES:0.113672,0.158197,0,0.322397,0,116,116,0,47,0,0,0,0,0,0.113672,0.158197,0,0.322397,0,116,116,0,47,0,0,0,0,0;
#CHARTNAME:Pruz;
#CHARTHASH:16777215;
#BANNER:;
#CHARTSTYLE:;
#METERF:0.000000;
#CREDIT:Pruz;
#NOTES:
0000
0000
0000
0000
,
0000
0000
0000
0000
,
0000
0000
0000
0000
,
1000
0000
1000
0000
,
0020
0000
0000
0030
0000
0000
0000
0000
,
1000
0000
1000
0000
,
0002
0000
0000
0003
0000
0000
0000
0000
,
0010
0000
0010
0000
,
0200
0000
0000
0300
0000
0000
0000
0000
,
0010
0000
0010
0000
,
0001
0000
1000
0000
,
0002
0000
0000
0000
,
0100
0000
0100
0000
,
1000
0000
0000
0000
,
0010
0000
0010
0003
,
2000
0000
0000
0000
,
0100
0000
0100
0000
,
0001
0000
0000
0000
,
3010
0000
0000
0000
,
1000
0000
0000
0000
,
0100
0000
0000
0000
,
0010
0000
0000
0002
,
0000
0003
0000
0000
0000
0000
0000
0000
,
1000
0000
0000
0000
,
0010
0000
0000
0000
,
0100
0000
0000
0002
,
0000
0003
0000
0000
0000
0000
0000
0000
,
2000
3000
2000
3000
,
2000
3000
2000
3000
,
0020
0000
0000
0030
,
0000
0000
0000
0000
,
1000
0000
1000
0000
,
0200
0000
0000
0300
0000
0000
0000
0000
,
1000
0000
1000
0000
,
0002
0000
0000
0003
0000
0000
0000
0000
,
0010
0000
0010
0000
,
0200
0000
0000
0300
0000
0000
0000
0000
,
0010
0000
0010
0000
,
0001
0000
1000
0000
,
0002
0000
0000
0000
,
0100
0000
0100
0000
,
1000
0000
0000
0000
,
0010
0000
0010
0003
,
2000
0000
0000
0000
,
0100
0000
0100
0000
,
0001
0000
0000
0000
,
3010
0000
0000
0000
,
1000
0000
0000
0000
,
0100
0000
0000
0000
,
0010
0000
0000
0002
,
0000
0003
0000
0000
0000
0000
0000
0000
,
1000
0000
0000
0000
,
0010
0000
0000
0000
,
0100
0000
0000
0002
,
0000
0003
0000
0000
0000
0000
0000
0000
,
2000
3000
2000
3000
,
2000
3000
2000
3000
,
0020
0000
0000
0030
,
0000
0000
0000
0000
,
2000
0000
3000
0000
,
0002
0000
0003
0000
,
0020
0000
0030
0000
,
0000
0000
0200
0000
0000
0300
0000
0000
,
2000
0000
3000
0000
,
0020
0000
0030
0000
,
0200
0000
0300
0000
,
0000
0000
0002
0000
0000
0003
0000
0000
,
0000
0000
0000
0000
,
0000
0000
1000
0000
,
0000
0000
0100
0000
,
0000
0000
0010
0000
,
0000
0000
0002
0000
0000
0003
0000
0000
,
0000
0000
1000
0000
,
0000
0000
0010
0000
,
0000
0000
0100
0000
,
0000
0000
0002
0000
0000
0003
0000
0000
,
0000
0000
2000
3000
,
2000
3000
2000
3000
,
2000
3000
0020
0000
,
0000
0030
0000
0100
,
0000
0000
0002
0003
,
0002
0003
0002
0003
,
0002
0003
0020
0000
,
0000
0030
0000
0100
,
0000
0000
1000
0000
,
1000
0000
0000
0000
0020
0000
0000
0030
,
0000
0000
1000
0000
,
1000
0000
0000
0000
0002
0000
0000
0003
,
0000
0000
0010
0000
,
0010
0000
0000
0000
0200
0000
0000
0300
,
0000
0000
0010
0000
,
0010
0000
0001
0000
,
1000
0001
0000
0000
;

//--------------- dance-single - Pruz ----------------
#NOTEDATA:;
#STEPSTYPE:dance-single;
#DESCRIPTION:Pruz;
#DIFFICULTY:Easy;
#METER:6;
#RADARVALUES:0,0,0,0,0,0,0,0,0,0,0,0,0,0,0,0,0,0,0,0,0,0,0,0,0,0,0,0;
#CHARTNAME:Pruz;
#CHARTHASH:16777215;
#BANNER:;
#CHARTSTYLE:;
#METERF:0.000000;
#CREDIT:Pruz;
#NOTES:
0000
0000
0000
0000
,
0000
0000
0000
0000
,
0000
0000
0000
0000
,
1000
0000
0000
0010
0000
0000
0000
0000
,
0100
0000
0000
0001
0000
0000
0000
0000
,
1000
0000
0000
0100
0000
0000
0000
0000
,
0010
0000
0000
0001
0000
0000
0000
0000
,
1000
0000
0000
0010
0000
0000
0000
0000
,
0100
0000
0000
0001
0000
0000
0000
0000
,
1000
0000
0000
0100
0000
0000
0000
0000
,
0010
0000
0000
0001
0000
0000
0000
0000
,
1000
0000
0001
0000
,
0020
0000
0000
0030
0000
0000
0000
0000
,
0001
0000
1000
0000
,
0020
0000
0000
0030
0000
0000
1000
0000
,
0001
0000
0010
0000
,
0200
0000
0000
0300
0000
0000
0000
0000
,
1000
0000
0010
0000
,
0100
0000
0000
0000
,
0001
1000
0100
0100
,
1000
0001
0100
0100
,
0010
1000
0001
0020
,
0000
0030
0100
1000
,
0010
0010
1000
0001
,
0010
0010
0100
1000
,
0001
0100
0001
2000
,
0000
3010
0000
0000
0200
0000
0301
0000
,
2000
0000
0000
3000
0200
0000
0000
0300
,
0020
0000
0000
0030
0001
0000
1000
0000
,
0001
0000
0100
0000
,
0010
0000
1000
0001
,
1000
0000
0000
0100
0000
0000
0000
0000
,
1000
0000
0000
0001
0000
0000
0000
0000
,
1000
0000
0000
0010
0000
0000
0000
0000
,
0100
0000
0000
0001
0000
0000
0000
0000
,
1000
0000
0000
0100
0000
0000
0000
0000
,
0010
0000
0000
0001
0000
0000
0000
0000
,
1000
0000
0000
0010
0000
0000
0000
0000
,
0100
0000
0000
0001
0000
0000
0000
0000
,
1000
0000
0001
0000
,
0020
0000
0000
0030
0000
0000
0000
0000
,
0001
0000
1000
0000
,
0020
0000
0000
0030
0000
0000
1000
0000
,
0001
0000
0100
0000
,
0020
0000
0000
0030
0000
0000
0000
0000
,
1000
0000
0001
0000
,
0010
0000
0000
0000
,
0001
1000
0010
0010
,
1000
0001
0010
0010
,
0100
1000
0001
0200
,
0000
0300
0001
1000
,
0010
0010
1000
0001
,
0010
0010
0100
1000
,
0001
0100
0001
2000
,
0000
3100
0000
0000
0020
0000
0130
0000
,
2000
0000
0000
3000
0200
0000
0000
0300
,
0020
0000
0000
0030
0001
0000
1000
0000
,
0001
0000
0100
0000
,
0010
0000
1000
0001
,
1000
0000
0000
0000
0010
0000
0000
1000
,
0000
0001
1000
0100
,
0010
0000
0000
0000
0001
0000
0000
0010
,
0000
0000
0100
0000
0000
1000
0000
0000
,
0001
0000
0000
0000
0100
0000
0000
0001
,
0000
1000
0001
0010
,
0100
0000
0000
0000
1000
0000
0000
0010
,
0000
0000
0100
0000
0000
0001
0000
0000
,
0000
0000
0000
0000
,
0000
0000
1000
0001
,
0000
0010
0000
0000
0001
0000
1000
0000
,
0000
0010
0000
0000
0100
0000
0001
0000
,
1000
0200
0000
0300
,
0010
0001
1000
1000
,
0010
1000
0001
0001
,
0100
0010
1000
0001
,
1000
0000
0020
0000
0000
0130
0000
0000
,
0002
0000
1003
0000
0200
0000
0000
0300
,
0200
0000
0000
0300
0200
0000
0000
0300
,
1000
0001
0010
0000
,
0100
0000
0010
0000
,
0001
0000
1000
0000
0020
0000
0000
0030
,
0020
0000
0000
0030
0020
0000
0000
0030
,
1000
0001
1000
0000
,
0100
0000
0010
0000
,
0001
0000
1000
0000
0001
0000
0000
0010
,
0000
0000
0000
0000
0100
0000
0000
1000
,
0000
0000
0000
0000
0001
0000
0000
0100
,
0000
0000
0000
0000
0010
0000
0000
1000
,
0000
0000
0000
0000
0001
0000
0000
0010
,
0000
0000
0000
0000
0100
0000
0000
1000
,
0000
0000
0000
0000
0001
0000
0000
0100
,
0000
0000
0000
0000
0010
0000
0000
1000
,
0000
0000
0000
0001
0000
0000
0000
0000
;

//--------------- dance-single - Pruz ----------------
#NOTEDATA:;
#STEPSTYPE:dance-single;
#DESCRIPTION:Pruz;
#DIFFICULTY:Medium;
#METER:9;
#RADARVALUES:0,0,0,0,0,0,0,0,0,0,0,0,0,0,0,0,0,0,0,0,0,0,0,0,0,0,0,0;
#CHARTNAME:Pruz;
#CHARTHASH:4177526783;
#BANNER:;
#CHARTSTYLE:;
#METERF:0.000000;
#CREDIT:Pruz;
#NOTES:
0000
0000
0000
0000
,
0000
0000
0000
0000
,
0000
0000
0000
0000
,
0002
1003
0000
0020
0130
0001
0000
0000
,
2000
3100
0000
0020
0031
1000
0010
0000
,
2000
3001
0000
0002
0000
2003
3000
0000
,
0200
1300
0000
0200
0000
0320
0130
1000
,
0002
1003
0000
0020
1030
0001
0010
0000
,
0002
1003
0000
0020
1030
0001
0010
0000
,
0200
1300
0000
0200
0000
0320
0030
0000
,
0002
1003
0000
0020
0000
2030
3001
0000
,
0200
0000
0310
0000
,
2000
3001
0000
2000
3001
0000
0000
0000
,
0020
0000
0130
0000
,
2000
3001
0000
2000
3001
0000
0200
0000
,
0310
0000
0000
1000
0001
0000
0000
0000
,
2000
3100
0000
2000
3100
0000
0010
0000
,
0002
0003
0000
1000
0001
0000
1000
0000
,
0020
0230
0300
0100
0010
0000
1000
0000
,
0001
0011
0010
0100
,
1000
1001
0001
0100
,
0010
1010
1000
2001
,
3002
1003
0100
0010
,
0100
1100
1000
0010
,
0100
0101
0001
1000
,
0010
0110
0100
0102
,
2003
0000
3000
0000
0020
0000
0030
0100
,
0002
0000
0003
0100
0020
0000
0030
0100
,
0002
0000
0003
1000
0020
0000
0130
0002
,
0000
2003
3200
0310
,
0001
0010
0100
1000
,
0002
0103
0000
0002
1003
0100
0000
1000
,
0002
0003
0000
0200
0000
0310
1000
0000
,
0002
0103
0000
0002
0000
1003
0000
0000
,
0200
1300
0000
0002
0000
0013
0000
0100
,
2000
3100
0000
2000
3001
0100
0000
0000
,
0002
1003
0000
0200
0000
0310
0001
0000
,
2000
3100
0000
2000
0000
3001
0000
0000
,
0200
0301
0000
2000
0000
3000
0010
0100
,
0020
0000
0130
0000
,
2000
3001
0000
2000
3001
0000
0000
0000
,
0200
0000
0310
0000
,
2000
3001
0000
2000
3001
0000
0020
0000
,
0130
0000
0000
1000
0001
0000
0000
0000
,
2000
3010
0000
2000
3010
0000
0100
0000
,
0002
0003
0000
1000
0001
0000
1000
0000
,
0200
0320
0030
0010
0100
0000
1000
0000
,
0001
0101
0100
0010
,
1000
1001
0001
0010
,
0100
1100
1000
2001
,
3002
1003
0010
0100
,
0010
1010
1000
0100
,
0010
0011
0001
1000
,
0100
0110
0010
0012
,
2003
0000
3000
0000
0200
0000
0300
0010
,
0002
0000
0003
0010
0200
0000
0300
0010
,
0002
0000
0003
1000
0200
0000
0310
0002
,
0000
2003
3020
0130
,
0001
0100
0010
1000
,
0002
0003
0000
0010
0001
0000
2000
3001
,
0000
0000
0200
0300
0020
0030
2000
3000
,
0002
0003
0000
0010
0100
1000
0000
0020
,
0030
0000
2000
3000
0000
0200
0300
0000
,
0020
0030
0000
0100
1000
0000
0002
1003
,
0000
0000
0020
0030
0200
0300
0002
0003
,
2000
3000
0000
0100
0010
0001
0000
0200
,
0300
0000
0002
0003
0000
0020
0030
0000
,
0000
0000
0000
0000
,
0000
0000
0100
1000
,
0010
0100
0001
0010
,
0100
1000
0010
1010
,
1000
2001
3002
1003
,
0100
0010
0100
1100
,
1000
0010
0100
0101
,
0001
1000
0010
0110
,
0100
0102
2003
3000
,
0020
0000
0030
0100
0002
0000
0003
0100
,
0020
0000
0030
0100
0002
0000
0003
1000
,
0020
0000
0130
0002
0000
0000
2003
0000
,
3200
0000
0310
0000
0001
0000
0010
0100
,
2000
0000
3000
0001
0020
0000
0030
0001
,
2000
0000
3000
0010
2000
0000
3000
0001
,
2000
0000
3000
0100
0020
0000
0031
0000
,
1000
0001
0100
0010
,
2000
0000
3001
0000
0010
0001
0000
1000
,
0100
0000
0010
0001
2000
3000
0000
0002
,
0000
0003
1000
0000
0010
0100
0000
0002
,
0003
2000
3000
0000
0200
0310
0000
0002
,
0000
1003
0000
0100
0010
0001
0000
1000
,
0100
0000
0010
0001
2000
3000
0000
0002
,
0000
0003
1000
0000
0010
0100
0000
0002
,
0003
2000
3000
0000
0200
0310
0000
0002
,
0000
1003
0100
0100
0000
0000
0000
0000
;

//--------------- dance-single - Pruz ----------------
#NOTEDATA:;
#STEPSTYPE:dance-single;
#DESCRIPTION:Pruz;
#DIFFICULTY:Hard;
#METER:12;
#RADARVALUES:0,0,0,0,0,0,0,0,0,0,0,0,0,0,0,0,0,0,0,0,0,0,0,0,0,0,0,0;
#CHARTNAME:Pruz;
#CHARTHASH:98;
#BANNER:;
#CHARTSTYLE:;
#METERF:0.000000;
#CREDIT:Pruz;
#NOTES:
0000
0000
0000
0000
,
0000
0000
0000
0000
,
0000
0000
0000
0000
,
2000
3100
0000
0020
0031
1000
0000
0000
,
0002
0013
0000
0200
0310
0001
1000
0000
,
0020
1030
0000
0002
0103
0010
0000
0000
,
0200
0301
0000
2000
3100
0010
0001
1000
,
0002
0013
0000
0200
1300
0001
0000
0000
,
0200
0310
0000
2000
3100
0010
0001
0000
,
2000
3001
0000
0020
0130
1000
0000
0000
,
0002
0103
0000
0020
1030
0001
1000
1000
,
0002
0000
0000
0013
0001
0000
1000
0000
,
0200
0310
0000
0020
0031
0000
1000
0000
,
0002
0000
0000
0103
0010
0000
1000
0000
,
0200
0310
0000
0020
0031
0000
2000
0000
,
3002
0000
0000
0013
0001
0000
1000
0000
,
0200
0310
0000
0020
0031
0000
1000
0000
,
0002
0000
0000
0103
0010
0000
1000
0000
,
0002
1003
0000
0100
1000
0001
0010
0001
,
1000
0000
1001
0000
0001
1000
0010
1000
,
0001
0000
1001
0000
0001
1000
0100
1000
,
0001
0000
0010
0100
1000
0000
0002
0000
,
0103
0010
1000
0010
0100
0000
0001
1000
,
0010
0000
0110
0000
0100
0001
1000
0001
,
0100
0000
0110
0000
0010
1000
0001
1000
,
0010
0000
0100
0001
1000
0000
0002
0000
,
0013
0100
1000
0001
2000
0000
3010
0100
,
0002
0000
0013
0100
2000
0000
3100
0010
,
0002
0000
0103
0010
1000
0001
1000
0010
,
0200
0000
0301
1000
0010
1000
0001
0001
,
2000
0000
3001
1000
0100
1000
0001
0001
,
0200
0310
0000
2000
3001
0100
0000
0000
,
0020
1030
0000
0200
0310
0001
1000
0000
,
0020
0130
0000
0002
1003
0010
0000
0000
,
2000
3100
0000
0020
0031
1000
0001
0010
,
0200
1300
0000
0002
1003
0010
0000
0000
,
2000
3001
0000
0200
0310
1000
0001
0000
,
0020
0130
0000
0020
0031
1000
0000
0000
,
0020
0130
0000
0020
1030
1000
0001
0001
,
2000
0000
0000
3010
1000
0000
0001
0000
,
0200
0310
0000
0020
1030
0000
0001
0000
,
2000
0000
0000
3100
0010
0000
0001
0000
,
0200
0310
0000
0020
1030
0000
0002
0000
,
2003
0000
0000
3010
1000
0000
0001
0000
,
0200
0310
0000
0020
1030
0000
0001
0000
,
2000
0000
0000
3100
0010
0000
0001
0000
,
2000
3001
0000
0100
0001
1000
0010
1000
,
0001
0000
1001
0000
1000
0001
0010
0001
,
1000
0000
1001
0000
1000
0001
0100
0001
,
1000
0000
0010
0100
0001
0000
2000
0000
,
3100
0010
0001
0010
0100
0000
1000
0001
,
0010
0000
0110
0000
0100
1000
0001
1000
,
0100
0000
0110
0000
0010
0001
1000
0001
,
0010
0000
0100
1000
0001
0000
2000
0000
,
3010
0100
0001
1000
0002
0000
0013
0100
,
2000
0000
3010
0100
0002
0000
0103
0010
,
2000
0000
3100
0010
0001
1000
0001
0010
,
0200
0000
1300
0001
0010
0001
1000
1000
,
0002
0000
1003
0001
0100
0001
1000
1000
,
0200
0300
0000
0010
0001
0000
2000
3002
,
0003
0000
0200
0300
0020
0030
2000
3000
,
0002
0003
0000
1000
0001
0010
0000
0200
,
0310
0000
0002
0003
1000
0020
0030
1000
,
0200
0300
0000
0010
0001
0000
0001
2000
,
3000
0000
0020
0030
0200
0300
0002
0003
,
2000
3000
0000
0200
0310
0001
0000
0200
,
0310
1000
0002
1003
1000
0002
0003
0000
,
0000
0000
0000
0000
,
0000
0000
1000
0200
,
0310
0001
0000
0001
1000
0000
0020
0000
,
0130
0001
0000
0001
1000
0000
0100
0010
,
0001
0000
2000
0000
3010
0100
0001
0100
,
0010
0000
1000
0001
0010
0000
0110
0000
,
0100
1000
0001
1000
0100
0000
0110
0000
,
0010
0001
1000
0001
0010
0000
0100
1000
,
0001
0000
2000
0000
3010
0100
0001
1000
,
0002
0000
0013
0100
2000
0000
3010
0100
,
0002
0000
0103
0010
2000
0000
3100
0010
,
0001
1000
0001
0010
0200
0000
1300
0001
,
0010
0001
1000
1000
0002
0000
0103
0001
,
1000
0001
0100
0010
2000
0000
3100
0010
,
0002
0000
0103
0010
2000
0000
3100
0010
,
0002
0000
0103
0010
2000
0000
3001
1000
,
0010
1000
0001
0001
1000
0000
0001
1000
,
0100
1000
0001
0001
2000
3010
0000
0200
,
0301
1000
0000
0000
0002
0013
0000
0200
,
1300
0001
1000
0000
0020
0130
0000
0002
,
1003
0001
0000
0000
0020
0130
0000
0020
,
0031
1000
0001
0100
0020
1030
0000
0002
,
1003
0100
0000
0000
0020
0031
0000
0200
,
0310
1000
0001
0000
2000
3010
0000
0200
,
0301
1000
0000
0000
0002
0013
0000
0200
,
1300
0001
0100
0100
0000
0000
0000
0000
;

//--------------- dance-single - Pruz ----------------
#NOTEDATA:;
#STEPSTYPE:dance-single;
#DESCRIPTION:Pruz;
#DIFFICULTY:Challenge;
#METER:13;
#RADARVALUES:0,0,0,0,0,0,0,0,0,0,0,0,0,0,0,0,0,0,0,0,0,0,0,0,0,0,0,0;
#CHARTNAME:Pruz;
#CHARTHASH:4231004160;
#BANNER:;
#CHARTSTYLE:;
#METERF:0.000000;
#CREDIT:Pruz;
#NOTES:
0000
0000
0000
0000
,
0000
0000
0000
0000
,
0000
0000
0000
0000
,
0002
1003
0000
0200
0310
0001
1000
0000
,
0020
0130
0000
0002
1003
0100
0010
0000
,
0002
0013
0000
0200
1300
0001
1000
0000
,
0002
0000
0103
0000
0000
0000
0020
0000
1030
0001
1000
0000
0010
0000
0100
0000
,
0002
1003
0000
0200
0310
0001
1000
0000
,
0020
0130
0000
0002
1003
0100
0010
0000
,
0002
0103
0000
0020
1030
0001
1000
0000
,
0002
0000
0013
0000
0000
0000
0200
0000
1300
0001
1000
0000
0100
0000
0010
0000
,
0002
0000
1003
0000
1000
0000
0010
1000
0001
0000
0100
0000
0010
0000
1000
0000
,
0002
0000
0023
0000
0030
0000
0002
0000
0023
0000
0130
1000
0001
0000
0001
0000
,
1000
0010
0100
0001
1000
0001
0010
0100
,
2000
3020
0030
2000
3020
0030
0200
0301
,
1000
0100
0010
0100
1000
0001
0100
0010
,
2000
3002
0003
2000
3002
0003
0010
0001
,
0100
0010
1000
0100
1000
0010
0100
0001
,
0020
0230
0300
1000
0001
0100
0010
0100
,
0001
0000
1001
0000
1000
0100
0010
0100
,
1000
0000
1001
0000
0001
0100
0010
1000
,
0002
0003
0022
0033
0220
0330
2200
3300
,
1000
0001
0100
0001
1000
0010
0100
0010
,
1000
0000
1001
0000
0001
0010
0100
0010
,
0001
0000
1001
0000
1000
0010
0100
0001
,
2000
3000
2200
3300
0220
0330
0022
0033
,
0001
0000
1000
0000
0010
0000
1000
0000
0001
0000
0100
0000
0010
1000
0001
0000
,
2000
3100
0010
0100
2000
3010
0100
0010
,
2000
3100
0010
0100
2000
3010
0100
0002
,
1003
0001
0010
0010
0001
1000
0010
0010
,
0100
0001
1000
1000
0100
1000
0001
0001
,
2000
3010
0100
0002
0013
0100
1000
0001
,
0200
0301
0001
2000
3100
1000
1000
0001
,
0200
0310
1000
0002
0013
0100
1000
0001
,
0200
0000
0301
0000
0001
0000
1000
0000
0100
1000
0001
0000
1000
0000
0010
0000
,
0200
0301
0010
0200
1300
0001
1000
0010
,
0200
0301
0001
2000
3100
1000
1000
0001
,
0200
0310
1000
0002
0013
0100
1000
0001
,
0200
0301
0001
1000
0200
1300
1000
0010
,
2000
0000
3001
0000
0001
0000
0010
0001
1000
0000
0100
0000
0010
0000
0001
0000
,
2000
0000
3020
0000
0030
0000
2000
0000
3020
0000
0130
0001
1000
0000
1000
0000
,
0001
0010
0100
1000
0001
1000
0010
0100
,
0002
0023
0030
0002
0023
0030
0200
1300
,
0001
0100
0010
0100
0001
1000
0100
0010
,
0002
2003
3000
0002
2003
3000
0010
1000
,
0100
0010
0001
0100
0001
0010
0100
1000
,
0020
0230
0300
0001
1000
0100
0010
0100
,
1000
0000
1001
0000
0001
0100
0010
0100
,
0001
0000
1001
0000
1000
0100
0010
0001
,
2000
3000
2020
3030
0220
0330
0202
0303
,
0001
1000
0100
1000
0001
0010
0100
0010
,
0001
0000
1001
0000
1000
0010
0100
0010
,
1000
0000
1001
0000
0001
0010
0100
1000
,
0002
0003
0202
0303
0220
0330
2020
3030
,
1000
0000
0001
0000
0010
0000
0001
0000
1000
0000
0100
0000
0010
0001
1000
0000
,
0002
0103
0010
0100
0002
0013
0100
0010
,
0002
0103
0010
0100
0002
0013
0100
2000
,
3001
1000
0010
0010
1000
0001
0010
0010
,
0100
1000
0001
0001
0100
0001
1000
1000
,
0020
1030
0001
0010
0100
0010
0002
2003
,
3010
0000
2000
3001
0020
0030
0200
1300
,
0002
0003
0100
0001
1000
0010
0000
0200
,
0301
0000
2000
3001
0100
0020
0030
0100
,
0002
1003
0010
1000
0001
0010
0100
2000
,
3000
0001
2000
3100
0020
0031
2000
3010
,
0200
0310
1000
0000
0100
0010
0000
0002
,
0103
0010
0200
0301
1000
0002
0000
0003
,
0000
0000
0000
0000
,
0000
0000
1000
0200
,
1300
0001
0100
0001
1000
0000
0020
0000
,
1030
0001
0010
0001
1000
0000
0100
0010
,
0001
0000
0000
0000
1000
0000
0001
0000
0100
0000
0001
0000
1000
0001
0010
0000
,
0001
0000
1000
0000
0010
1000
0001
0000
1000
0000
0000
0000
1100
0000
0000
0000
,
0100
0010
0001
1000
0001
0000
0101
0000
,
0100
0010
1000
0001
2000
3000
2020
3030
,
0220
0330
0202
0303
0001
1000
0100
1000
,
0001
0000
1000
0001
0010
0001
1000
0000
0002
0000
0103
0000
0010
0000
0100
0000
,
0002
0013
0100
0010
0002
0103
0010
0100
,
0002
0013
0100
2000
3001
0000
0100
0010
,
1000
1000
0001
0010
0100
0000
0010
0100
,
1000
0000
1000
0000
0010
1000
0001
0000
2000
0000
3100
0000
0010
0000
0100
0000
,
2000
3010
0100
0010
2000
3100
0010
0100
,
2000
3010
0100
0002
1003
0001
0010
0010
,
0001
1000
0010
0010
0100
0001
1000
1000
,
0100
1000
0001
0001
2000
3001
0000
2000
,
3010
1000
0001
0000
0200
0310
0010
2000
,
3001
1000
0100
0000
0020
0031
0000
2000
,
3001
1000
0100
0000
0020
0031
0000
2000
,
3100
1000
0100
0000
0010
0000
0001
0000
2000
0000
3001
0000
0000
0000
2000
0000
,
3010
1000
0001
0000
0200
0310
0010
2000
,
3001
1000
0100
0000
0020
0031
0000
2000
,
3001
1000
0010
0000
0200
0301
0000
2000
,
3100
1000
0100
0000
0010
0000
0010
0000
0000
0000
0000
0000
0000
0000
0000
0000
;
