#VERSION:0.83;
#TITLE:不埒な喝采;
#SUBTITLE:;
#ARTIST:ポリスピカデリー & 花譜 feat. 水音ラル;
#TITLETRANSLIT:Furachi na Kassai;
#SUBTITLETRANSLIT:;
#ARTISTTRANSLIT:Police Piccadilly & Kaf feat. Mine Laru;
#GENRE:UTAU Pop;
#CREDIT:;
#MUSIC:Unscrupulous Cheers (Mine Laru).ogg;
#BANNER:Unscrupulous Cheers (Mine Laru).png;
#BACKGROUND:Unscrupulous Cheers (Mine Laru)-bg.png;
#CDTITLE:;
#SAMPLESTART:69.968;
#SAMPLELENGTH:19.066;
#SELECTABLE:YES;
#OFFSET:-1.044;
#BPMS:0.000=158.000;
#STOPS:;
#SPEEDS:0.000=1.000=0.000=0;
#SCROLLS:0.000=1.000;
#TICKCOUNTS:0.000=4;
#TIMESIGNATURES:0.000=4=4;
#LABELS:0.000=Song Start;
#COMBOS:0.000=1;
#ORIGIN:;
#PREVIEWVID:;
#JACKET:Unscrupulous Cheers (Mine Laru)-jacket.png;
#CDIMAGE:;
#DISCIMAGE:;
#BGCHANGES:8.000=Unscrupulous Cheers (Mine Laru).avi=1.000=0=0=0=StretchNoLoop==CrossFade_Faster==,
99999.000=-nosongbg-=1.000=0=0=0=StretchNoLoop====
;
#FGCHANGES:;

//--------------- dance-single - Pruz ----------------
#NOTEDATA:;
#STEPSTYPE:dance-single;
#DESCRIPTION:Pruz;
#DIFFICULTY:Beginner;
#METER:3;
#RADARVALUES:0.117213,0.161357,0,0.17683,0,116,116,0,25,0,0,0,0,0,0.117213,0.161357,0,0.17683,0,116,116,0,25,0,0,0,0,0;
#CHARTNAME:Pruz;
#CHARTSTYLE:;
#CREDIT:Pruz;
#NOTES:
0000
0000
0000
0000
,
0000
0000
0000
0000
,
1000
0000
1000
0000
,
0020
0000
0000
0030
0000
0000
0000
0000
,
1000
0000
1000
0000
,
0002
0000
0000
0003
0000
0000
0000
0000
,
0010
0000
0010
0000
,
0200
0000
0000
0300
0000
0000
0000
0000
,
0010
0000
0010
0000
,
0001
0000
1000
0000
,
0002
0000
0000
0000
,
0100
0000
0100
0000
,
1000
0000
0000
0000
,
0010
0000
0010
0003
,
2000
0000
0000
0000
,
0100
0000
0100
0000
,
0001
0000
0000
0000
,
3010
0000
0000
0000
,
1000
0000
0000
0000
,
0100
0000
0000
0000
,
0010
0000
0000
0001
,
0000
0000
0000
0000
,
1000
0000
0000
0000
,
0010
0000
0000
0000
,
0100
0000
0000
0001
,
0000
0000
0000
0000
,
1000
0000
1000
0000
,
1000
0000
0001
0000
,
0020
0000
0000
0030
,
0000
0000
0000
0000
,
0001
0000
0001
0000
,
0200
0000
0000
0300
0000
0000
0000
0000
,
0001
0000
0001
0000
,
2000
0000
0000
3000
0000
0000
0000
0000
,
0010
0000
0010
0000
,
0200
0000
0000
0300
0000
0000
0000
0000
,
0010
0000
0010
0000
,
1000
0000
0001
0000
,
2000
0000
0000
0000
,
0100
0000
0100
0000
,
0001
0000
0000
0000
,
0010
0000
0010
3000
,
0002
0000
0000
0000
,
0100
0000
0100
0000
,
1000
0000
0000
0000
,
0013
0000
0000
0000
,
0001
0000
0000
0000
,
0100
0000
0000
0000
,
0010
0000
0000
1000
,
0000
0000
0000
0000
,
0001
0000
0000
0000
,
0010
0000
0000
0000
,
0100
0000
0000
1000
,
0000
0000
0000
0000
,
0001
0000
0001
0000
,
0001
0000
1000
0000
,
0020
0000
0000
0030
,
0000
0000
0000
0000
,
2000
0000
3000
0000
,
0002
0000
0003
0000
,
0020
0000
0030
0000
,
0000
0000
0002
0000
0000
0003
0000
0000
,
2000
0000
3000
0000
,
0002
0000
0003
0000
,
0200
0000
0300
0000
,
0000
0000
0002
0000
0000
0003
0000
0000
,
0000
0000
0000
0000
,
0000
0000
1000
0000
,
0000
0000
0100
0000
,
0000
0000
0010
0000
,
0000
0001
0000
0000
,
0000
0000
1000
0000
,
0000
0000
0010
0000
,
0000
0000
0100
0000
,
0000
0001
0000
0000
,
0000
0000
1000
0000
,
1000
0000
1000
0000
,
0001
0000
0020
0000
,
0000
0030
0000
0100
,
0000
0000
1000
0000
,
1000
0000
1000
0000
,
0001
0000
0020
0000
,
0000
0030
0000
0100
,
0000
0000
1000
0000
,
1000
0000
0000
0000
0020
0000
0000
0030
,
0000
0000
1000
0000
,
1000
0000
0000
0000
0002
0000
0000
0003
,
0000
0000
0010
0000
,
0010
0000
0000
0000
0200
0000
0000
0300
,
0000
0000
0010
0000
,
0010
0000
0001
0000
,
1000
0001
0000
0000
;

//--------------- dance-single - Pruz ----------------
#NOTEDATA:;
#STEPSTYPE:dance-single;
#DESCRIPTION:Pruz;
#DIFFICULTY:Easy;
#METER:6;
#RADARVALUES:0.224321,0.290841,0,0.190976,0,222,222,0,27,0,0,0,0,0,0.224321,0.290841,0,0.190976,0,222,222,0,27,0,0,0,0,0;
#CHARTNAME:Pruz;
#CHARTSTYLE:;
#CREDIT:Pruz;
#NOTES:
0000
0000
0000
0000
,
0000
0000
0000
0000
,
1000
0000
0000
0010
0000
0000
0000
0000
,
0100
0000
0000
0001
0000
0000
0000
0000
,
1000
0000
0000
0100
0000
0000
0000
0000
,
0010
0000
0000
0001
0000
0000
0000
0000
,
1000
0000
0000
0010
0000
0000
0000
0000
,
0100
0000
0000
0001
0000
0000
0000
0000
,
1000
0000
0000
0100
0000
0000
0000
0000
,
0010
0000
0000
0001
0000
0000
0000
0000
,
1000
0000
0001
0000
,
0200
0000
0000
0300
0000
0000
0000
0000
,
0001
0000
1000
0000
,
0200
0000
0000
0300
0000
0000
1000
0000
,
0001
0000
1000
0000
,
0200
0000
0000
0300
0000
0000
0000
0000
,
1000
0000
0001
0000
,
0010
0000
0000
0000
,
0001
1000
0010
0010
,
1000
0001
0010
0010
,
0100
1000
0001
0200
,
0000
0300
0001
1000
,
0010
0010
1000
0001
,
0010
0010
0100
1000
,
0001
0100
0001
2000
,
0000
3010
0000
0000
0200
0000
0301
0000
,
2000
0000
0000
3000
0200
0000
0000
0300
,
0020
0000
0000
0030
0001
0000
1000
0000
,
0001
0000
0010
0000
,
0100
0000
1000
0001
,
1000
0000
0000
0010
0000
0000
0000
0000
,
0100
0000
0000
0001
0000
0000
0000
0000
,
1000
0000
0000
0100
0000
0000
0000
0000
,
0010
0000
0000
0001
0000
0000
0000
0000
,
1000
0000
0000
0010
0000
0000
0000
0000
,
0100
0000
0000
0001
0000
0000
0000
0000
,
1000
0000
0000
0100
0000
0000
0000
0000
,
0010
0000
0000
0001
0000
0000
0000
0000
,
1000
0000
0001
0000
,
0020
0000
0000
0030
0000
0000
0000
0000
,
0001
0000
1000
0000
,
0020
0000
0000
0030
0000
0000
1000
0000
,
0001
0000
0100
0000
,
0020
0000
0000
0030
0000
0000
0000
0000
,
1000
0000
0001
0000
,
0010
0000
0000
0000
,
0001
1000
0100
0100
,
1000
0001
0100
0100
,
0010
1000
0001
0020
,
0000
0030
0001
1000
,
0100
0100
1000
0001
,
0100
0100
0010
1000
,
0001
0010
0001
2000
,
0000
3010
0000
0000
0200
0000
0301
0000
,
2000
0000
0000
3000
0200
0000
0000
0300
,
0020
0000
0000
0030
0001
0000
1000
0000
,
0001
0000
0010
0000
,
0100
0000
1000
0001
,
1000
0000
0000
0000
0010
0000
0000
1000
,
0000
0001
1000
0100
,
0010
0000
0000
0000
0001
0000
0000
0010
,
0000
0000
0100
0000
0000
1000
0000
0000
,
0001
0000
0000
0000
0010
0000
0000
0001
,
0000
1000
0001
0100
,
0010
0000
0000
0000
1000
0000
0000
0010
,
0000
0000
0100
0000
0000
0001
0000
0000
,
0000
0000
0000
0000
,
0000
0000
1000
0001
,
0000
0010
0000
0000
0001
0000
1000
0000
,
0000
0010
0000
0000
0100
0000
0001
0000
,
1000
0200
0000
0300
,
1000
0001
0010
0010
,
0001
1000
0010
0010
,
0100
0001
1000
0100
,
1000
0000
0002
0000
0000
0013
0000
0000
,
0200
0000
1300
0000
0002
0000
0000
0003
,
0200
0000
0000
0300
0020
0000
0000
0030
,
1000
0001
1000
0000
,
0010
0000
0100
0000
,
0001
0000
1000
0000
0002
0000
0000
0003
,
0020
0000
0000
0030
0200
0000
0000
0300
,
1000
0001
1000
0000
,
0100
0000
0010
0000
,
0001
0000
1000
0000
0001
0000
0000
0010
,
0000
0000
0000
0000
0100
0000
0000
1000
,
0000
0000
0000
0000
0001
0000
0000
0100
,
0000
0000
0000
0000
0010
0000
0000
1000
,
0000
0000
0000
0000
0001
0000
0000
0010
,
0000
0000
0000
0000
0100
0000
0000
1000
,
0000
0000
0000
0000
0001
0000
0000
0100
,
0000
0000
0000
0000
0010
0000
0000
1000
,
0000
0000
0000
0001
0000
0000
0000
0000
;

//--------------- dance-single - Pruz ----------------
#NOTEDATA:;
#STEPSTYPE:dance-single;
#DESCRIPTION:Pruz;
#DIFFICULTY:Medium;
#METER:9;
#RADARVALUES:0.393067,0.387787,0.15561,0.558782,0,389,367,22,79,0,0,0,0,0,0.393067,0.387787,0.15561,0.558782,0,389,367,22,79,0,0,0,0,0;
#CHARTNAME:Pruz;
#CHARTSTYLE:;
#CREDIT:Pruz;
#NOTES:
0000
0000
0000
0000
,
0000
0000
0000
0000
,
1000
0001
0000
1000
0100
0000
0010
0001
,
2000
3000
0000
0002
0000
0003
1000
0000
,
0010
0100
0000
0001
0000
1000
0000
0000
,
0200
1300
0000
0002
0000
1003
0000
0100
,
1000
0001
0000
1000
0100
0000
0010
0001
,
2000
3000
0000
0002
0000
0003
1000
0000
,
0010
0100
0000
0001
0000
1000
0000
0000
,
0200
1300
0000
0002
0000
1003
0001
0000
,
0200
0000
0310
0000
,
1000
0001
0000
1000
0002
0000
0003
0000
,
0200
0000
0310
0000
,
1000
0001
0000
1000
0001
0000
0010
0000
,
0100
0010
0000
0100
0010
0000
0000
0000
,
0002
1003
0000
0002
1003
0000
0010
0000
,
0100
0001
0000
0100
0001
0000
1000
0000
,
0200
1300
0000
0100
0010
0000
0001
0000
,
1000
1100
0100
0010
,
0001
1001
1000
0010
,
0100
0101
0001
1002
,
2003
3001
0010
0100
,
1000
1100
0100
0010
,
0001
1001
1000
0010
,
0100
0101
0001
1002
,
2003
0000
3001
0000
0020
0000
0030
0100
,
2000
0000
3000
0001
0200
0000
0300
0010
,
2000
0000
3000
0001
0020
0000
0031
2000
,
0000
3002
0203
0310
,
1000
0100
0010
0001
,
1000
0001
0000
1000
0100
0000
0010
0001
,
2000
3000
0000
0002
0000
0003
1000
0000
,
0010
0100
0000
0001
0000
1000
0000
0000
,
0200
1300
0000
0002
0000
1003
0000
0100
,
1000
0001
0000
1000
0100
0000
0010
0001
,
2000
3000
0000
0002
0000
0003
1000
0000
,
0010
0100
0000
0001
0000
1000
0000
0000
,
0200
1300
0000
0002
0000
1003
0001
0000
,
0200
0000
0310
0000
,
1000
0001
0000
1000
0002
0000
0003
0000
,
0200
0000
0310
0000
,
1000
0001
0000
1000
0001
0000
0020
0000
,
0130
0010
0000
0100
0010
0000
0000
0000
,
0002
1003
0000
0002
1003
0000
0010
0000
,
0100
0001
0000
0100
0001
0000
1000
0000
,
0200
1300
0000
0100
0010
0000
0001
0000
,
1000
1100
0100
0010
,
0001
1001
1000
0010
,
0100
0101
0001
1002
,
2003
3001
0010
0100
,
1000
1100
0100
0010
,
0001
1001
1000
0010
,
0100
0101
0001
1002
,
2003
0000
3001
0000
0010
0000
0000
0100
,
2000
0000
3000
0001
0200
0000
0300
0010
,
2000
0000
3000
0001
0020
0000
0031
2000
,
0000
3002
0203
0310
,
1000
0100
0010
0001
,
1000
0000
0000
0100
1000
0000
0000
0001
,
1000
0010
0100
0001
,
1000
0000
0000
0100
1000
0001
0000
1000
,
0001
1000
0100
0010
,
0001
0000
0000
0100
0001
0000
0000
1000
,
0001
0010
0100
1000
,
0001
0000
0000
0100
0001
1000
0000
0001
,
1000
0000
0100
0000
0000
1000
0000
0000
,
0000
0000
0000
0000
,
0000
0000
0001
1000
,
0010
1000
0001
0100
,
0010
1000
0100
1100
,
1000
1001
0002
2003
,
3020
0130
0001
0101
,
0100
0010
1000
1001
,
0001
0010
0100
1100
,
1000
1002
2003
3001
,
0020
0000
0030
0100
2000
0000
3000
0001
,
0200
0000
0300
0010
2000
0000
3000
0001
,
0020
0000
0031
2000
0000
0000
3002
0000
,
0203
0310
1000
0100
,
0010
0000
0001
1000
0020
0000
0030
1000
,
0002
0000
0003
0010
0002
0000
0003
1000
,
0002
0000
0003
0100
0020
0000
1030
0000
,
0001
1000
0100
0010
,
0002
0000
1003
0000
0001
1000
0000
0001
,
0100
0000
0010
1000
0002
0003
0000
2000
,
0000
3000
0001
0000
0010
0100
0000
1000
,
0000
0001
0000
0000
0200
0301
0000
2000
,
0000
3001
0000
0100
0001
1000
0000
0001
,
0100
0000
0010
1000
0002
0003
0000
2000
,
0000
3000
0001
0000
0010
0100
0000
1000
,
0000
0001
0000
0000
0200
0301
0000
2000
,
0000
3001
0100
0100
0000
0000
0000
0000
;

//--------------- dance-single - Pruz ----------------
#NOTEDATA:;
#STEPSTYPE:dance-single;
#DESCRIPTION:Pruz;
#DIFFICULTY:Hard;
#METER:12;
#RADARVALUES:0.514322,0.51705,0.077805,0.870002,0,509,498,11,123,0,0,0,0,0,0.514322,0.51705,0.077805,0.870002,0,509,498,11,123,0,0,0,0,0;
#CHARTNAME:Pruz;
#CHARTSTYLE:;
#CREDIT:Pruz;
#NOTES:
0000
0000
0000
0000
,
0000
0000
0000
0000
,
2000
3001
0000
0200
0301
1000
0000
0000
,
0020
1030
0000
2000
3001
1000
0001
0000
,
0020
0031
0000
2000
3001
1000
0000
0000
,
0200
1300
0000
2000
3001
1000
0001
0010
,
0200
1300
0000
0002
1003
0010
0000
0000
,
2000
3001
0000
0200
0301
1000
0001
0000
,
0020
0031
0000
0002
1003
0001
0000
0000
,
2000
3010
0000
0200
0301
1000
0001
0001
,
2000
0000
0000
3010
1000
0000
0001
0000
,
2000
3100
0000
0200
0310
0000
0001
0000
,
2000
0000
0000
3001
1000
0000
0010
0000
,
0200
0301
0000
0002
1003
0001
2000
3000
,
0002
0000
0000
0103
0010
0000
2000
3000
,
0002
0013
0000
0020
0130
0000
1000
0000
,
0002
0000
0000
0103
0010
0000
1000
0000
,
0002
1003
0000
0100
1000
0001
0010
0001
,
1000
0000
1001
0000
0001
1000
0010
1000
,
0001
0000
1001
0000
0001
1000
0100
1000
,
0001
0000
0010
0100
1000
0000
0002
0000
,
1003
0001
0100
0001
1000
0000
0010
0100
,
0001
0000
1001
0000
1000
0001
0010
0001
,
1000
0000
1001
0000
0001
1000
0100
1000
,
0001
0000
0010
0100
1000
0000
0002
0000
,
1003
0001
0100
0001
2000
0000
3010
0100
,
0002
0000
0013
0100
2000
0000
3100
0010
,
0002
0000
0103
0010
1000
0001
1000
0010
,
0200
0000
0301
1000
0010
1000
0001
0001
,
2000
0000
3001
1000
0100
1000
0001
0001
,
0200
0301
0000
2000
3001
0100
0000
0000
,
0020
1030
0000
2000
3001
1000
0001
0000
,
0020
0031
0000
2000
3001
1000
0000
0000
,
0200
1300
0000
2000
3001
1000
0001
0010
,
0200
1300
0000
0002
1003
0010
0000
0000
,
2000
3001
0000
0200
0301
1000
0001
0000
,
0020
0031
0000
0002
1003
0001
0000
0000
,
2000
3010
0000
0200
0301
1000
0001
0001
,
2000
0000
0000
3010
1000
0000
0001
0000
,
2000
3100
0000
0200
0310
0000
0001
0000
,
2000
0000
0000
3001
1000
0000
0010
0000
,
0200
0301
0000
0002
1003
0001
2000
3000
,
0002
0000
0000
0103
0010
0000
2000
3000
,
0002
0013
0000
0020
0130
0000
1000
0000
,
0002
0000
0000
0103
0010
0000
1000
0000
,
0002
1003
0000
1000
0100
0010
0001
1000
,
0001
0000
1001
0000
1000
0001
0010
0001
,
1000
0000
1001
0000
0001
1000
0010
1000
,
0001
0000
1000
0100
0010
0000
0002
0000
,
1003
0001
0100
0001
1000
0000
0010
0100
,
0001
0000
1001
0000
1000
0001
0010
0001
,
1000
0000
1001
0000
0001
1000
0010
1000
,
0001
0000
1000
0100
0010
0000
0002
0000
,
1003
0001
0100
0001
2000
0000
3100
0010
,
0002
0000
0103
0010
2000
0000
3010
0100
,
0002
0000
0013
0100
1000
0001
1000
0100
,
0020
0000
0031
1000
0100
1000
0001
0001
,
1000
0000
0001
1000
0010
1000
0001
0001
,
0200
0300
0000
0010
1000
0000
2000
3002
,
0003
0000
2000
3000
0200
0300
0020
0030
,
0002
0003
0000
1000
0001
0100
0000
0200
,
0310
0000
2000
3000
0001
2000
3000
1000
,
0200
0300
0000
0010
0001
0000
0001
2000
,
3000
0000
0002
0003
0200
0300
0020
0030
,
2000
3000
0000
0001
1000
0100
0000
0200
,
0310
0000
0002
0003
1000
0002
0003
0000
,
0000
0000
0000
0000
,
0000
0000
1000
0200
,
1300
0001
0000
0001
1000
0000
0020
0000
,
1030
0001
0000
0001
1000
0000
0100
0000
,
1000
0000
0002
0000
1003
0001
1000
0100
,
1000
0001
0010
0001
1000
0000
1001
0000
,
0001
1000
0010
1000
0001
0000
1001
0000
,
0001
1000
0100
1000
0001
0000
0010
0100
,
1000
0000
0002
0000
1003
0001
0010
0001
,
2000
0000
3010
0100
0002
0000
0013
0100
,
2000
0000
3100
0010
0002
0000
0103
0010
,
1000
0001
0010
0001
2000
0000
3010
0100
,
0001
0000
1001
0000
1000
0001
0010
0001
,
2000
0000
3100
0010
0002
0000
0103
0010
,
2000
0000
3100
0010
0002
0000
0103
0010
,
2000
0000
3100
0010
0002
0000
1003
0001
,
0010
0001
1000
1000
0001
0000
1000
0001
,
0100
0001
1000
1000
0002
1003
0000
0200
,
1300
0001
0000
0000
0020
0031
0000
0002
,
1003
0001
1000
0000
0020
1030
0000
0002
,
1003
0001
0000
0000
0200
0301
0000
0002
,
1003
0001
1000
0010
0200
0301
0000
2000
,
3001
0010
0000
0000
0002
1003
0000
0200
,
1300
0001
1000
0000
0020
1030
0000
2000
,
3001
1000
0000
0000
0002
0013
0000
0200
,
1300
0001
0100
0100
0000
0000
0000
0000
;

//--------------- dance-single - Pruz ----------------
#NOTEDATA:;
#STEPSTYPE:dance-single;
#DESCRIPTION:Pruz;
#DIFFICULTY:Challenge;
#METER:13;
#RADARVALUES:0.652754,0.646312,0.17683,1.068051,0.063659,646,621,25,151,0,0,0,0,0,0.652754,0.646312,0.17683,1.068051,0.063659,646,621,25,151,0,0,0,0,0;
#CHARTNAME:Pruz;
#CHARTSTYLE:;
#CREDIT:Pruz;
#NOTES:
0000
0000
0000
0000
,
0000
0000
0000
0000
,
0002
1003
0000
0002
0013
0001
1000
0000
,
0200
0310
0010
0002
1003
0001
0100
0000
,
0020
1030
0000
0002
1003
0001
0100
0000
,
0020
0000
1030
0000
0000
0000
0002
0000
0103
0001
0100
0000
0010
0000
1000
0000
,
0002
1003
0000
0002
0013
0001
1000
0000
,
0200
0310
0010
0002
1003
0001
0100
0000
,
0020
1030
0000
0002
1003
0001
0100
0000
,
0020
0000
1030
0000
0000
0000
0002
0000
0103
0001
0100
0000
0010
0000
0010
0000
,
0100
0000
0001
0000
1000
0000
0001
1000
0010
0000
1000
0000
0001
0000
0100
0000
,
0020
2030
3000
0002
2003
3000
0100
1000
,
0001
0010
0100
1000
0001
1000
0100
0010
,
0002
2003
3000
0002
0023
0030
0200
1300
,
0001
0100
0010
1000
0001
1000
0100
0010
,
0002
2003
3000
0002
0203
0300
0001
1000
,
0100
0010
0001
1000
0001
0100
0010
1000
,
0002
0023
0030
0001
1000
0010
0100
0001
,
1000
0000
1100
0000
0100
0010
0001
1000
,
0001
0000
0101
0000
0100
0010
1000
0001
,
2000
3000
2020
3030
0220
0330
0202
0303
,
0001
1000
0100
1000
0001
0010
0100
1000
,
0001
0000
0101
0000
0100
0010
1000
0001
,
1000
0000
1100
0000
0100
0010
0001
1000
,
0002
0003
0022
0033
0220
0330
2200
3300
,
1000
0000
0001
0000
0100
0000
0001
0000
1000
0000
0010
0000
0100
0001
1000
0000
,
0002
0013
0001
1000
0200
1300
0001
0010
,
0200
1300
0001
1000
0020
0130
0001
2000
,
3001
0010
0100
0100
1000
0100
0010
0010
,
0001
1000
0100
1000
0001
0010
0100
0100
,
2000
3001
0001
2000
3010
1000
1000
0001
,
0200
0301
0001
2000
3010
1000
0001
0001
,
0200
0301
0001
2000
3010
0010
1000
0001
,
0200
0000
0301
0000
0001
0000
1000
0000
0010
1000
0001
0000
1000
0000
0100
0000
,
2000
3001
0001
2000
3100
0010
0010
0001
,
2000
3001
0001
0020
0031
0001
1000
1000
,
0200
0310
0010
0002
0013
0010
0100
1000
,
0200
0310
0010
0002
1003
1000
0001
0010
,
0100
0000
1000
0000
0001
0000
1000
0001
0010
0000
0001
0000
1000
0000
0100
0000
,
0020
0032
0003
2000
3002
0003
0100
0001
,
1000
0010
0100
0001
1000
0001
0100
0010
,
2000
3002
0003
2000
3020
0030
0200
0301
,
1000
0100
0010
0001
1000
0001
0100
0010
,
2000
3002
0003
2000
3200
0300
1000
0001
,
0100
0010
1000
0001
1000
0100
0010
0001
,
2000
3020
0030
1000
0001
0010
0100
1000
,
0001
0000
0101
0000
0100
0010
1000
0001
,
1000
0000
1100
0000
0100
0010
0001
1000
,
0002
0003
0022
0033
0220
0330
2200
3300
,
1000
0001
0100
0001
1000
0010
0100
0001
,
1000
0000
1100
0000
0100
0010
0001
1000
,
0001
0000
0101
0000
0100
0010
1000
0001
,
2000
3000
2020
3030
0220
0330
0202
0303
,
0001
0000
1000
0000
0100
0000
1000
0000
0001
0000
0010
0000
0100
1000
0001
0000
,
2000
3010
1000
0001
0200
0301
1000
0010
,
0200
0301
1000
0001
0020
0130
1000
0002
,
1003
0010
0100
0100
0001
0100
0010
0010
,
1000
0000
0001
0000
0100
0000
0001
1000
0010
0000
0100
0000
0010
0000
0010
0000
,
2000
3001
1000
0100
0010
0010
0002
2003
,
3001
0000
0200
0310
2000
3000
0002
1003
,
0020
0030
0100
0010
1000
0001
0000
2000
,
3100
0000
0020
0031
1000
0002
0003
0100
,
0020
1030
0010
0100
0001
1000
0100
0020
,
0030
0001
2000
3100
0020
0031
2000
3010
,
0200
0301
1000
0000
0100
0010
0000
0002
,
1003
0000
0002
0103
0010
2000
3000
0000
,
0000
0000
0000
0000
,
0000
0000
0001
0200
,
0301
1000
0100
1000
0001
0000
0020
0000
,
0031
1000
0010
1000
0001
0000
0100
0100
,
0010
0000
0000
0000
1000
0000
1000
0000
0001
0000
1000
0000
0100
1000
0100
0000
,
0010
0000
0001
0000
1000
0001
1000
0000
0010
0000
0000
0000
0110
0000
0000
0000
,
0100
0001
1000
0010
0100
0000
0101
0000
,
0001
1000
0100
0010
0002
0003
0202
0303
,
0220
0000
0330
0000
1020
0000
1030
0000
0000
0000
0001
1000
0001
0000
0010
0000
,
0100
1000
0100
0000
0010
0001
0010
0000
0002
0000
1003
0000
0100
0000
0000
0000
,
2000
3001
0100
0000
0020
1030
0001
0000
,
0020
0031
1000
0100
0010
0000
0001
1000
,
0001
0000
0000
0000
0100
0000
0010
0000
1000
0000
0001
0000
1000
0000
0100
0010
,
0100
0000
0010
0001
0010
0000
0001
0000
2000
0000
3100
0000
1000
0000
0001
0000
,
0020
0031
1000
0100
0020
0031
1000
0001
,
0200
0310
1000
0001
2000
3100
0010
0010
,
0001
0000
0010
0000
0100
0000
0100
0000
1000
0000
0001
0000
0010
0000
0001
1000
,
0100
0010
0100
0100
2000
3001
0000
2000
,
3010
1000
0001
0000
0200
0310
0010
2000
,
3001
1000
0100
0000
0020
0031
0000
2000
,
3001
1000
0100
0000
0020
0031
0000
2000
,
3100
1000
0100
0000
0010
0000
0001
0000
2000
0000
3001
0000
0000
0000
2000
0000
,
3010
1000
0001
0000
0200
0310
0010
2000
,
3001
1000
0100
0000
0020
0031
0000
2000
,
3001
1000
0010
0000
0200
0301
0000
2000
,
3100
1000
0100
0000
0010
0000
0010
0000
0000
0000
0000
0000
0000
0000
0000
0000
;
