#VERSION:0.83;
#TITLE:U;
#SUBTITLE:;
#ARTIST:millennium parade;
#TITLETRANSLIT:;
#SUBTITLETRANSLIT:;
#ARTISTTRANSLIT:;
#GENRE:Anime;
#ORIGIN:;
#TAGS:;
#CREDIT:;
#BANNER:U.png;
#BACKGROUND:U-bg.png;
#PREVIEWVID:;
#JACKET:U-jacket.png;
#CDIMAGE:;
#DISCIMAGE:;
#LYRICSPATH:;
#CDTITLE:;
#MUSIC:U.ogg;
#OFFSET:-0.344000;
#SAMPLESTART:50.344002;
#SAMPLELENGTH:12.000000;
#SELECTABLE:YES;
#BPMS:0.000000=120.000000;
#STOPS:;
#DELAYS:;
#WARPS:;
#TIMESIGNATURES:0.000000=4=4;
#TICKCOUNTS:0.000000=4;
#COMBOS:0.000000=1;
#SPEEDS:0.000000=1.000000=0.000000=0;
#SCROLLS:0.000000=1.000000;
#FAKES:;
#LABELS:0.000000=Song Start;
#LASTSECONDHINT:144.0000;
#BGCHANGES:0.000=U.avi=1.000=1=0=1===CrossFade==,
99999=-nosongbg-=1.000=0=0=0 // don't automatically add -songbackground-
;
#KEYSOUNDS:;
#ATTACKS:
;

//---------------dance-single - Pruz----------------
#NOTEDATA:;
#CHARTNAME:Pruz;
#STEPSTYPE:dance-single;
#BANNER:;
#DESCRIPTION:Pruz;
#CHARTSTYLE:;
#DIFFICULTY:Beginner;
#METER:3;
#METERF:0.000000;
#RADARVALUES:0.096525,0.125676,0.094595,0.040541,0.000000,100.000000,86.000000,14.000000,6.000000,0.000000,0.000000,0.000000,0.000000,0.000000,0.096525,0.125676,0.094595,0.040541,0.000000,100.000000,86.000000,14.000000,6.000000,0.000000,0.000000,0.000000,0.000000,0.000000;
#CREDIT:Pruz;
#NOTES:
// measure 0
0000
0000
0000
0000
,  // measure 1
0000
0000
0000
0000
,  // measure 2
0000
0000
0000
0000
,  // measure 3
0000
0000
0000
0000
,  // measure 4
0000
0000
0000
0000
,  // measure 5
0000
0000
0000
0000
,  // measure 6
0000
0000
0000
0000
,  // measure 7
0000
0000
0000
0000
,  // measure 8
1001
0000
0000
0000
,  // measure 9
1000
0000
0000
0000
,  // measure 10
0010
0000
0000
0000
,  // measure 11
0010
0000
0000
0000
,  // measure 12
0110
0000
0000
0000
,  // measure 13
0100
0000
0000
0000
,  // measure 14
0001
0000
0000
0000
,  // measure 15
1000
0000
0000
0000
,  // measure 16
1001
0000
1000
0000
,  // measure 17
0001
0000
0001
0000
,  // measure 18
0010
0000
0000
0000
,  // measure 19
0001
0000
0000
0000
,  // measure 20
1001
0000
1000
0000
,  // measure 21
0001
0000
0001
0000
,  // measure 22
0010
0000
0000
0000
,  // measure 23
0001
0000
0000
0000
,  // measure 24
1001
0000
1000
0000
,  // measure 25
0100
0000
0000
0000
,  // measure 26
0010
0000
0010
0000
,  // measure 27
0002
0000
0003
0000
,  // measure 28
1001
0000
1000
0000
,  // measure 29
0010
0000
0000
0000
,  // measure 30
0100
0000
0100
0000
,  // measure 31
0002
0000
0003
0000
,  // measure 32
1001
0000
1000
0000
,  // measure 33
0000
0000
0010
0000
,  // measure 34
0010
0000
0000
0000
,  // measure 35
1000
0000
0001
0000
,  // measure 36
1001
0000
0001
0000
,  // measure 37
0000
0000
0010
0000
,  // measure 38
0010
0000
0000
0000
,  // measure 39
0001
0000
1000
0000
,  // measure 40
1001
0000
0000
0001
,  // measure 41
0100
0000
0000
0100
,  // measure 42
0010
0000
0000
0010
,  // measure 43
1000
0000
0000
1000
,  // measure 44
0002
0000
0000
0003
,  // measure 45
2000
0000
0000
3100
,  // measure 46
1001
0000
0000
0000
,  // measure 47
0001
0000
0010
0100
,  // measure 48
0010
0000
0000
0000
,  // measure 49
0001
0000
2000
3001
,  // measure 50
1001
0000
0000
0000
,  // measure 51
1000
0000
0010
0100
,  // measure 52
0010
0000
0000
0000
,  // measure 53
1000
0000
0002
1003
,  // measure 54
1001
0000
0000
0000
,  // measure 55
0001
0000
0000
0001
,  // measure 56
0010
0000
0000
0000
,  // measure 57
0100
0000
1000
0001
,  // measure 58
1001
0000
0000
0000
,  // measure 59
0001
0000
0000
0001
,  // measure 60
0100
0000
0000
0000
,  // measure 61
0010
0000
1000
0001
,  // measure 62
1001
0000
0000
0000
;

//---------------dance-single - Pruz----------------
#NOTEDATA:;
#CHARTNAME:Pruz;
#STEPSTYPE:dance-single;
#BANNER:;
#DESCRIPTION:Pruz;
#CHARTSTYLE:;
#DIFFICULTY:Easy;
#METER:5;
#METERF:0.000000;
#RADARVALUES:0.150579,0.209459,0.114865,0.006757,0.000000,156.000000,139.000000,17.000000,1.000000,0.000000,0.000000,0.000000,0.000000,0.000000,0.150579,0.209459,0.114865,0.006757,0.000000,156.000000,139.000000,17.000000,1.000000,0.000000,0.000000,0.000000,0.000000,0.000000;
#CREDIT:Pruz;
#NOTES:
0000
0000
0000
0000
,
0000
0000
0000
0000
,
0000
0000
0000
0000
,
0000
0000
0000
0000
,
0000
0000
0000
0000
,
0000
0000
0000
0000
,
0000
0000
0000
0000
,
0000
0000
0000
0000
,
1001
0000
0000
0001
0000
0000
1000
0000
,
0010
0000
0000
0010
0000
0000
1000
0000
,
0001
0000
0000
0001
0000
0000
0010
0000
,
0100
0000
0000
0100
0000
0000
1000
0000
,
1001
0000
0000
0001
0000
0000
1000
0000
,
0100
0000
0000
0100
0000
0000
1000
0000
,
1001
0000
0000
0001
0000
0000
1000
0000
,
0010
0000
0000
0010
0000
0000
1000
0000
,
1001
0000
0000
0001
0000
0000
0000
0000
,
1000
0000
0000
1000
0000
0000
0001
0000
,
0010
0000
0000
0010
0000
0000
0000
0000
,
0100
0000
0000
0100
0000
0000
0010
0000
,
0011
0000
0000
0001
0000
0000
0000
0000
,
1000
0000
0000
1000
0000
0000
0010
0000
,
0100
0000
0000
0100
0000
0000
0000
0000
,
0010
0000
0000
0010
0000
0000
1000
0000
,
1001
0000
0001
0000
,
1000
0000
0010
0100
,
0001
0000
0001
0000
,
1000
0000
1000
0000
,
0001
0000
1000
0000
,
0001
0000
0010
0100
,
1000
0000
1000
0000
,
0001
0000
0001
0000
,
1001
0000
1000
0000
,
0010
0000
0100
0001
,
1000
0000
1000
0000
,
0100
0000
0100
0000
,
1000
0000
1000
0000
,
0001
0000
0001
0010
,
0100
0000
0100
0000
,
1000
0000
0001
0000
,
1001
0000
1000
0000
,
0001
0000
0010
0000
,
0001
0000
0001
0000
,
1000
0000
0010
0000
,
0200
0000
0000
0000
,
0000
0000
0000
0000
0000
0300
0001
0000
,
1001
0000
0000
0001
0000
0000
0010
0000
,
0100
0000
0000
0100
0000
0000
1000
0000
,
0001
0000
0000
0010
0000
0000
0001
0000
,
1000
0000
0000
0010
0000
0000
1000
0000
,
1001
0000
0000
0001
0000
0000
0100
0000
,
0010
0000
0000
0010
0000
0000
1000
0000
,
0001
0000
0000
0100
0000
0000
0001
0000
,
1000
0000
0000
0100
0000
0000
1000
0000
,
1001
0000
0000
0001
0000
1001
0000
0011
,
0000
0000
0000
0001
0000
0000
1000
0000
,
0001
0000
0000
0010
0000
0000
0100
0000
,
1000
0000
0000
0001
0000
0000
1000
0000
,
1001
0000
0000
0001
0000
1001
0000
1010
,
0000
0000
0000
1000
0000
0000
0001
0000
,
1000
0000
0000
0100
0000
0000
0010
0000
,
0001
0000
0000
1000
0000
0000
0001
0000
,
1001
0000
0000
0000
;

//---------------dance-single - Pruz----------------
#NOTEDATA:;
#CHARTNAME:Pruz;
#STEPSTYPE:dance-single;
#BANNER:;
#DESCRIPTION:Pruz;
#CHARTSTYLE:;
#DIFFICULTY:Medium;
#METER:9;
#METERF:0.000000;
#RADARVALUES:0.329151,0.356799,0.101351,0.459459,0.162162,341.000000,326.000000,15.000000,68.000000,0.000000,0.000000,0.000000,0.000000,0.000000,0.329151,0.356799,0.101351,0.459459,0.162162,341.000000,326.000000,15.000000,68.000000,0.000000,0.000000,0.000000,0.000000,0.000000;
#CREDIT:Pruz;
#NOTES:
0000
0000
0000
0000
,
0000
0000
0000
0000
,
0000
0000
0000
0000
,
0000
0000
0000
0000
,
0000
0000
0000
0000
,
0000
0000
0000
0000
,
0000
0000
0000
0000
,
0000
0000
0000
0000
,
2001
0000
0000
3001
0000
0001
0010
0000
,
0100
0000
0000
0100
0000
1000
0001
0000
,
0020
0000
0000
0130
0000
0100
1000
0000
,
0001
0000
0000
0001
0000
1000
0100
0000
,
0020
0000
0000
0032
0000
0000
1003
0000
0000
0000
0001
0000
1000
0000
0000
0000
,
0020
0000
0000
2030
0000
0000
3001
0000
0000
0000
1000
0000
0001
0000
0000
0000
,
0200
0000
0000
0302
0000
0000
2003
0000
0000
0000
3010
0000
0200
0000
0000
0000
,
0320
0000
0000
2030
0000
0000
3001
0000
0000
0000
0010
0000
0100
0000
0000
0000
,
1002
0000
0000
1003
0000
0000
1000
0000
0000
0000
0001
0000
0010
0000
0100
0000
,
1000
0000
0000
1000
0000
0000
1000
0000
0000
0000
0001
0000
0100
0000
0010
0000
,
0100
0000
0000
0100
0000
0000
0100
0000
0000
0000
0001
0000
1000
0000
0010
0000
,
0100
0000
0000
0100
0000
0000
0100
0000
0000
0000
0001
0000
1000
0000
0001
0000
,
1002
0000
0000
1003
0000
0000
1000
0000
0000
0000
0001
0000
0100
0000
0010
0000
,
1000
0000
0000
1000
0000
0000
1000
0000
0000
0000
0001
0000
0010
0000
0100
0000
,
0010
0000
0000
0010
0000
0000
0010
0000
0000
0000
0001
0000
1000
0000
0100
0000
,
0010
0000
0000
0010
0000
0000
0010
0000
0000
0000
0001
0000
1000
0000
0001
0000
,
1002
0000
0000
0003
1000
0000
0010
0000
1000
0000
0001
0000
0010
0000
0001
0000
,
0100
0000
0000
0100
0000
0000
0100
0000
0020
0000
0030
0000
2000
0000
3000
0000
,
1001
0000
1000
0001
0100
0001
1000
0000
,
0010
0000
0000
0010
0000
0000
0010
0000
2000
0000
3001
0000
1000
0000
0000
0000
,
1001
0000
0001
0010
0001
1000
0010
1000
,
0100
0000
0000
0100
0000
0000
0100
0000
0020
0000
0030
0000
0002
0000
0003
0000
,
1001
0000
0001
1000
0100
1000
0001
0000
,
0010
0000
0000
0010
0000
0000
0010
0000
0001
0000
1000
0000
0001
0000
0000
0000
,
1002
0000
0000
0003
1000
0000
0010
0000
1000
0000
0001
0000
0000
0000
0001
0000
,
0020
0000
0000
0130
0000
0000
0010
0000
0001
0000
1000
0000
0010
0000
0000
0000
,
2000
0000
0000
3000
0001
0000
0010
0000
0001
0000
1000
0000
0000
0000
1000
0000
,
0020
0000
0000
0130
0000
0000
0010
0000
1000
0000
0001
0000
0010
0000
0001
0000
,
1002
0000
0000
0003
1000
0000
0010
0000
1000
0000
0001
0000
0000
0000
0001
0000
,
0200
0000
0000
0310
0000
0000
0100
0000
0001
0000
1000
0000
0100
0000
0000
0000
,
2000
0000
0000
3000
0001
0000
0010
0000
0001
0000
1000
0000
0000
0000
1000
0000
,
0200
0000
0000
0310
0000
0000
0100
0000
1000
0000
0001
0000
0100
0000
0001
0000
,
1000
0000
1000
0000
1000
0000
0000
0001
0000
0000
0010
0000
0001
0000
1000
0000
,
0001
0000
0001
0000
0001
0000
0000
1000
0000
0000
0010
0000
1000
0000
0001
0000
,
0100
0000
0100
0000
0100
0000
0000
0010
0000
0000
0100
0000
0001
0000
1000
0000
,
0010
0000
0000
0010
0000
0000
0010
0000
1000
0000
0001
0000
0010
0000
0001
0000
,
1000
0000
0000
0001
0000
0000
1000
0000
0010
0000
0100
0000
0001
0000
0000
0000
,
1000
0000
0000
0001
0000
0000
2000
0000
3200
0000
0320
0000
0032
0000
0003
0000
,
1002
0000
0000
0003
1000
0000
0001
0000
0010
0000
0001
0000
1000
0000
0100
0000
,
0010
0001
1000
0001
0200
0310
2000
3001
,
1000
0000
0020
0030
0000
0020
0030
0000
0020
0030
1000
0000
0001
0000
0000
0000
,
0010
0000
0010
0100
2000
3010
2000
3000
,
2001
3000
0001
1000
0010
1000
0001
0100
,
0010
1000
0001
1000
0200
0310
0002
1003
,
0001
0000
0020
0030
0000
0020
0030
0000
0020
0030
0001
0000
1000
0000
0000
0000
,
0020
0230
0320
2030
3000
0100
1000
0001
,
1002
0003
1000
0000
0100
0020
0030
0002
,
1003
0000
0000
0010
0000
0000
2000
0000
3001
0000
0000
0000
0200
0000
0301
0000
,
1000
0000
0020
0030
0000
0020
0030
0000
0020
0030
1000
0000
0001
0000
0000
0000
,
1000
0000
0000
0010
0000
0000
1000
0000
0001
0000
0010
0000
0001
0000
1000
0000
,
2001
3000
0001
0000
0010
0200
0300
2000
,
3001
0000
0000
0100
0000
0000
0002
0000
1003
0000
0000
0000
0020
0000
1030
0000
,
0001
0000
0020
0030
0000
0020
0030
0000
0020
0030
0001
0000
1000
0000
0000
0000
,
0001
0000
0000
0010
0000
0000
0001
0000
0001
0000
1000
0000
1000
0000
1001
0000
,
2002
3003
0000
0000
0000
0000
0000
0000
;

//---------------dance-single - Pruz----------------
#NOTEDATA:;
#CHARTNAME:Pruz;
#STEPSTYPE:dance-single;
#BANNER:;
#DESCRIPTION:Pruz;
#CHARTSTYLE:;
#DIFFICULTY:Hard;
#METER:12;
#METERF:0.000000;
#RADARVALUES:0.401544,0.419764,0.067568,0.878378,0.334459,416.000000,406.000000,10.000000,130.000000,0.000000,0.000000,0.000000,0.000000,0.000000,0.401544,0.419764,0.067568,0.878378,0.334459,416.000000,406.000000,10.000000,130.000000,0.000000,0.000000,0.000000,0.000000,0.000000;
#CREDIT:Pruz;
#NOTES:
0000
0000
0000
0000
,
0000
0000
0000
0000
,
0000
0000
0000
0000
,
0000
0000
0000
0000
,
0000
0000
0000
0000
,
0000
0000
0000
0000
,
0000
0000
0000
0000
,
0000
0000
0000
0000
,
0012
0003
0000
0002
0003
0000
0002
0003
0000
0000
1000
0000
0010
0000
0100
0000
,
0002
0003
0000
0002
0003
0000
0002
0003
0000
0000
0010
0000
0100
0000
1000
0000
,
1020
0030
0000
0020
0030
0000
0020
0030
0000
0000
1000
0000
0001
0000
0100
0000
,
0020
0030
0000
0020
0030
0000
0020
0030
0000
0000
0100
0000
0001
0000
1000
0000
,
0200
0300
0000
2000
3000
0000
0002
0003
0000
0000
0100
0000
0010
0000
0100
0000
,
0002
0003
0000
2000
3000
0000
0200
0300
0000
0000
0010
0000
0100
0000
0010
0000
,
0002
0003
0000
2000
3000
0000
0020
0030
0000
0000
0100
0000
0010
0000
0100
0000
,
0002
0003
0000
2000
3000
0000
0200
0300
0000
0000
0010
0000
0001
0000
0000
0000
,
2000
3000
0001
0020
0030
0000
0002
0003
1000
0000
0100
0000
1000
0000
0001
0000
,
0020
0030
0100
2000
3000
0000
0002
0003
0100
0000
0010
0000
1000
0000
0001
0000
,
2000
3000
0000
0002
0013
0000
0002
0003
0000
0000
1000
0000
0100
0000
0010
0000
,
0002
0003
0000
2000
3000
0000
0020
0030
0000
0000
0100
0000
0001
0000
1000
0000
,
0002
0003
1000
0020
0030
0000
2000
3000
0001
0000
0100
0000
0001
0000
1000
0000
,
0020
0030
0100
0002
0003
0000
2000
3000
0100
0000
0010
0000
0001
0000
1000
0000
,
0002
0003
0000
2000
3010
0000
2000
3000
0000
0000
0001
0000
0100
0000
0010
0000
,
2000
3000
0000
0002
0003
0000
0020
0030
0000
0000
0100
0000
1000
0000
0001
0000
,
2000
3000
0000
0200
0300
0000
2000
3000
0100
0000
0010
0000
0001
0000
1000
0000
,
0002
0003
0000
0200
0300
0000
0002
0003
2000
0000
3000
0020
0230
0000
0301
2000
,
3002
0000
0003
0200
0300
0000
0002
0003
0100
0000
0010
0000
1000
0000
0001
0000
,
2000
3000
0000
0200
0300
0000
2000
3000
0002
0000
0023
0000
0230
0000
2300
3002
,
2003
0000
3000
0020
0030
0000
2000
3000
0100
0000
0010
0000
0001
0000
1000
0000
,
0002
0003
0000
0020
0030
0000
0002
0003
2000
0000
3020
0000
0230
0000
0301
2000
,
3002
0000
0003
0020
0030
0000
0002
0003
0100
0000
0010
0000
1000
0000
0001
0000
,
2000
3000
0000
0020
0030
0000
2000
3000
0002
0000
0023
0000
0230
0000
1300
0002
,
2003
0000
3000
0010
0000
0000
0001
0000
0010
0000
0100
0000
0001
0000
1000
0000
,
0020
0000
1030
0100
0000
0000
1000
0000
0001
0000
0010
0000
0100
0000
1000
0000
,
0002
0000
1003
0010
1000
0000
0001
0000
0100
0000
0010
0000
1000
0000
0001
0000
,
2000
0000
3001
0010
0000
0000
0001
0000
1000
0000
0100
0000
0010
0000
0001
1000
,
0002
0000
0003
0010
0000
0000
1000
0000
0010
0000
0100
0000
1000
0000
0001
0000
,
0020
0000
0031
0100
0000
0000
0001
0000
1000
0000
0010
0000
0100
0000
0001
0000
,
2000
0000
3001
0010
0001
0000
1000
0000
0100
0000
0010
0000
0001
0000
1000
0000
,
0002
0000
1003
0010
0000
0000
1000
0000
0001
0000
0100
0000
0010
0000
1000
0001
,
1000
0000
1000
0000
0010
0000
1000
0001
0000
0000
0010
0000
0100
0000
1000
0000
,
0001
0000
0100
0000
1000
0000
0100
0010
0000
0000
1000
0000
0001
0000
0100
0000
,
0001
0000
0001
0000
0010
0000
0001
1000
0000
0000
0010
0000
0100
0000
0001
0000
,
1000
0000
0100
0001
0000
0000
0100
0000
0010
0000
0001
0000
1000
0000
0010
0000
,
0100
0000
0000
0001
0000
0000
0100
0000
0010
0000
1000
0000
0001
0000
0000
0000
,
1000
0000
0000
0010
0000
0000
2000
3002
2003
3000
0200
0300
0020
0000
0030
0000
,
1002
1003
0010
1000
0001
0100
1000
0100
,
0001
1000
0010
0100
0002
0013
0200
1300
,
1001
0000
0000
0001
0010
0000
0001
0000
1000
0000
0100
0000
0001
0000
0100
0000
,
1000
0000
0100
0010
0000
0000
0001
0000
2000
0000
3010
0000
2000
0000
3001
0000
,
1002
1003
0100
1000
0001
0010
1000
0010
,
0001
1000
0100
0010
0002
0103
0020
1030
,
1001
0000
0000
0001
0100
0000
0001
0000
1000
0000
0010
0000
0001
0000
0010
0000
,
2000
3020
0230
0302
1003
0100
1000
0001
,
1002
1003
0010
1000
0001
0200
1300
0200
,
0301
1000
0010
0200
0301
0010
0200
1300
,
0001
1000
0010
1000
0001
0100
1000
0100
,
0001
0000
0100
0010
0000
0000
1000
0000
0001
0000
0010
0000
0001
0000
1000
0000
,
2001
3001
0100
0001
1000
0020
0031
0020
,
1030
0001
0100
0020
1030
0100
0020
0031
,
1001
0000
0000
1000
0100
0000
1000
0000
0001
0000
0010
0000
1000
0000
0010
0000
,
0002
0000
0023
0000
0230
0000
2300
0000
3001
0000
0100
0010
0100
0000
0001
0000
,
2002
3003
0000
0000
0000
0000
0000
0000
;

//---------------dance-single - Pruz----------------
#NOTEDATA:;
#CHARTNAME:Pruz;
#STEPSTYPE:dance-single;
#BANNER:;
#DESCRIPTION:Pruz;
#CHARTSTYLE:;
#DIFFICULTY:Challenge;
#METER:14;
#METERF:0.000000;
#RADARVALUES:0.516409,0.608657,0.121622,0.614865,0.500000,535.000000,517.000000,18.000000,91.000000,0.000000,0.000000,0.000000,0.000000,0.000000,0.516409,0.608657,0.121622,0.614865,0.500000,535.000000,517.000000,18.000000,91.000000,0.000000,0.000000,0.000000,0.000000,0.000000;
#CREDIT:Pruz;
#NOTES:
0000
0000
0000
0000
,
0000
0000
0000
0000
,
0000
0000
0000
0000
,
0000
0000
0000
0000
,
0000
0000
0000
0000
,
0000
0000
0000
0000
,
0000
0000
0000
0000
,
0000
0000
0000
0000
,
1010
0000
0000
1000
0000
0000
0001
0000
0000
0000
1000
0000
0100
0000
0010
0000
,
0001
0000
0000
1000
0000
0000
0010
0000
0000
0000
1000
0000
0001
0000
1000
0000
,
1100
0000
0000
1000
0000
0000
0001
0000
0000
0000
1000
0000
0010
0000
0100
0000
,
0001
0000
0000
0000
0000
0000
0000
0000
0000
1000
0000
0000
0000
0000
0000
0000
0000
0000
0100
0000
0000
0000
0000
0000
0000
0000
0000
0000
0000
0000
1000
0000
0000
0000
0000
0000
0001
0000
1000
0000
0001
0000
1000
0000
0000
0000
0000
0000
,
2001
0000
0000
3002
0023
0000
0031
0000
0000
0000
1000
0000
0100
0000
0010
0000
,
0001
0000
0000
0100
0000
0000
0001
0000
0000
0000
1000
0000
0010
0000
0100
0000
,
0101
0000
0000
0001
0000
0000
2000
0000
0000
0001
0001
0000
3002
0000
1000
0000
,
1000
0000
0100
0100
0000
0000
0100
0000
0000
0000
1000
0000
1003
0000
0000
0000
,
1002
0000
1003
0010
1000
0000
0001
0010
0001
0000
2000
3001
0020
0000
0230
0000
,
1300
0000
0001
0100
0001
0000
1000
0100
1000
0000
0001
0000
0020
0031
2000
3001
,
0020
0000
0000
0031
1000
0000
0010
0000
0000
0000
1000
0000
0001
0000
0100
0000
,
0010
0000
1000
0001
0000
0000
1000
0000
0000
0000
0100
0000
1000
0001
1000
0000
,
2010
0000
3010
1000
0001
0000
0010
0001
1000
0000
0100
1000
0001
0000
0100
0001
,
1000
0000
0010
0100
0001
0000
0010
0100
1000
0000
0002
0000
0203
0302
2003
3001
,
0020
0000
0000
0031
1000
0000
0100
0000
0000
0000
1000
0000
0001
0000
0010
0000
,
0100
0000
1000
0001
0000
0000
0100
0000
0000
0000
0010
0000
1000
0001
0100
0000
,
0201
0000
0301
1000
0010
0000
1000
0000
0001
0000
0020
0000
0032
0000
2003
0000
,
3100
0000
1000
0001
0010
0000
0001
0000
2000
0000
3100
1000
0020
0000
0130
0001
,
0020
0000
0000
0031
1000
0000
0010
0000
1000
0000
0001
0000
0020
0000
0031
0000
,
1000
0000
0100
1000
0000
0000
0001
0000
0010
0000
0100
0000
1000
0000
0001
0000
,
0102
0000
0103
0001
1000
0000
0001
0000
0010
0000
0002
0000
2003
0000
3200
0000
,
1300
0000
0001
0100
0010
0000
1000
0000
0002
0000
0013
0100
2000
0000
3001
0100
,
0020
0000
0000
1030
0001
0000
0010
0000
0001
0000
1000
0000
0100
0000
0010
0000
,
0001
0000
1000
0010
0000
0000
1000
0000
0001
0000
0010
0000
0100
0000
1000
0000
,
2001
0000
0000
3001
0010
0000
0001
0000
1000
0000
0100
0010
0000
0000
0001
0000
,
1000
0000
0010
0100
0000
0000
0001
0000
1000
0010
0000
1000
0000
0001
0000
1000
,
0100
0000
0000
0010
0001
0000
1000
0000
0001
0000
0010
0000
0100
0000
1000
0000
,
0001
0000
1000
0010
0000
0000
1000
0000
0001
0000
0100
0000
0010
0000
1000
0001
,
1000
0000
0100
1000
0000
0000
0001
0000
0010
0000
0001
1000
0100
0000
1000
0001
,
0100
0000
0001
1000
0000
0000
0010
0000
1000
0001
0000
0010
0100
0000
1000
0001
,
1000
0000
0000
0010
1000
0000
0001
0000
0010
0001
1000
0000
0100
0000
0010
0000
,
0001
0000
1000
0001
1000
0000
0010
0000
0100
0000
0001
1000
0001
0000
0100
0000
,
0110
0000
1001
0000
1000
0000
0010
1000
0000
0001
1000
0001
0020
0000
0230
0000
,
1300
0000
0001
1000
0010
0000
1000
0001
0100
0001
1000
0000
0020
0000
0230
0000
,
0301
0000
1000
0000
0010
0000
1000
0001
0000
0010
0001
1000
0002
0000
0203
0000
,
0301
0000
1000
0010
0000
1000
0001
0010
0001
1000
0001
0000
0020
0000
0230
0000
,
1300
0000
0001
0000
0010
0000
0001
1000
0000
0010
1000
0001
1000
0000
0100
0000
,
1000
0000
0001
0010
0000
0001
1000
0010
1000
0001
2000
0000
3020
0000
0030
0000
,
1001
0000
1000
0010
2000
0000
3010
0100
0020
0000
0130
0001
0200
0000
0302
0000
,
2003
0000
3001
0010
0002
0000
1003
0010
2000
0000
3001
0000
2000
3200
0320
0032
,
2003
0000
3002
0000
0003
0020
0000
0030
0002
0000
0103
0010
1000
0000
0001
0000
,
2000
0000
3001
0010
0000
0000
0002
0000
1003
0000
0100
0000
1000
0001
0100
0000
,
1001
0000
0001
0010
0002
0000
0013
0100
0020
0000
0130
1000
0200
0000
2300
0000
,
3002
0000
1003
0010
2000
0000
3001
0010
0002
0000
1003
0000
0002
0203
0320
2030
,
3001
0000
2000
0000
3000
0020
0000
0030
2000
0000
3100
0010
0001
0000
1000
0000
,
0002
0000
1003
0020
0000
0030
2000
0000
3001
0000
0100
0000
0001
1000
0100
0000
,
1002
0000
1003
0001
0010
0000
0001
1000
0100
1000
0020
0000
1030
0001
0200
0301
,
0010
0000
0001
1000
0010
1000
0002
0000
1003
0001
0100
0001
2000
0000
3001
0010
,
0001
1000
0100
1000
0010
0000
1000
0001
0100
0001
0010
0000
1001
0000
0001
1000
,
0010
0000
1000
0001
0000
0000
0010
0000
0001
1000
0100
1000
0001
0000
0010
0000
,
2001
0000
3001
1000
0010
0000
1000
0001
0100
0001
0020
0000
0031
1000
0200
1300
,
0010
0000
1000
0001
0010
0001
2000
0000
3001
1000
0100
1000
0002
0000
1003
0010
,
2000
3001
0100
0001
0010
0000
0001
1000
0100
1000
0010
0000
1000
0001
1000
0001
,
0010
0000
0001
1000
0000
1000
0010
0000
1000
0001
0100
0001
1000
0000
1001
0000
,
0220
0330
0000
0000
0000
0000
0000
0000
;
