#TITLE:Toxic;
#SUBTITLE:;
#ARTIST:Britney Spears;
#TITLETRANSLIT:;
#SUBTITLETRANSLIT:;
#ARTISTTRANSLIT:;
#GENRE:Dance Pop;
#CREDIT:;
#BANNER:Toxic.png;
#BACKGROUND:Toxic-bg.png;
#LYRICSPATH:Toxic.lrc;
#CDTITLE:;
#MUSIC:Toxic.ogg;
#OFFSET:-0.241000;
#SAMPLESTART:42.207001;
#SAMPLELENGTH:12.000000;
#SELECTABLE:YES;
#BPMS:0.000000=143.000000
;
#STOPS:
;
#BGCHANGES:;
#KEYSOUNDS:;
#ATTACKS:;

//---------------dance-single - Pruz----------------
#NOTES:
     dance-single:
     Pruz:
     Beginner:
     2:
     0.000000,0.000000,0.000000,0.000000,0.000000,0.000000,0.000000,0.000000,0.000000,0.000000,0.000000,0.000000,0.000000,0.000000,0.000000,0.000000,0.000000,0.000000,0.000000,0.000000,0.000000,0.000000:
0000
0000
0000
0000
,
0000
0000
0000
0000
,
0000
0000
0000
0000
,
0000
0000
0000
0000
,
0000
0000
0000
0000
,
0000
0000
0000
0000
,
0000
0000
0000
0000
,
0000
0000
0000
0000
,
0000
0000
0000
0000
,
0001
0000
0000
0000
,
1000
0000
0000
0000
,
0001
0000
0000
0000
,
1000
0000
0000
0000
,
0001
0000
0000
0000
,
2000
0000
3000
0000
,
0002
0000
0000
0003
,
1000
0000
0000
0000
,
0001
0000
0000
0000
,
1000
0000
0000
0000
,
0001
0000
0000
0000
,
1000
0000
0000
0000
,
0001
0000
0000
0000
,
2000
0000
3000
0000
,
0002
0000
0000
0003
,
1000
1000
0000
0000
,
1000
0000
0000
0000
,
0001
0001
0000
0000
,
1000
1000
0000
0000
,
0001
0000
0000
0000
,
1000
0000
0000
0000
,
0001
0000
0001
0000
,
2000
0000
0000
3000
,
0000
0000
0000
0000
,
0000
0000
0000
0000
,
0001
0000
0001
0000
,
0001
0000
0000
0000
,
0000
1000
0000
1000
,
0000
1000
0000
1000
,
0001
0000
0001
0000
,
0001
0000
0000
0000
,
1000
0000
1000
0000
,
0001
0000
0001
1000
,
0001
0000
0001
0000
,
0001
0000
0000
0000
,
0000
1000
0000
1000
,
0000
1000
0000
1000
,
0001
0000
0001
0000
,
0001
0000
0000
0000
,
1000
0000
1000
0000
,
0001
0000
0001
1000
,
0001
0000
0000
1000
,
0001
0000
0000
1000
,
0001
0000
0000
1000
,
0001
0000
0000
0001
,
0001
0000
0000
1000
,
0001
0000
0000
1000
,
0001
0000
0000
1000
,
0002
0000
0000
0003
;

//---------------dance-single - Pruz----------------
#NOTES:
     dance-single:
     Pruz:
     Easy:
     3:
     0.147012,0.182460,0.000000,0.352055,0.000000,114.000000,114.000000,0.000000,39.000000,0.000000,0.000000,0.147012,0.182460,0.000000,0.352055,0.000000,114.000000,114.000000,0.000000,39.000000,0.000000,0.000000:
// measure 0
0000
0000
0000
0000
,  // measure 1
0000
0000
0000
0000
,  // measure 2
0000
0000
0000
0000
,  // measure 3
0000
0000
0000
0000
,  // measure 4
0000
0000
0000
0000
,  // measure 5
0000
0000
0000
0000
,  // measure 6
0000
0000
0000
0000
,  // measure 7
0000
0000
0000
0000
,  // measure 8
0000
0000
0000
0000
,  // measure 9
0001
0000
1000
0000
,  // measure 10
0010
0000
0010
0000
,  // measure 11
1000
0000
0001
0100
,  // measure 12
0010
0000
0010
0000
,  // measure 13
0100
0000
0200
0302
,  // measure 14
1003
0000
0100
0000
,  // measure 15
0010
0010
0002
0003
,  // measure 16
1000
0000
0010
0000
,  // measure 17
1000
0000
0001
0000
,  // measure 18
0010
0000
0010
0000
,  // measure 19
0100
0000
0010
0001
,  // measure 20
1000
0000
1000
0000
,  // measure 21
0010
0000
0020
2030
,  // measure 22
3001
0000
0010
0000
,  // measure 23
0100
0100
2000
3000
,  // measure 24
0001
0000
0010
0000
,  // measure 25
0100
0100
0200
0300
,  // measure 26
1000
0000
0010
0000
,  // measure 27
0100
0100
0200
0300
,  // measure 28
0001
0000
0000
1000
,  // measure 29
0001
0000
0200
0320
,  // measure 30
1030
0000
0001
0000
,  // measure 31
0010
0010
0020
0030
,  // measure 32
0002
0000
0000
0000
,  // measure 33
0000
0000
0000
2003
,  // measure 34
3010
0000
1000
0000
,  // measure 35
0001
0001
0000
1000
,  // measure 36
0200
0300
0020
0030
,  // measure 37
0200
0300
2000
3001
,  // measure 38
0010
0000
0001
0000
,  // measure 39
1000
1000
0000
0010
,  // measure 40
0020
0030
0200
0300
,  // measure 41
0001
0001
0002
0003
,  // measure 42
0010
0000
0100
0000
,  // measure 43
1000
2000
0000
3001
,  // measure 44
0002
0003
0200
0300
,  // measure 45
0020
0030
2000
3002
,  // measure 46
0013
0000
0001
0000
,  // measure 47
1000
2000
0000
3001
,  // measure 48
0002
0003
0200
0300
,  // measure 49
0010
0010
0020
0030
,  // measure 50
2000
3000
0000
0002
,  // measure 51
0203
0300
0000
0000
,  // measure 52
0001
0000
0000
0000
,  // measure 53
1000
0000
0100
0010
,  // measure 54
0002
0003
2000
3020
,  // measure 55
0230
0300
0000
0000
,  // measure 56
0001
0000
1000
0000
,  // measure 57
0020
0030
0200
0301
;

//---------------dance-single - Pruz----------------
#NOTES:
     dance-single:
     Pruz:
     Medium:
     7:
     0.000000,0.000000,0.000000,0.000000,0.000000,0.000000,0.000000,0.000000,0.000000,0.000000,0.000000,0.000000,0.000000,0.000000,0.000000,0.000000,0.000000,0.000000,0.000000,0.000000,0.000000,0.000000:
0000
0000
0000
0000
,
0000
0000
0000
0000
,
0000
0000
0000
0000
,
0000
0000
0000
0000
,
0000
0000
0000
0000
,
0000
0000
0000
0000
,
0000
0000
0000
0000
,
0000
0000
0000
0000
,
0000
0000
0001
0000
0001
1000
0010
0000
,
1000
0000
1000
0001
0000
0001
0010
0000
,
0100
0000
1000
0001
0000
0001
0100
0000
,
0010
0000
1000
0001
0000
0001
0010
0000
,
0100
0000
1000
0001
0000
0100
0010
0000
,
0100
0000
0001
1000
0000
0100
0010
0000
,
0001
0100
1000
0100
,
0002
0000
2003
0000
3020
2030
3002
0000
,
1003
0000
1000
0001
0010
0000
0001
0000
,
0001
1000
0000
1000
0010
0000
0100
0000
,
0001
1000
0000
1000
0100
0000
0010
0000
,
0001
1000
0000
1000
0010
0000
0100
0000
,
0001
1000
0000
0100
0010
0000
0100
0000
,
1000
0001
0000
0100
0010
0000
1000
0000
,
0100
0001
0100
1000
,
0002
0000
2003
0000
3020
2030
3002
0000
,
0013
0000
0100
1000
0001
0000
1000
0000
,
0020
0000
0230
0000
0302
0000
1003
0001
,
0010
0000
0100
1000
0000
0100
0010
0000
,
0002
0000
2003
0000
3020
0000
0130
0001
,
1000
0000
0001
0010
0000
0000
0001
0000
,
1000
0000
0001
0100
0000
0000
0010
0000
,
1000
1000
0001
0001
,
0020
0000
0230
0000
2300
3001
2000
0000
,
3100
0000
0000
0000
,
0000
0000
0000
0000
0000
0000
1000
0001
,
0010
0000
0001
1000
0000
1000
0010
0000
,
1000
0001
1000
0100
0000
0010
0001
1000
,
0001
0000
0010
0000
0100
1000
0001
1000
,
0100
0000
0010
0000
0001
1000
0010
1000
,
0001
0000
0010
0100
0000
1000
0001
1000
,
0001
0000
0100
0010
0000
0010
1000
0001
,
1000
0000
0100
0000
0010
0001
1000
0001
,
0020
0000
0230
0000
2300
3002
0203
0301
,
1000
0000
0001
1000
0000
1000
0100
0000
,
1000
0001
1000
0010
0000
0100
0001
1000
,
0001
0000
0010
0000
0100
1000
0001
1000
,
0100
0000
0010
0000
0001
1000
0010
1000
,
0001
0000
0010
0100
0000
1000
0001
1000
,
0001
0000
0010
0100
0000
0100
1000
0001
,
1000
0000
0010
0000
0100
0001
1000
0001
,
0200
0000
0320
0000
2030
3002
0203
0301
,
2000
0100
0100
3200
,
0010
0010
0010
0320
,
0031
0001
0001
0002
,
0203
0300
0020
0030
,
2000
0100
3200
0320
,
0032
0100
0100
0203
,
0310
0010
0010
0020
,
2030
0000
3002
0000
0023
0032
2003
0000
,
3000
0000
0000
0000
;

//---------------dance-single - Pruz----------------
#NOTES:
     dance-single:
     Pruz:
     Hard:
     11:
     0.000000,0.000000,0.000000,0.000000,0.000000,0.000000,0.000000,0.000000,0.000000,0.000000,0.000000,0.000000,0.000000,0.000000,0.000000,0.000000,0.000000,0.000000,0.000000,0.000000,0.000000,0.000000:
0000
0000
0000
0000
,
0000
0000
0000
0000
,
0000
0000
0000
0000
,
0000
0000
0000
0000
,
0000
0000
0000
0000
,
0000
0000
0000
0000
,
0000
0000
0000
0000
,
0000
0000
0000
0000
,
0000
0000
0001
1000
0100
1000
0001
0001
,
0010
0000
0001
1000
0001
0001
0100
0001
,
1000
0000
0001
0010
0100
0100
1000
0001
,
1000
0000
0001
1000
0010
0010
0100
0001
,
1000
0000
0001
0010
0100
0100
1000
1000
,
0001
0000
1000
0010
0100
0100
0001
0001
,
1000
0000
0100
1000
0001
0000
0010
0001
,
2000
0000
3020
1000
2030
0001
3001
0000
,
1000
0000
0001
0001
0010
0100
1000
1000
,
0001
0000
1000
0001
0100
0000
0001
0001
,
1000
0000
0001
0001
0010
0100
1000
1000
,
0001
0000
0100
0001
1000
0000
0100
0100
,
1000
0000
0100
0010
0000
0001
1000
0000
,
0010
0000
0100
0001
0000
1000
0001
0000
,
0010
0010
0001
1000
0001
0000
0010
0100
,
2000
0000
3200
1000
2300
0001
3001
0000
,
1001
0000
1000
0100
0010
0000
0001
0001
,
1000
0000
0001
0001
0100
0000
0010
1000
,
0001
0000
1000
0100
0010
0000
0001
0001
,
0100
0000
1000
1000
0010
0000
0001
1000
,
0001
0000
0100
0010
0000
0000
1000
1000
,
0001
0000
0010
0100
1000
0100
0010
0000
,
0001
0001
1000
0010
0100
0000
0001
1000
,
0002
0000
0023
0001
0032
1000
1003
0000
,
0002
0000
0000
0000
,
0000
0000
0000
0000
0000
0000
1000
1000
,
1003
0000
0010
0100
0001
0000
0010
0000
,
0100
1000
0001
0100
0000
0100
0010
0010
,
1000
0000
0001
1000
0000
0100
0010
0000
,
0001
0000
0100
0010
2000
0000
3002
1000
,
1003
0000
0010
0100
0001
0000
0010
0000
,
0100
1000
0001
0100
0000
0100
0010
0010
,
1000
0000
0001
1000
0100
0000
1000
0001
,
0010
0000
0100
0010
0002
0000
2003
0001
,
3001
0000
0010
0100
1000
0000
0010
0000
,
0100
0001
1000
0100
0000
0100
0010
0010
,
0200
0300
1000
0001
0000
0100
0010
0000
,
1000
0000
0100
0010
0002
0000
2003
0001
,
3001
0000
0100
0010
1000
0000
0001
0000
,
0010
0100
1000
0001
0000
0100
0010
0010
,
1000
0000
0001
1000
0100
0000
0010
0001
,
1000
0000
0010
0100
0002
0000
2003
0000
,
3001
0000
1000
0100
1000
0001
0010
0000
,
1001
0000
1000
0010
1000
0001
0100
0000
,
1001
0000
0001
0010
0001
1000
0100
0000
,
1000
0000
0001
0000
0100
0010
0010
1000
,
1001
0000
0001
0000
1000
0010
1000
0001
,
0100
0000
1001
0000
1000
0100
1000
0001
,
0010
0000
1001
0000
0001
0100
0001
1000
,
0020
0000
0230
0000
0320
0100
0130
0000
;

//---------------dance-single - Pruz----------------
#NOTES:
     dance-single:
     Pruz:
     Challenge:
     13:
     0.000000,0.000000,0.000000,0.000000,0.000000,0.000000,0.000000,0.000000,0.000000,0.000000,0.000000,0.000000,0.000000,0.000000,0.000000,0.000000,0.000000,0.000000,0.000000,0.000000,0.000000,0.000000:
0000
0000
0000
0000
,
0000
0000
0000
0000
,
0000
0000
0000
0000
,
0000
0000
0000
0000
,
0000
0000
0000
0000
,
0000
0000
0000
0000
,
0000
0000
0000
0000
,
0000
0000
0000
0000
0000
0000
0000
0000
0000
0000
0000
0000
0000
0000
0000
0000
0000
0000
0000
0000
0000
0000
0000
0000
0000
0000
0000
0000
0000
0000
0000
0000
0000
0000
0000
0000
0000
0000
0000
0000
0000
0000
0000
0000
0000
0001
0000
0000
1000
0000
0000
0000
0000
0000
0000
0000
0001
0000
0000
0000
0000
0000
0000
0000
,
0000
0000
0000
0000
0000
0000
1001
1000
,
0010
0000
0000
0000
0000
0000
0000
0000
0000
0000
0000
0000
0000
0000
0000
0000
1000
0000
0000
0000
0000
0000
0000
0000
0001
0000
0000
0000
0000
0000
0000
0000
0010
0000
0000
0000
0000
0000
0000
0000
0100
0000
0000
0000
0000
0010
0000
0000
0001
0000
0000
0000
0000
0000
0000
0000
1000
0000
0000
0000
0000
0000
0000
0000
,
1000
0000
0000
0000
0000
0000
0000
0000
0000
0000
0000
0000
0000
0000
0000
0000
0001
0000
0000
0000
0000
0000
0000
0000
0100
0000
0000
0000
0000
0000
0000
0000
0010
0000
0000
0000
0000
0000
0000
0000
1000
0000
0000
0000
0000
0001
0000
0000
1000
0000
0000
0000
0000
0000
0000
0000
0100
0000
0000
0000
0000
0000
0000
0000
,
0100
0000
0000
0000
0000
0000
0000
0000
1000
0000
0000
0000
0000
0000
0000
0000
0100
0000
0000
0000
0000
0000
0000
0000
0010
0000
0000
0000
0000
0000
0000
0000
0001
0000
0000
0000
0000
0000
0000
0000
0000
0000
0000
0000
0000
1000
0000
0000
0001
0000
0000
0000
0000
0000
0000
0000
0010
0000
0000
0000
0000
0000
0000
0000
,
0100
0000
0000
0000
0000
0000
0000
0000
0000
0000
0000
0000
0000
0000
0000
0000
1000
0000
0000
0000
0000
0000
0000
0000
1000
0000
0000
0000
0000
0000
0000
0000
0001
0000
0000
0000
0000
0000
0000
0000
0100
0000
0000
0000
0000
0001
0000
0000
1000
0000
0000
0000
0000
0000
0000
0000
1000
0000
0000
0000
0000
0000
0000
0000
,
0100
0000
0000
0000
0000
0000
0000
0000
0000
0000
0000
0000
0000
0000
0000
0000
1000
0000
0000
0000
0000
0000
0000
0000
0001
0000
0000
0000
0000
0000
0000
0000
0010
0000
0000
0000
0000
0000
0000
0000
0010
0000
0000
0000
0000
0001
0000
0000
1000
0000
0000
0000
0000
0000
0000
0000
0001
0000
0000
0000
0000
0000
0000
0000
,
0100
0000
0000
0000
0000
0000
0000
0000
0100
0000
0000
0000
0000
0000
0000
0000
0010
0000
0000
0000
1000
0000
0000
0000
0001
0000
0000
0000
1000
0000
0000
0000
0100
0000
0000
0000
0000
0000
0000
0000
0000
0000
0000
0000
0000
0010
0000
0000
0001
0000
0000
0000
1000
0000
0000
0000
0001
0000
0000
0000
0000
0000
0000
0000
,
0020
0000
0230
1000
0320
1000
0031
0000
,
1001
0000
0000
0000
0000
0000
0000
0000
0000
0000
0000
0000
0000
0000
0000
0000
1000
0000
0000
0000
0000
0000
0000
0000
0010
0000
0000
0000
0000
0000
0000
0000
0100
0000
0000
0000
0000
0000
0000
0000
0100
0000
0000
0000
0000
0001
0000
0000
1000
0000
0000
0000
0000
0000
0000
0000
0100
0000
0000
0000
0000
0000
0000
0000
,
0010
0000
0000
0000
0000
0000
0000
0000
0000
0000
0000
0000
0000
0000
0000
0000
0001
0000
0000
0000
0000
0000
0000
0000
1000
0000
0000
0000
0000
0000
0000
0000
0010
0000
0000
0000
0000
0000
0000
0000
0010
0000
0000
0000
0000
1000
0000
0000
0001
0000
0000
0000
0000
0000
0000
0000
1000
0000
0000
0000
0000
0000
0000
0000
,
0100
0000
0000
0000
0000
0000
0000
0000
0000
0000
0000
0000
0000
0000
0000
0000
1000
0000
0000
0000
0000
0000
0000
0000
0001
0000
0000
0000
0000
0000
0000
0000
0100
0000
0000
0000
0000
0000
0000
0000
0100
0000
0000
0000
0000
0001
0000
0000
1000
0000
0000
0000
0000
0000
0000
0000
1000
0000
0000
0000
0000
0000
0000
0000
,
0100
0000
0000
0000
0000
0000
0000
0000
0000
0000
0000
0000
0000
0000
0000
0000
1000
0000
0000
0000
0000
0000
0000
0000
0001
0000
0000
0000
0000
0000
0000
0000
0100
0000
0000
0000
0000
0000
0000
0000
0100
0000
0000
0000
0000
0001
0000
0000
1000
0000
0000
0000
0000
0000
0000
0000
1000
0000
0000
0000
0000
0000
0000
0000
,
0010
0000
0000
0000
0000
0000
0000
0000
0000
0000
0000
0000
0000
0000
0000
0000
1000
0000
0000
0000
0000
0000
0000
0000
0001
0000
0000
0000
0000
0000
0000
0000
0010
0000
0000
0000
0000
0000
0000
0000
0010
0000
0000
0000
0000
0100
0000
0000
1000
0000
0000
0000
0000
0000
0000
0000
0100
0000
0000
0000
0000
0000
0000
0000
,
0010
0000
0000
0000
0000
0000
0000
0000
0000
0000
0000
0000
0000
0000
0000
0000
0001
0000
0000
0000
0000
0000
0000
0000
1000
0000
0000
0000
0000
0000
0000
0000
0010
0000
0000
0000
0000
0000
0000
0000
0010
0000
0000
0000
0000
1000
0000
0000
0100
0000
0000
0000
0000
0000
0000
0000
0100
0000
0000
0000
0000
0000
0000
0000
,
0010
0000
0000
0000
0000
0000
0000
0000
0010
0000
0000
0000
0000
0000
0000
0000
0100
0000
0000
0000
1000
0000
0000
0000
0001
0000
0000
0000
1000
0000
0000
0000
0010
0000
0000
0000
0000
0000
0000
0000
0000
0000
0000
0000
0000
0100
0000
0000
0001
0000
0000
0000
1000
0000
0000
0000
0001
0000
0000
0000
0000
0000
0000
0000
,
0020
0000
0230
1000
0320
1000
0031
0000
,
1001
0000
0000
0000
0000
0000
0000
0000
0000
0000
0000
0000
0000
0000
0000
0000
0001
0000
0000
0000
0000
0000
0000
0000
1000
0000
0000
0000
0000
0000
0000
0000
0010
0000
0000
0000
0000
0000
0000
0000
0000
0000
0000
0000
0000
0100
0000
0000
0001
0000
0000
0000
1000
0000
0000
0000
0001
0000
0000
0000
0000
0000
0000
0000
,
0010
0000
0000
0000
0000
0000
0000
0000
0000
0000
0000
0000
0000
0000
0000
0000
0001
0000
0000
0000
0000
0000
0000
0000
1000
0000
0000
0000
0000
0000
0000
0000
0100
0000
0000
0000
0000
0000
0000
0000
0000
0000
0000
0000
0000
1000
0000
0000
0001
0000
0000
0000
0000
0000
0000
0000
0001
0000
0000
0000
0000
0000
0000
0000
,
0100
0000
0000
0000
0000
0000
0000
0000
0010
0000
0000
0000
0000
0000
0000
0000
1000
0000
0000
0000
0000
0000
0000
0000
0001
0000
0000
0000
0000
0000
0000
0000
0010
0000
0000
0000
0000
0000
0000
0000
0000
0000
0000
0000
0000
0001
0000
0000
1000
0000
0000
0000
0000
0000
0000
0000
0100
0000
0000
0000
0000
0000
0000
0000
,
1000
0000
0000
0000
0000
0000
0000
0000
0010
0000
0000
0000
0000
0000
0000
0000
0001
0000
0000
0000
0000
0000
0000
0000
0100
0000
0000
0000
0000
0000
0000
0000
1000
0000
0000
0000
0000
0000
0000
0000
0000
0000
0000
0000
0000
0001
0000
0000
1000
0000
0000
0000
0000
0000
0000
0000
0100
0000
0000
0000
0000
0000
0000
0000
,
0010
0000
0000
0000
0000
0000
0000
0000
0000
0000
0000
0000
0000
0000
0000
0000
0010
0000
0000
0000
0000
0000
0000
0000
0001
0000
0000
0000
0000
0000
0000
0000
0000
0000
0000
0000
0000
0000
0000
0000
0001
0000
0000
0000
0000
1000
0000
0000
0001
0000
0000
0000
0000
0000
0000
0000
0010
0000
0000
0000
0000
0000
0000
0000
,
0100
0000
1000
0001
0100
0001
1000
1000
,
0010
0000
0000
0000
0000
0000
0000
0000
0010
0000
0000
0000
0000
0000
0000
0000
0100
0000
0000
0000
0001
0000
0000
0000
1000
0000
0000
0000
0001
0000
0000
0000
0010
0000
0000
0000
0000
0000
0000
0000
0000
0000
0000
0000
0000
0100
0000
0000
1000
0000
0000
0000
0001
0000
0000
0000
1000
0000
0000
0000
0000
0000
0000
0000
,
0020
0000
0230
0001
0320
0001
1030
0000
,
0002
0000
0000
0000
0000
0000
0000
0000
0000
0000
0000
0000
0000
0000
0000
0000
0000
0000
0000
0000
0000
0000
0000
0003
0002
0000
0000
0000
0000
0000
0000
0000
0000
0000
0000
0000
0000
0000
0000
0000
0000
0000
0000
0000
0000
0000
0000
0003
2000
0000
0000
0000
0000
0000
0000
0000
0000
0000
0000
0000
0000
0000
0000
0000
0000
0000
0000
0000
0000
0000
0000
3000
2000
0000
0000
0000
0000
0000
0000
0000
0000
0000
0000
0000
0000
0000
0000
0000
0000
0000
0000
0000
0000
0000
0000
3000
0020
0000
0000
0000
0000
0000
0000
0000
0000
0000
0000
0000
0000
0000
0000
0000
0000
0000
0000
0000
0000
0000
0000
0030
0020
0000
0000
0000
0000
0000
0000
0000
0000
0000
0000
0000
0000
0000
0000
0000
0000
0000
0000
0000
0000
0000
0000
0030
0200
0000
0000
0000
0000
0000
0000
0000
0000
0000
0000
0000
0000
0000
0000
0000
0000
0000
0000
0000
0000
0000
0000
0300
0200
0000
0000
0000
0000
0000
0000
0000
0000
0000
0000
0000
0000
0000
0000
0000
0000
0000
0000
0000
0000
0000
0000
0300
,
0002
0000
0000
0000
0000
0000
0000
0000
0000
0000
0000
0000
0000
0000
0000
0000
0000
0000
0000
0000
0000
0000
0000
0003
0002
0000
0000
0000
0000
0000
0000
0000
0000
0000
0000
0000
0000
0000
0000
0000
0000
0000
0000
0000
0000
0000
0000
0003
0020
0000
0000
0000
0000
0000
0000
0000
0000
0000
0000
0000
0000
0000
0000
0000
0000
0000
0000
0000
0000
0000
0000
0030
0020
0000
0000
0000
0000
0000
0000
0000
0000
0000
0000
0000
0000
0000
0000
0000
0000
0000
0000
0000
0000
0000
0000
0030
0200
0000
0000
0000
0000
0000
0000
0000
0000
0000
0000
0000
0000
0000
0000
0000
0000
0000
0000
0000
0000
0000
0000
0300
0200
0000
0000
0000
0000
0000
0000
0000
0000
0000
0000
0000
0000
0000
0000
0000
0000
0000
0000
0000
0000
0000
0000
0300
1000
0000
0000
0000
0000
0000
0000
0000
0000
0000
0000
0000
0000
0000
0000
0000
0000
0000
0000
0000
0000
0000
0000
0000
0001
0000
0000
0000
0000
0000
0000
0000
0000
0000
0000
0000
0000
0000
0000
0000
0000
0000
0000
0000
0000
0000
0000
0000
,
1001
0000
1000
0010
0100
0001
1000
1000
,
0100
0010
0001
1000
0000
1000
0001
0001
,
0100
0000
0010
1000
0001
0001
0010
0001
,
1000
0000
0010
0100
0001
1000
1000
0001
,
1001
0000
0001
1000
0100
1000
0001
0001
,
0100
0010
1000
0001
0000
0001
1001
1001
,
1000
0000
0100
0000
0010
0001
1000
0001
0100
0000
0010
0000
1000
0001
1000
0000
,
0020
0000
0230
0001
0320
0001
1030
0001
,
1001
0000
1000
0100
0010
0100
1000
1000
,
0001
0100
0010
1000
0000
0001
1000
1000
,
0002
0003
0010
0001
1000
1000
0010
1000
,
0001
0000
0010
0100
1000
0001
0001
1000
,
1001
0000
1000
0010
0100
0001
1000
1000
,
0001
0010
0100
1000
0000
1000
1001
1001
,
0001
0000
0100
0000
0010
1000
0001
1000
0100
0000
0010
0000
0001
1000
0001
0000
,
0200
0000
0320
0001
0230
1000
0301
1000
,
1000
0100
0001
0100
1000
0010
0100
0100
,
0001
0100
1000
0100
0001
0010
0100
0100
,
1000
0100
0001
0100
0010
0100
1000
1000
,
0001
0000
0100
0000
0010
0000
0100
0000
1000
0000
0100
0001
1000
0000
1000
0000
,
0001
0100
1000
0100
0001
0010
0100
0100
,
1000
0100
0001
0100
1000
0010
0100
0100
,
0001
0000
0001
0000
0010
0001
1000
0001
0100
0000
0010
0000
1000
0001
1000
0000
,
0020
0000
0230
0000
0320
0100
0130
0000
;
