#VERSION:0.83;
#TITLE:Ta fĂȘte;
#SUBTITLE:;
#ARTIST:Stromae;
#TITLETRANSLIT:;
#SUBTITLETRANSLIT:;
#ARTISTTRANSLIT:;
#GENRE:Dance-pop;
#CREDIT:;
#MUSIC:Ta fete.ogg;
#BANNER:Ta fete.png;
#BACKGROUND:Ta fete-bg.png;
#CDTITLE:;
#SAMPLESTART:22.595;
#SAMPLELENGTH:14.939;
#SELECTABLE:YES;
#OFFSET:-0.334;
#BPMS:0.000=128.024;
#STOPS:;
#SPEEDS:0.000=1.000=0.000=0;
#SCROLLS:0.000=1.000;
#TICKCOUNTS:0.000=4;
#TIMESIGNATURES:0.000=4=4;
#LABELS:0.000=Song Start;
#COMBOS:0.000=1;
#ORIGIN:;
#PREVIEWVID:;
#JACKET:Ta fete-jacket.png;
#CDIMAGE:;
#DISCIMAGE:;
#LASTSECONDHINT:122.179;
#BGCHANGES:0.000=Ta fete.avi=1.000=0=0=0=StretchNoLoop====,
99999.000=-nosongbg-=1.000=0=0=0=StretchNoLoop====
;
#FGCHANGES:;

//--------------- dance-single - Pruz ----------------
#NOTEDATA:;
#STEPSTYPE:dance-single;
#DESCRIPTION:Pruz;
#DIFFICULTY:Beginner;
#METER:2;
#RADARVALUES:0.090284,0.119498,0,0.191997,0,79,79,0,24,0,0,0,0,0,0.090284,0.119498,0,0.191997,0,79,79,0,24,0,0,0,0,0;
#CHARTNAME:Pruz;
#CHARTSTYLE:;
#CREDIT:Pruz;
#NOTES:
0000
0000
0000
0000
,
0000
0000
0000
0000
,
0000
0000
0000
0000
,
0000
0000
0000
0000
,
1000
0000
1000
0000
,
0010
0000
0010
0000
,
1000
0000
1000
0000
,
0001
0000
0001
0000
,
0010
0000
0010
0000
,
1000
0000
1000
0000
,
0010
0000
0010
0000
,
0100
0000
0100
0000
,
2000
0000
0000
3000
,
0001
0000
0001
0000
,
0200
0000
0000
0300
,
0001
0000
0001
0000
,
2000
0000
0000
3000
,
0001
0000
0001
0000
,
0020
0000
0000
0030
,
0001
0000
0001
0000
,
1000
0000
0000
0000
,
1000
0000
0000
0000
,
0001
0000
0000
0000
,
0001
0000
0000
0000
,
0010
0000
0000
0000
,
0010
0000
0000
0000
,
0100
0000
0000
0000
,
0100
0000
0000
0000
,
1000
0000
0000
0000
,
0100
0000
0100
0000
,
1000
0000
1000
0000
,
0001
0000
0001
0000
,
0100
0000
0100
0000
,
1000
0000
1000
0000
,
0100
0000
0100
0000
,
0010
0000
0010
0000
,
2000
0000
0000
3000
,
0001
0000
0001
0000
,
0200
0000
0000
0300
,
0001
0000
0001
0000
,
2000
0000
0000
3000
,
0001
0000
0001
0000
,
0020
0000
0000
0030
,
0001
0000
0001
0000
,
2000
0000
0000
3000
,
2000
0000
0000
3000
,
0002
0000
0000
0003
,
0002
0000
0000
0003
,
0020
0000
0000
0030
,
0020
0000
0000
0030
,
0200
0000
0000
0300
,
0200
0000
0000
0300
,
2000
0000
0000
3000
,
2000
0000
0000
3000
,
0002
0000
0000
0003
,
0002
0000
0000
0003
,
0020
0000
0000
0030
,
0020
0000
0000
0030
,
0200
0000
0000
0300
,
0200
0000
0000
0300
;

//--------------- dance-single - Pruz ----------------
#NOTEDATA:;
#STEPSTYPE:dance-single;
#DESCRIPTION:Pruz;
#DIFFICULTY:Easy;
#METER:5;
#RADARVALUES:0.158855,0.167297,0.008,0.231996,0,139,138,1,29,0,0,0,0,0,0.158855,0.167297,0.008,0.231996,0,139,138,1,29,0,0,0,0,0;
#CHARTNAME:Pruz;
#CHARTSTYLE:;
#CREDIT:Pruz;
#NOTES:
0000
0000
0000
0000
,
0000
0000
0000
0000
,
0000
0000
0000
0000
,
0000
0000
0000
0000
,
0001
0000
0001
0000
,
1000
0100
1000
0000
,
0001
0000
0001
0000
,
1000
0010
0100
0000
,
0001
0000
0001
0000
,
1000
0010
1000
0000
,
0001
0000
0001
0000
,
1000
0100
0010
0000
,
0001
0000
0100
0000
,
0010
0000
0010
0000
,
1000
0000
0001
0000
,
0010
0000
0010
0000
,
0100
0000
1000
0000
,
0010
0000
0010
0000
,
1000
0000
0001
0000
,
0010
0000
0010
0000
,
0001
0100
1000
0000
,
0100
0000
0010
0000
,
1000
0100
0001
0000
,
0100
0000
0010
0000
,
0001
0100
1000
0000
,
0100
0000
0001
0000
,
1000
0100
0001
0000
,
0100
0000
1000
0001
,
1000
0000
0000
0000
,
0001
0000
0001
0000
,
1000
0010
1000
0000
,
0001
0000
0001
0000
,
1000
0100
0010
0000
,
0001
0000
0001
0000
,
1000
0100
1000
0000
,
0001
0000
0001
0000
,
1000
0010
0001
0000
,
0010
0000
0010
0000
,
1000
0100
0001
0100
,
0010
0000
0010
0000
,
0001
0100
1000
0000
,
0100
0000
0100
0000
,
0001
0010
1000
0010
,
0100
0000
0100
0000
,
0020
0030
0020
0030
,
0001
0200
2300
3000
,
0200
0300
0020
0030
,
1000
0200
0302
0003
,
0200
0300
0020
0030
,
0001
0200
2300
3000
,
0200
0300
0002
0003
,
1000
0200
0302
0003
,
0200
0300
2000
3010
,
0001
0000
0020
0030
,
2000
3000
0200
0310
,
0001
0000
0200
0300
,
0020
0030
2000
3200
,
0301
0000
0200
0300
,
2000
3000
0020
0230
,
0301
0000
0010
0110
;

//--------------- dance-single - Pruz ----------------
#NOTEDATA:;
#STEPSTYPE:dance-single;
#DESCRIPTION:Pruz;
#DIFFICULTY:Medium;
#METER:7;
#RADARVALUES:0.244568,0.238996,0.008,0.031999,0,214,213,1,4,0,0,0,0,0,0.244568,0.238996,0.008,0.031999,0,214,213,1,4,0,0,0,0,0;
#CHARTNAME:Pruz;
#CHARTSTYLE:;
#CREDIT:Pruz;
#NOTES:
0000
0000
0000
0000
,
0000
0000
0000
0000
,
0000
0000
0000
0000
,
0000
0000
0000
0000
,
1000
0100
0001
0100
,
0010
0010
0100
0100
,
1000
0010
0001
0010
,
0100
0100
0010
0010
,
1000
0100
0001
0100
,
0010
0010
0100
1000
,
0001
0010
1000
0010
,
0100
0100
0010
0010
,
0001
1000
0010
1000
,
0100
0000
0000
0100
0000
0000
1000
0000
,
0001
0010
1000
0010
,
0100
0000
0000
0100
0000
0000
1000
0000
,
0001
0100
1000
0100
,
0010
0000
0000
0010
0000
0000
1000
0000
,
0001
0010
0001
1000
,
0010
0000
0000
0010
0000
0000
1000
0000
,
0001
0010
1000
1000
,
0010
0100
1000
1000
,
0010
0100
0001
0001
,
1000
0100
0001
0001
,
0100
0010
0001
0001
,
0100
0010
2000
3002
,
1003
0100
0001
0001
,
0100
0010
0001
0001
,
1000
0000
0000
0000
,
1000
0100
0001
0100
,
0010
0010
0100
0100
,
1000
0010
0001
0010
,
0100
0100
0010
0010
,
1000
0100
0001
0100
,
0010
0010
0100
1000
,
0001
0010
1000
0010
,
0001
1000
0010
1000
,
0100
0000
0000
0100
0000
0000
1000
0000
,
0001
0010
1000
0010
,
0100
0000
0000
0100
0000
0000
1000
0000
,
0001
0100
1000
0100
,
0010
0000
0000
0010
0000
0000
1000
0000
,
0001
0010
0001
1000
,
0010
0000
0000
0010
0000
0000
1000
0000
,
0001
0010
1000
1000
,
0010
0100
1000
1000
,
0010
0100
0001
0001
,
1000
0100
0001
0001
,
0100
0010
0001
0001
,
0100
0010
2000
3002
,
1003
0100
0001
0001
,
0100
0010
0001
0001
,
1000
0010
0100
0001
,
1000
0100
0010
0001
,
0001
0010
0100
1000
,
0001
0100
0010
1000
,
1000
0100
0010
0001
,
1000
0010
0100
0001
,
0001
0010
0100
1000
,
0001
0100
0010
1001
;

//--------------- dance-single - Pruz ----------------
#NOTEDATA:;
#STEPSTYPE:dance-single;
#DESCRIPTION:Pruz;
#DIFFICULTY:Hard;
#METER:10;
#RADARVALUES:0.38628,0.358494,0.008,0.359994,0.207997,338,337,1,45,0,0,0,0,0,0.38628,0.358494,0.008,0.359994,0.207997,338,337,1,45,0,0,0,0,0;
#CHARTNAME:Pruz;
#CHARTSTYLE:;
#CREDIT:Pruz;
#NOTES:
0000
0000
0000
0000
,
0000
0000
0000
0000
,
0000
0000
0000
0000
,
0000
0000
0000
0000
,
0001
0100
1000
0000
0100
0010
1000
0000
,
0001
0010
1000
0000
0010
0100
1000
0000
,
0001
0100
1000
0000
0100
0010
1000
0000
,
0001
0010
1000
0000
0010
0100
1000
0000
,
0001
0100
0010
0000
1000
0100
0010
0000
,
0100
1000
0001
0000
0100
0010
1000
0000
,
0001
0010
1000
0000
0010
0100
1000
0000
,
0001
0100
1000
0000
0100
0010
1000
0000
,
0002
0010
0100
0013
,
2000
0000
0000
3010
0100
0000
0002
0000
1000
0000
0000
0000
0013
0000
0000
0000
,
0100
1000
0100
0010
0001
0000
0001
0000
,
0200
0000
0000
0310
1000
0000
0002
0000
0010
0000
0000
0000
0103
0000
0000
0000
,
0002
0010
0100
0013
,
2000
0000
0000
3010
0100
0000
0002
0000
1000
0000
0000
0000
0013
0000
0000
0000
,
0100
1000
0100
0010
0001
0000
0001
0000
,
0200
0000
0000
0310
1000
0000
0002
0000
0100
0000
0000
0000
0013
0000
0000
1000
,
0010
0000
0000
0000
0100
0000
0001
0000
0000
1000
0000
0000
0020
0000
0000
0000
0000
0000
0130
0000
0000
0000
0000
0000
,
0001
0000
0000
1000
0010
0000
1000
0000
0002
0000
0000
0000
0013
0000
0000
0100
,
0010
0000
0000
0000
0001
0000
1000
0000
0000
0001
0000
0000
0020
0000
0000
0000
0000
0000
0130
0000
0000
0000
0000
0000
,
1000
0000
0000
0010
1000
0000
0001
0000
0010
0000
0000
0000
0100
0000
0000
1000
,
0100
0000
0000
0000
0010
0000
0001
0000
0000
1000
0000
0000
0200
0000
0000
0000
0000
0000
0310
0000
0000
0000
0000
0000
,
0001
0000
0000
1000
0100
0000
1000
0000
0002
0000
0000
0000
0103
0000
0000
0010
,
0100
0000
0000
0000
0001
0000
1000
0000
0000
0001
0000
0000
0200
0000
0000
0000
0000
0000
0310
0000
0000
0000
0000
0000
,
1000
0000
0000
0100
1000
0000
0001
0000
0100
0000
0000
0000
0010
0000
1000
0000
,
0001
0000
0000
0000
0000
0000
0000
1000
,
0100
0000
0100
0010
0100
0000
1000
0001
,
0010
0000
0000
0100
0000
0000
0010
0000
0000
0100
0000
0000
1000
0000
0001
0000
,
0010
0000
0000
0100
0000
0000
1000
0000
0000
0001
0000
0000
1000
0000
0001
0000
,
0100
0000
0100
0010
0100
0000
0001
1000
,
0010
0000
0000
0100
0000
0000
0010
0000
0000
0100
0000
0000
0001
0000
1000
0000
,
0010
0000
0000
0100
0000
0000
0001
0000
0000
1000
0000
0000
0001
0000
1000
0000
,
0100
0000
0010
0100
0010
0000
0001
0000
,
2000
0010
0100
3010
,
0002
0000
0000
0013
0100
0000
2000
0000
0001
0000
0000
0000
3010
0000
0000
0000
,
0100
0001
0100
0010
1000
0000
1000
0000
,
0200
0000
0000
0310
0001
0000
2000
0000
0010
0000
0000
0000
3100
0000
0000
0000
,
2000
0010
0100
3010
,
0002
0000
0000
0013
0100
0000
2000
0000
0001
0000
0000
0000
3010
0000
0000
0000
,
0100
0001
0100
0010
1000
0000
1000
0000
,
0200
0000
0000
0310
0001
0000
2000
0000
0100
0000
0000
0000
3010
0000
0000
0001
,
0010
0000
0000
0000
0100
0000
1000
0000
0000
0001
0000
0000
0020
0000
0000
0000
0000
0000
0130
0000
0000
0000
0000
0000
,
1000
0000
0000
0001
0010
0000
0001
0000
2000
0000
0000
0000
3010
0000
0000
0100
,
0010
0000
0000
0000
1000
0000
0001
0000
0000
1000
0000
0000
0020
0000
0000
0000
0000
0000
0130
0000
0000
0000
0000
0000
,
0001
0000
0000
0010
0001
0000
1000
0000
0020
0000
0000
0000
0130
0000
0000
0001
,
0100
0000
0000
0000
0010
0000
1000
0000
0000
0001
0000
0000
0200
0000
0000
0000
0000
0000
0310
0000
0000
0000
0000
0000
,
1000
0000
0000
0001
0100
0000
0002
0000
2003
0000
0000
0000
3200
0000
0000
0310
,
0100
0000
0000
0000
1000
0000
0001
0000
0000
1000
0000
0000
0200
0000
0000
0000
0000
0000
0310
0000
0000
0000
0000
0000
,
0001
0000
0000
0100
0001
0000
1000
0000
0200
0000
0000
0000
0310
0000
0001
1000
,
0010
0000
0000
0000
0100
0000
0001
0000
0000
1000
0000
0000
0020
0000
0000
0000
0000
0000
0130
0000
0000
0000
0000
0000
,
0001
0000
0000
1000
0010
0000
1000
0000
0002
0000
0000
0000
0013
0000
0000
0100
,
0010
0000
0000
0000
0001
0000
1000
0000
0000
0001
0000
0000
0020
0000
0000
0000
0000
0000
0130
0000
0000
0000
0000
0000
,
1000
0000
0000
0010
1000
0000
0001
0000
0020
0000
0000
0000
0130
0000
0000
0010
,
0001
0000
0000
0000
1000
0000
0001
0000
0000
0100
0000
0000
0020
0000
0000
0000
0000
0000
1030
0000
0000
0000
0000
0000
,
0001
0000
0000
1000
0100
0000
0020
0000
0032
0000
0000
0000
0203
0000
0000
0310
,
0100
0000
0000
0000
0001
0000
1000
0000
0000
0001
0000
0000
0200
0000
0000
0000
0000
0000
0310
0000
0000
0000
0000
0000
,
1000
0000
0000
0100
0010
0000
0001
0000
1000
0000
0000
0000
0110
0000
0000
0000
;

//--------------- dance-single - Pruz ----------------
#NOTEDATA:;
#STEPSTYPE:dance-single;
#DESCRIPTION:Pruz;
#DIFFICULTY:Challenge;
#METER:13;
#RADARVALUES:0.487992,0.545991,0.247996,0.439993,0.351994,427,396,31,55,4,0,0,0,0,0.487992,0.545991,0.247996,0.439993,0.351994,427,396,31,55,4,0,0,0,0;
#CHARTNAME:Pruz;
#CHARTSTYLE:;
#CREDIT:Pruz;
#NOTES:
0000
0000
0000
0000
,
0000
0000
0000
0000
,
0000
0000
0000
0000
,
0000
0000
0000
0000
,
0001
0000
0010
0000
1000
0000
0000
0000
0010
0000
0000
0001
0010
0000
0100
0000
,
1000
0100
0001
0000
0101
0000
1100
0000
,
1000
0000
0010
0000
0001
0000
0010
0000
0100
0000
0000
0001
1000
0000
0001
0000
,
0010
0000
0000
0100
1000
0000
0100
0000
0110
0000
0000
0000
0011
0000
0001
0000
,
1000
0000
0010
0000
0001
0000
0000
0000
0010
0000
0000
1000
0010
0000
0100
0000
,
0001
0100
1000
0000
1100
0000
0101
0000
,
0001
0000
0010
0000
1000
0000
0010
0000
0100
0000
0000
1000
0001
0000
1000
0000
,
0010
0000
0000
0100
0001
0000
0100
0000
0110
0000
0000
0000
1010
0000
1000
0000
,
0100
0000
0000
0010
0100
0000
0010
0001
1000
0000
0001
0000
0010
0000
0000
0000
,
0220
0000
0330
2200
0000
3300
1001
0000
,
0001
0000
0100
0000
1000
0000
0100
0001
1000
0000
0001
0000
0010
0000
0000
0000
,
0220
0000
0330
2200
0000
3300
1001
0000
,
0001
0000
0000
0010
0100
0000
1000
0001
0010
0000
0001
0000
0100
0000
0000
0000
,
0220
0000
0330
2020
0000
3030
1001
0000
,
0001
0000
0100
0000
1000
0000
0100
0001
1000
0000
0001
0000
0010
0000
0000
0000
,
0220
0000
0000
0000
0330
0000
2200
0000
0000
0000
3300
0000
1001
0000
0000
1000
,
0100
0000
0010
0000
0001
0000
1000
0000
0000
0001
0000
0000
0200
0000
0000
0000
0000
0000
0320
0000
0000
0130
0000
0000
,
0001
0000
0000
1000
0001
0000
0010
0000
0100
0000
0000
0000
1100
0000
0000
1000
,
0010
0000
0001
0000
0010
0000
0100
0000
0000
0001
0000
0000
1000
0000
0000
0000
0000
0000
1100
0000
0000
0100
0000
0000
,
0010
0000
0000
0001
0010
0000
0100
0000
1000
0000
0000
0000
1010
0000
0000
0010
,
0001
0000
0010
0000
0100
0000
0001
0000
1000
0000
0001
0000
0010
0000
0000
0000
0000
0000
0100
0000
0000
1000
0000
0000
,
0001
0000
0000
0000
0000
0000
0000
0000
0000
0100
0000
0000
0010
0000
0000
0000
1000
0000
0000
0000
0001
0000
0000
0000
0020
0000
0000
0000
0000
0000
1000
0000
0000
0000
0000
0000
0230
0000
0000
0000
0000
0000
0000
0000
0000
0000
0000
0000
,
1300
0000
0001
0000
0100
0000
0010
0000
0000
1000
0000
0000
0002
0000
0000
1003
0000
0000
0010
0000
0000
0000
0000
0000
,
0100
0000
0000
0001
0100
0000
0010
0000
1000
0000
0001
0000
1000
0000
0000
0000
,
0200
0300
0000
0000
0000
0000
0000
0000
,
0010
0000
0000
0001
0010
0000
0100
0000
2000
0000
0000
0000
3002
0000
1003
0000
,
0010
0000
0000
0100
0001
0000
0100
0000
0010
0000
0000
1000
0001
0000
1000
0000
,
0100
0000
0000
0010
0001
0000
0010
0000
0200
0000
2300
0000
3002
0000
0003
0000
,
0100
0000
0000
0001
1000
0000
0000
0100
0010
0000
0000
0001
1000
0000
0000
0100
,
0010
0001
0010
0100
2000
0000
3002
1003
,
0010
0000
0000
0100
0001
0000
0100
0000
0010
0000
0000
1000
0001
0000
1000
0000
,
0100
0000
0000
0010
0001
0000
0010
0000
0200
0000
2300
0000
3001
0000
0000
0000
,
0200
0000
1000
0010
0302
1000
0013
0000
,
2000
0000
0000
3100
0010
0000
0002
0000
0000
0000
0100
0000
1003
0000
0000
0000
,
2000
0001
3100
0100
0002
1000
0013
0000
,
0200
0000
0000
0310
1000
0000
0002
0000
0000
0000
1000
0000
0103
0000
0000
0000
,
0020
0000
0001
0100
2030
0001
3100
0000
,
0002
0000
0000
0013
0100
0000
2000
0000
0000
0000
0010
0000
3001
0000
0000
0000
,
0002
1000
0013
0010
2000
0001
3100
0000
,
0020
0000
0000
0130
0001
0000
2000
0000
0000
0000
0001
0000
3010
0000
0100
0001
,
0100
0000
0010
0000
1000
0000
0001
0000
0000
0100
0000
0000
2000
0000
0000
3010
0000
0000
0011
0000
0000
0000
0000
0000
,
0001
1000
0000
0100
1000
0000
0001
0000
0020
0000
0000
1030
0010
0000
0000
0001
,
1000
0000
0100
0000
1000
0000
0001
0000
0000
0010
0000
0000
0200
0000
0000
1300
0000
0000
1001
0000
0000
0000
0000
0000
,
0001
0000
0000
0100
0010
0000
1000
0000
0002
0000
0000
0103
0010
0000
0000
1000
,
0001
0000
0010
0000
0001
0000
1000
0000
0000
0100
0000
0000
0002
0000
0000
0013
0000
0000
1010
0000
0000
0000
0000
0000
,
1000
0000
0000
0001
0000
0000
0000
0000
0000
0100
0000
0000
0001
0000
0000
0000
1000
0000
0000
0000
0010
0000
0000
0000
0200
0000
0000
0000
0000
0000
0000
0000
0000
0301
0000
0000
1000
0000
0000
0000
0000
0000
0000
0000
0000
0001
0000
0000
,
0010
0000
0100
0000
1000
0000
0001
0000
0000
0010
0000
0000
0200
0000
0000
1300
0000
0000
1001
0000
0000
0000
0000
0000
,
0001
0000
0000
0100
0010
0000
1000
0000
0002
0000
0000
0103
0010
0000
0000
1000
,
0001
0000
0010
0000
0001
0000
1000
0000
0000
0100
0000
0000
0010
0000
0000
0001
0000
0000
1000
0000
0000
0000
0000
0000
,
0001
0000
0000
0100
0010
0000
1000
0000
0001
0000
0010
0000
0110
0000
0000
1000
,
0001
0000
0100
0000
0001
0000
1000
0000
0000
0100
0000
0000
0010
0000
0000
0001
0000
0000
1000
0000
0000
0000
0000
0000
,
0010
0000
0000
0100
0001
0000
0100
0000
0010
0000
1000
0000
1001
0000
0000
0100
,
0010
0000
1000
0000
0001
0000
0100
0000
0000
0010
0000
0000
1000
0000
0000
0001
0000
0000
0010
0000
0000
0000
0000
0000
,
0100
0000
0000
0000
0000
0000
0000
0000
0000
0010
0000
0000
0001
0000
0000
0000
1000
0000
0000
0000
0100
0000
0000
0000
0010
0000
0000
0000
0000
0000
0001
0000
0000
0000
0000
0000
1001
0000
0000
0000
0000
0000
0000
0000
0000
0010
0000
0000
,
0100
0000
0001
0000
1000
0000
0010
0000
0000
0100
0000
0000
0010
0000
0000
1000
0000
0000
0001
0000
0000
0000
0000
0000
,
0010
0000
0000
0100
1000
0000
0001
0000
1000
0000
0000
0000
0110
0000
0000
0000
;
