#VERSION:0.83;
#TITLE:Seven Deadly Sins;
#SUBTITLE:;
#ARTIST:MAN WITH A MISSION;
#TITLETRANSLIT:;
#SUBTITLETRANSLIT:;
#ARTISTTRANSLIT:;
#GENRE:J-Rock;
#CREDIT:;
#MUSIC:Seven Deadly Sins.ogg;
#BANNER:Seven Deadly Sins.png;
#BACKGROUND:Seven Deadly Sins-bg.png;
#CDTITLE:;
#SAMPLESTART:17.273;
#SAMPLELENGTH:19.738;
#SELECTABLE:YES;
#OFFSET:0.725;
#BPMS:0.000=143.000;
#STOPS:;
#SPEEDS:0.000=1.000=0.000=0;
#SCROLLS:0.000=1.000;
#TICKCOUNTS:0.000=4;
#TIMESIGNATURES:0.000=4=4;
#LABELS:0.000=Song Start;
#COMBOS:0.000=1;
#ORIGIN:;
#TAGS:;
#PREVIEWVID:;
#JACKET:Seven Deadly Sins-jacket.png;
#CDIMAGE:;
#DISCIMAGE:;
#BGCHANGES:0.000=Seven Deadly Sins.avi=1.000=0=0=1,
99999.000=-nosongbg-=1.000=0=0=0=StretchNoLoop====
;
#FGCHANGES:;

//--------------- dance-single - Pruz ----------------
#NOTEDATA:;
#STEPSTYPE:dance-single;
#DESCRIPTION:Pruz;
#DIFFICULTY:Beginner;
#METER:3;
#RADARVALUES:0.116042,0.170959,0,0.447219,0.009127,89,89,0,49,0,0,0,0,0,0.116042,0.170959,0,0.447219,0.009127,89,89,0,49,0,0,0,0,0;
#CHARTNAME:Pruz;
#BANNER:;
#CHARTSTYLE:;
#METERF:0.000000;
#CREDIT:Pruz;
#NOTES:
0000
0000
0000
0000
,
0000
0000
0000
0000
,
0000
0000
0000
0000
,
0000
0000
0000
0000
,
0000
0000
0000
0000
,
1000
0000
0001
1000
,
0000
0100
1000
0000
,
0001
1000
0000
0010
,
2000
0000
3000
0002
,
0000
0003
2000
0000
,
3000
0020
0000
0030
,
1000
0000
0000
0100
,
0000
0000
0010
0000
,
0000
0001
0000
0000
,
2000
0000
0000
3002
,
0000
0000
2003
0000
,
0000
3010
0000
0000
,
1000
0000
0000
0100
,
0000
0000
0010
0000
,
0000
0001
0000
0000
,
2000
0000
0000
3002
,
0000
0000
0103
0000
,
0000
0001
1000
0001
,
1000
0002
0000
0000
,
0000
0000
0000
0003
0000
0000
0000
0000
0000
0000
0000
0000
0000
0000
0000
0000
,
0000
2000
0000
3100
,
0010
0000
0100
2000
,
0000
3100
0020
0000
,
0031
2000
0000
3010
,
1000
0000
0100
2000
,
0000
3001
2000
0000
,
3000
0002
0000
0003
,
0020
0000
0030
0200
,
0000
0300
2000
0000
,
3000
0002
0000
0003
,
0200
0000
0300
0020
,
0000
0030
2000
0000
,
3000
0002
0000
0003
,
2000
0000
3000
0002
,
0000
0003
0020
0000
,
0030
0002
0000
0003
,
2000
0000
3000
0200
,
0000
0300
2000
0000
,
3000
0020
0000
0000
,
0000
0000
0030
0200
,
0000
0000
0000
0000
,
0300
0002
0000
0003
,
2000
0000
3000
0020
,
0000
0000
0230
0000
,
0300
0001
0000
0000
,
0100
0000
0000
0010
,
0000
0000
1000
0000
,
0000
0002
0000
0003
,
2000
0000
3000
0002
,
0000
0000
0013
0000
,
0000
0002
0000
0003
,
0200
0000
0300
0020
,
0000
0030
2000
0000
,
3000
0002
0000
0000
,
2003
0000
0000
3200
,
0000
0000
1300
0001
,
1000
0001
2000
0000
,
0000
0000
0000
0000
0000
0000
0000
3000
0000
0000
0000
0000
0000
0000
0000
0000
;

//--------------- dance-single - Pruz ----------------
#NOTEDATA:;
#STEPSTYPE:dance-single;
#DESCRIPTION:Pruz;
#DIFFICULTY:Easy;
#METER:4;
#RADARVALUES:0.15255,0.227945,0.009127,0.547615,0.009127,117,116,1,60,0,0,0,0,0,0.15255,0.227945,0.009127,0.547615,0.009127,117,116,1,60,0,0,0,0,0;
#CHARTNAME:Pruz;
#BANNER:;
#CHARTSTYLE:;
#METERF:0.000000;
#CREDIT:Pruz;
#NOTES:
0000
0000
0000
0000
,
0000
0000
0000
0000
,
0000
0000
0000
0000
,
0000
0000
0000
0000
,
0000
0000
0000
0000
,
1000
0000
0100
1000
,
0000
0100
0010
0000
,
0100
1000
0000
0001
,
2000
0000
3000
0020
,
0000
0030
0200
0000
,
0300
0002
0000
0003
,
2000
0000
0000
3020
,
0000
0000
0230
0000
,
0000
0302
0000
0000
,
0023
0000
0000
0230
,
0000
0000
0320
0000
,
0000
0031
0000
0000
,
2000
0000
0000
3020
,
0000
0000
0230
0000
,
0000
0302
0000
0003
,
0020
0000
0000
0230
,
0000
0000
0320
0000
,
0000
0031
1000
0010
,
0100
0002
0000
0000
,
0000
0000
0000
0003
0000
0000
0000
0000
0000
0000
0000
0000
0000
0000
0000
0000
,
0000
1002
0000
1003
,
0100
0000
0010
0200
,
0000
1300
0200
0000
,
1300
0002
0000
1003
,
0010
0000
1000
0200
,
0000
0310
0200
0000
,
1300
0002
0000
0013
,
0100
0000
1000
0200
,
0000
0310
0002
0000
,
0103
0020
0000
0130
,
1000
0000
0100
0020
,
0000
0130
0002
1000
,
0010
0203
0000
0301
,
1000
0000
0100
0020
,
0000
0031
2000
0000
,
3010
0200
0000
0301
,
0100
0000
0010
2000
,
0000
3001
0020
0001
,
1000
0230
0300
0200
,
0300
2000
3000
0002
,
0003
0002
0003
0020
,
0030
0100
0100
1000
,
1000
0001
1000
0002
,
0000
0000
2003
0000
,
3000
0002
0000
0000
,
0023
0000
0000
0230
,
0000
0000
2300
0000
,
0000
3002
0000
0000
,
0203
0000
0000
0302
,
0000
0000
1003
0000
,
0000
0002
0000
0000
,
0023
0000
0000
0230
,
0000
0000
2300
0000
,
3000
0020
0000
0000
,
0230
0000
0000
0320
,
0000
0000
1030
0001
,
0010
0100
2000
0000
,
0000
0000
0000
0000
0000
0000
0000
3000
0000
0000
0000
0000
0000
0000
0000
0000
;

//--------------- dance-single - Pruz ----------------
#NOTEDATA:;
#STEPSTYPE:dance-single;
#DESCRIPTION:Pruz;
#DIFFICULTY:Medium;
#METER:9;
#RADARVALUES:0.375508,0.427396,0.045635,0.629757,0.136904,288,283,5,69,0,0,0,0,0,0.375508,0.427396,0.045635,0.629757,0.136904,288,283,5,69,0,0,0,0,0;
#CHARTNAME:Pruz;
#BANNER:;
#CHARTSTYLE:;
#METERF:0.000000;
#CREDIT:Pruz;
#NOTES:
0000
0000
0000
0000
,
0000
0000
0000
0000
,
0000
0000
0000
0000
,
0000
0000
0000
0000
,
0000
0000
0000
0000
,
1000
0000
0010
1000
0001
1000
0100
0000
,
1000
0001
0010
0001
1000
0000
1000
0100
,
0010
0001
1000
0000
0010
0100
0001
0100
,
0010
0000
1000
0001
0010
0001
1000
0000
,
1000
0100
1000
0001
1000
0000
0010
0100
,
0001
0100
0010
0000
1000
0001
2000
3000
,
2001
0000
0000
3000
0001
0000
0000
0000
0010
0000
0000
0000
0200
0000
0000
0300
,
1000
0000
0000
0000
1000
0000
0000
0000
0200
0000
0000
0300
0010
0000
0000
0000
,
0001
0000
0000
0000
0002
0000
0000
0003
0100
0000
0000
0000
0010
0000
0000
0000
,
2000
0000
0000
3000
0001
0000
0010
0000
0001
0000
1000
0000
0002
0000
0000
0003
,
1000
0000
0010
0000
1000
0000
0001
0000
2000
0000
0000
3000
0001
0000
0100
0000
,
0010
0000
1000
0000
0002
0000
0000
0003
1000
0000
0000
0000
0002
0000
0003
0000
,
1002
0000
0000
0003
1000
0000
0000
0000
0010
0000
0000
0000
0200
0000
0000
0300
,
0001
0000
0000
0000
0001
0000
0000
0000
0200
0000
0000
0300
0010
0000
0000
0000
,
1000
0000
0000
0000
2000
0000
0000
3000
0100
0000
0000
0000
0010
0000
0000
0000
,
0002
0000
0000
0003
1000
0000
0010
0000
1000
0000
0001
0000
2000
0000
0000
3000
,
0001
0010
0001
1000
0001
0000
1000
0100
,
0010
0001
2000
3000
2000
3000
2000
3000
,
2000
3000
2000
0000
0000
0000
0000
0000
,
0000
0000
0000
3000
0000
0000
0000
0000
0000
0000
0000
0000
0000
0000
0000
0000
,
0000
0000
0000
0000
0001
0000
0000
0010
0000
0000
0000
0000
0100
0000
0000
0000
,
1000
0000
0000
0000
0001
0000
0000
0000
1000
0000
0000
0000
0001
0000
0000
0010
,
0000
0100
1000
0001
,
0010
0000
0000
0000
0001
0000
0000
0100
0000
0000
0000
0000
0010
0000
0000
0000
,
1000
0000
0000
0000
0001
0000
0000
0000
1000
0000
0000
0000
0001
0000
0000
0100
,
0000
0010
1000
0001
,
0100
0000
0002
0000
1003
0010
1000
0001
,
2000
0000
3001
0100
0001
0000
2000
0000
,
3001
1000
0010
1000
0002
0000
0103
0000
,
0010
0000
2000
0000
3001
0100
0001
1000
,
0002
0000
1003
0010
1000
0000
0002
0000
,
1003
0001
0100
0001
2000
0000
3010
0000
,
0100
0000
0002
0000
1003
0100
0010
0001
,
2000
0000
3001
0100
0001
0000
2000
0000
,
3001
0010
0100
1000
0002
0000
1003
0000
,
0100
0000
2000
0000
3001
0100
0010
1000
,
0002
0000
1003
0100
1000
0000
0002
0000
,
1003
0010
0100
0001
2000
0000
3001
0000
,
1000
2001
3001
0001
,
0001
0010
0100
1000
,
1000
1000
0100
0010
,
0001
0000
0000
0000
2000
0000
0000
3010
0000
0000
2000
0000
3002
0000
2003
0000
,
3002
0000
0000
0103
0000
0000
0002
0000
2003
0000
3002
0000
2003
0000
0000
0000
,
0100
0000
0001
3000
0002
0000
0100
0000
,
2003
0000
3000
0000
2001
0000
0000
3000
0001
0000
0000
0000
0010
0000
0000
0000
,
0200
0000
0000
0300
1000
0000
0000
0000
1000
0000
0000
0000
0200
0000
0000
0300
,
0010
0000
0000
0000
0001
0000
0000
0000
0002
0000
0000
0003
0100
0000
0000
0000
,
0010
0000
2000
0000
3001
0100
0001
1000
,
0002
0000
1003
0100
1000
0001
2000
0000
,
3001
0010
0100
1000
0001
0000
1000
0000
,
0002
0000
0003
0000
1002
0000
0000
0003
1000
0000
0000
0000
0010
0000
0000
0000
,
0200
0000
0000
0300
0001
0000
0000
0000
0001
0000
0000
0000
0200
0000
0000
0300
,
0010
0000
0000
0000
1000
0000
0000
0000
2000
0000
0000
3000
0100
0000
0000
0000
,
0010
0000
0002
0000
1003
0010
1000
0001
,
2000
0000
3001
0010
0001
1000
0002
0000
,
1003
0100
0010
0001
2000
3000
2000
3000
,
2000
3000
2000
3000
2000
0000
0000
0000
,
0000
0000
0000
0000
0000
0000
0000
3000
0000
0000
0000
0000
0000
0000
0000
0000
;

//--------------- dance-single - Pruz ----------------
#NOTEDATA:;
#STEPSTYPE:dance-single;
#DESCRIPTION:Pruz;
#DIFFICULTY:Hard;
#METER:12;
#RADARVALUES:0.505892,0.570432,0.100396,1.022215,0.346823,388,377,11,112,0,0,0,0,0,0.505892,0.570432,0.100396,1.022215,0.346823,388,377,11,112,0,0,0,0,0;
#CHARTNAME:Pruz;
#BANNER:;
#CHARTSTYLE:;
#METERF:0.000000;
#CREDIT:Pruz;
#NOTES:
0000
0000
0000
0000
,
0000
0000
0000
0000
,
0000
0000
0000
0000
,
0000
0000
0000
0000
,
0000
0000
0000
0000
,
1000
0000
1000
0001
1000
0010
1000
0000
,
1000
0001
1000
0100
1000
0000
1000
0001
,
1000
0001
0010
0000
0001
1000
0001
0100
,
0001
0000
0001
1000
0001
0010
0001
0000
,
0001
1000
0001
0100
0001
0000
0001
1000
,
0001
1000
0010
0000
1000
0001
2000
3000
,
1002
0000
0000
0003
1000
0000
0100
0000
0010
0000
0001
0000
2000
0000
0000
3000
,
0001
0000
0010
0000
0100
0000
1000
0000
0002
0000
0000
0003
1000
0000
0010
0000
,
0100
0000
0001
0000
2000
0000
0000
3000
0001
0000
0100
0000
0010
0000
1000
0000
,
0002
0000
0000
1003
0000
0000
0001
0000
0010
0000
0001
0000
2000
0000
0000
3001
,
0000
0000
1000
0000
0010
0000
1000
0000
0002
0000
0000
0103
0000
0000
0010
0000
,
1000
0000
0001
0000
2000
0000
0000
3000
0100
0000
0000
0000
0020
0000
0030
0000
,
2001
0000
0000
3000
0001
0000
0010
0000
0100
0000
1000
0000
0002
0000
0000
0003
,
1000
0000
0100
0000
0010
0000
0001
0000
2000
0000
0000
3000
0001
0000
0100
0000
,
0010
0000
1000
0000
0002
0000
0000
0003
1000
0000
0010
0000
0100
0000
0001
0000
,
2000
0000
0000
3001
0000
0000
1000
0000
0100
0000
1000
0000
0002
0000
0000
1003
,
0000
0000
0001
0000
0100
0000
0001
0000
2000
0000
0000
3010
0000
0000
0100
0000
,
0001
1000
0002
0003
0020
0030
0200
0300
,
2000
0000
3000
0000
0002
2003
3002
2003
3002
2003
3002
2003
3002
2003
3002
2003
,
3002
2003
3002
2003
3000
0000
0000
0000
0000
0000
0000
0000
0000
0000
0000
0000
,
0000
0000
0000
0000
2001
0000
0000
3001
0000
0000
1000
0000
0010
0000
1000
0000
,
0001
0000
0000
0001
0000
0000
0010
0000
0100
0000
1000
0000
0001
0000
0000
0001
,
0000
0000
1000
0000
0010
0000
1000
0000
0001
0000
0000
0001
0000
0000
1000
0000
,
0100
0000
1000
0000
0002
0000
0000
0013
0000
0000
0100
0000
1000
0000
0001
0000
,
1000
0000
0000
0010
0000
0000
0100
0000
0001
0000
1000
0000
0001
0000
0000
0010
,
0000
0000
0100
0000
1000
0000
0001
0000
1000
0000
0000
0010
0000
0000
0100
0000
,
0001
0000
1000
0000
2001
0000
0000
3001
0000
0000
0010
0000
0001
0000
1000
0000
,
0002
0000
0000
0103
0000
0000
0001
0000
1000
0000
0001
0000
0020
0000
0000
0130
,
0000
0000
1000
0000
0001
0000
0010
0000
0002
0000
0000
1003
0000
0000
0010
0000
,
1000
0000
0001
0000
2000
0000
0000
3001
0000
0000
0100
0000
0001
0000
1000
0000
,
0002
0000
0000
0013
0000
0000
0001
0000
1000
0000
0001
0000
0200
0000
0000
0310
,
0000
0000
1000
0000
0001
0000
0100
0000
0002
0000
0000
1003
0000
0000
0100
0000
,
1000
0000
0001
0000
1002
0000
0000
1003
0000
0000
0100
0000
0010
0000
0001
0000
,
2000
0000
0000
3001
0000
0000
0010
0000
0100
0000
1000
0000
0002
0000
0000
0013
,
0000
0000
0001
0000
1000
0000
0001
0000
0200
0000
0000
0310
0000
0000
1000
0000
,
0001
0000
1000
0000
0200
0000
0000
0310
0000
0000
0001
0000
0100
0000
0001
0000
,
2000
0000
0000
3100
0000
0000
0010
0000
0001
0000
1000
0000
0020
0000
0000
1030
,
0000
0000
0001
0000
0100
0000
0001
0000
2000
0000
0000
3001
0000
0000
0010
0000
,
0001
1000
1100
0000
1100
0000
0100
1000
,
0100
0000
0010
0001
0010
0000
0011
0000
,
0011
0000
0001
1000
0001
0000
0100
0010
,
0100
0000
0000
0000
0001
0000
0000
0001
0000
0000
0100
0000
0010
0000
1000
0000
,
0001
0000
0000
0001
0000
0000
0010
0000
0100
0000
1000
0000
0002
0000
0000
0000
,
1000
0010
1000
0100
,
2003
0000
3000
0000
1002
0000
0000
0003
1000
0000
0100
0000
0010
0000
0001
0000
,
2000
0000
0000
3000
0001
0000
0020
0000
0230
0000
2300
3000
0002
0000
0000
0003
,
1000
0000
0010
0000
0100
0000
0001
0000
2000
0000
0000
3000
0001
0000
0200
0000
,
0320
0000
2030
3000
0002
0000
0000
0003
1000
0000
0001
0000
0010
0000
0001
0000
,
2000
0000
0000
3000
0001
0000
2000
0000
3020
0000
2030
3000
0002
0000
0000
0003
,
0100
0000
0010
0000
1000
0000
0001
0000
2000
0000
0000
3000
0200
0000
0000
0300
,
0020
0000
0030
0000
2001
0000
0000
3000
0001
0000
0010
0000
0100
0000
1000
0000
,
0002
0000
0000
0003
1000
0000
0200
0000
0320
0000
0032
0000
2003
0000
0000
3000
,
0001
0000
0100
0000
0010
0000
1000
0000
0002
0000
0000
0003
1000
0000
0020
0000
,
0230
0000
0302
0000
2003
0000
0000
3001
0000
0000
1000
0000
0100
0000
1000
0000
,
0002
0000
0000
1003
0000
0000
0002
0000
0203
0000
0302
0000
2003
0000
0000
3000
,
0010
0100
0001
1000
0002
0003
0020
0030
,
0200
0000
0300
0000
2000
0000
3000
0000
0002
2003
3002
2003
3002
2003
3002
2003
,
3002
2003
3002
2003
3002
2003
3002
2003
3000
0000
0000
0000
0000
0000
0000
0000
;

//--------------- dance-single - Pruz ----------------
#NOTEDATA:;
#STEPSTYPE:dance-single;
#DESCRIPTION:Pruz;
#DIFFICULTY:Challenge;
#METER:14;
#RADARVALUES:0.577604,0.684519,0.337696,1.076976,0.410711,443,406,37,118,0,0,0,0,0,0.577604,0.684519,0.337696,1.076976,0.410711,443,406,37,118,0,0,0,0,0;
#CHARTNAME:Pruz;
#BANNER:;
#CHARTSTYLE:;
#METERF:0.000000;
#CREDIT:Pruz;
#NOTES:
0000
0000
0000
0000
,
0000
0000
0000
0000
,
0000
0000
0000
0000
,
0000
0000
0000
0000
,
0000
0000
0000
0000
,
1000
0000
0000
0001
0010
0000
0100
0000
1000
0000
0001
0000
1000
0000
0000
0001
,
0100
0000
0010
0000
1000
0000
0001
0000
1000
0000
0000
0001
0010
0000
0100
0000
,
1000
0000
0001
0000
1000
0000
0000
0001
0100
0000
0010
0000
1000
0000
0001
0000
,
1000
0000
0000
0100
0010
0000
0001
0000
1000
0000
0100
0000
0010
0000
0000
0100
,
1000
0000
0001
0000
0010
0000
0100
0000
1000
0000
0000
0001
0100
0000
0010
0000
,
0100
0000
0001
0000
1000
0000
0000
0010
0100
0000
0001
0000
2000
0000
3000
0000
,
2001
0000
0000
3001
0000
0000
0100
0000
0010
0000
1000
0000
0002
0000
0000
1003
,
0000
0000
0100
0000
0010
0000
0001
0000
2000
0000
0000
3010
0000
0000
0100
0000
,
0001
0000
1000
0000
0002
0000
0000
0013
0000
0000
0100
0000
1000
0000
0000
0000
,
2001
0000
0000
3001
0000
0000
0010
0000
0001
0000
1000
0000
1002
0000
0000
1003
,
0000
0000
0100
0000
1000
0000
0001
0000
1002
0000
0000
1003
0000
0000
0001
0000
,
0100
0000
0001
0000
1002
0000
0000
1003
0000
0000
0010
0000
0200
0000
0300
0000
,
0210
0000
0000
0310
0000
0000
1000
0000
0010
0000
0100
0000
0002
0000
0000
1003
,
0000
0000
0100
0000
0010
0000
0001
0000
2000
0000
0000
3010
0000
0000
0100
0000
,
0001
0000
1000
0000
0002
0000
0000
0013
0000
0000
0100
0000
1000
0000
0000
0000
,
2001
0000
0000
3001
0000
0000
0010
0000
0001
0000
1000
0000
1020
0000
0000
1030
,
0000
0001
0100
0001
1002
0003
1000
0001
,
0010
0001
2002
3003
2200
3300
2002
3003
,
0202
0000
0303
0000
2000
3002
2003
3002
2003
3002
2003
3002
2003
3002
2003
3002
,
2003
3002
2003
3002
0003
0000
0000
0000
0000
0000
0000
0000
0000
0000
0000
0000
,
0000
0000
0000
0000
2001
0000
0000
3001
0010
0000
0100
0000
1000
0000
0100
0000
,
0010
0000
0000
0001
0100
0000
0010
0100
0010
0100
0010
0000
2000
0000
0000
3001
,
0100
0000
0010
0000
1000
0000
0001
0000
2000
0000
0000
3100
0010
0000
0100
0010
,
0100
0010
0001
0000
1002
0000
0000
1003
0010
0000
0100
0000
0001
0000
0100
0000
,
0010
0000
0000
1000
0100
0000
0010
0100
0010
0100
0010
0000
0002
0000
0000
1003
,
0100
0000
0010
0000
0001
0000
1000
0000
0002
0000
0000
0103
0010
0000
0100
0000
,
0010
0000
1000
0001
2000
0000
0000
3010
0000
0000
0100
0000
0001
0000
0100
0000
,
0020
0000
0000
1030
0000
0000
0001
0000
0010
0000
0001
0000
2000
0000
0000
3100
,
0000
0010
0001
1000
0002
0103
0010
0100
,
0001
0000
1000
0000
0002
0000
0000
0013
0000
0000
0100
0000
1000
0000
0001
0000
,
2000
0000
0000
3100
0000
0000
0010
0000
0001
0000
1000
0000
0002
0000
0000
0103
,
0000
0010
0100
0001
2000
3010
0100
0001
,
0010
0000
0100
1000
0200
0000
0000
0310
0000
0000
0100
0000
1000
0000
0100
0000
,
0020
0000
0000
0031
0000
0000
1000
0000
0010
0000
1000
0000
0002
0000
0000
0103
,
0000
0010
1000
0001
2000
3100
0010
0100
,
1000
0000
0001
0000
2000
0000
0000
3010
0000
0000
0100
0000
0001
0000
1000
0000
,
0002
0000
0000
0103
0000
0000
0010
0000
1000
0000
0001
0000
2000
0000
0000
3100
,
0000
0010
0100
1000
0002
0013
0100
1000
,
0010
0100
0101
0000
0101
0000
0001
0010
,
0100
0000
1000
0001
1000
0000
1100
0000
,
1100
0000
0100
0010
0001
0000
0100
0010
,
1000
0000
0000
0000
2200
3300
0000
2002
3003
0000
2200
3300
2000
3000
0002
0003
,
0202
0303
0000
2002
3003
0000
0202
0303
0002
0003
2000
3000
0020
0000
0000
0100
,
0000
0000
1000
0000
0100
0000
0130
0000
0200
0000
0000
0001
0000
0000
0010
0000
,
0302
0000
0003
0000
1002
0000
0000
1003
0000
0000
0100
0000
0010
0000
0001
0000
,
2000
0000
0000
3001
0000
0000
0100
0000
0010
0000
1000
0000
0002
0000
0000
0013
,
0000
0000
0100
0000
1000
0000
0001
0000
2000
0000
0000
3010
0000
0000
0100
0000
,
0001
0000
1001
0000
0001
1000
0010
1000
,
1001
0000
1000
0001
0010
0001
1001
0000
,
0001
0000
1000
0000
0001
0000
1000
0000
0001
0000
0000
0010
0000
0000
0100
0000
,
2000
0000
3000
0000
2001
0000
0000
3001
0000
0000
0010
0000
0100
0000
1000
0000
,
0002
0000
0000
0103
0000
0000
0010
0000
1000
0000
0001
0000
2000
0000
0000
3100
,
0000
0000
0010
0000
0001
0000
1000
0000
0020
0000
0000
0130
0000
0000
0001
0000
,
1000
0000
0000
0000
2001
0000
0000
3001
0000
0000
0010
0000
0001
0000
1000
0000
,
2001
0000
0000
3001
0000
0000
0100
0000
0001
0000
1000
0000
1002
0000
0000
0003
,
1000
0010
0100
0001
2002
3003
2200
3300
,
2002
0000
3003
0000
0022
0000
0033
0000
2000
3002
2003
3002
2003
3002
2003
3002
,
2003
3002
2003
3002
2003
3002
2003
3002
0003
0000
0000
0000
0000
0000
0000
0000
;
