#VERSION:0.83;
#TITLE:Ruler of Everything (2005 Version);
#SUBTITLE:;
#ARTIST:Tally Hall;
#TITLETRANSLIT:;
#SUBTITLETRANSLIT:;
#ARTISTTRANSLIT:;
#GENRE:Rock;
#CREDIT:;
#MUSIC:Ruler of Everything.ogg;
#BANNER:Ruler of Everything.png;
#BACKGROUND:Ruler of Everything-bg.png;
#CDTITLE:;
#SAMPLESTART:56.139;
#SAMPLELENGTH:17.088;
#SELECTABLE:YES;
#OFFSET:-0.080;
#BPMS:0.000=85.000;
#STOPS:;
#SPEEDS:0.000=1.000=0.000=0;
#SCROLLS:0.000=1.000;
#TICKCOUNTS:0.000=4;
#TIMESIGNATURES:0.000=4=4;
#LABELS:0.000=Song Start;
#COMBOS:0.000=1;
#ORIGIN:;
#PREVIEWVID:;
#JACKET:Ruler of Everything-jacket.png;
#CDIMAGE:;
#DISCIMAGE:;
#LASTSECONDHINT:107.019;
#BGCHANGES:0.000=Ruler of Everything.avi=1.000=0=0=0=StretchNoLoop====,
99999.000=-nosongbg-=1.000=0=0=0=StretchNoLoop====
;
#FGCHANGES:;

//--------------- dance-single - Pruz ----------------
#NOTEDATA:;
#STEPSTYPE:dance-single;
#DESCRIPTION:Pruz;
#DIFFICULTY:Beginner;
#METER:3;
#RADARVALUES:0.147175,0.183345,0.087307,0.174615,0,118,108,10,20,0,0,0,0,0,0.147175,0.183345,0.087307,0.174615,0,118,108,10,20,0,0,0,0,0;
#CHARTNAME:Pruz;
#CHARTSTYLE:;
#CREDIT:Pruz;
#NOTES:
0000
0000
0000
0000
,
0000
0000
0000
0000
,
0000
0000
0000
0000
,
0000
0000
0000
0000
,
2000
3000
0200
0300
,
0010
0010
0002
0003
,
1000
1000
0020
0030
,
0100
0001
1000
0010
,
0200
0300
0001
1000
,
0200
0300
1000
0001
,
0020
0030
0002
0003
,
2000
3000
0200
0300
,
2000
3000
0020
0030
,
0200
0300
0002
0003
,
2000
3010
0002
0013
,
0001
0100
0010
2000
,
3001
0010
0100
2000
,
3001
0100
0010
1000
,
0001
0011
1000
1010
,
0001
0100
0010
1000
,
0001
0011
1000
1010
,
0001
0010
0100
1000
,
0001
0011
1000
1010
,
0001
0100
0010
1000
,
0001
0101
1000
1100
,
0001
0000
0010
0000
0100
0100
0000
0000
,
1000
0001
1000
1000
,
0100
0010
0100
0100
,
1000
0010
0100
0001
,
1000
1000
0010
0100
,
0001
0010
0001
0001
,
0220
0000
0000
0330
,
1000
0100
0010
0001
,
1000
1000
0100
0010
,
0001
0100
1000
0010
,
1001
0000
0000
0000
;

//--------------- dance-single - Pruz ----------------
#NOTEDATA:;
#STEPSTYPE:dance-single;
#DESCRIPTION:Pruz;
#DIFFICULTY:Easy;
#METER:5;
#RADARVALUES:0.178356,0.213903,0.087307,0.139692,0,143,133,10,16,0,0,0,0,0,0.178356,0.213903,0.087307,0.139692,0,143,133,10,16,0,0,0,0,0;
#CHARTNAME:Pruz;
#CHARTSTYLE:;
#CREDIT:Pruz;
#NOTES:
0000
0000
0000
0000
,
0000
0000
0000
0000
,
0000
0000
0000
0000
,
0000
0000
0000
0000
,
1000
0100
0010
0001
,
0100
0100
1000
0000
,
0100
0100
0001
0000
,
0100
0010
1000
0010
,
0100
0000
0001
0000
,
1000
0000
0010
1000
,
0001
0010
0100
0000
1000
0010
0100
0000
,
0001
0000
1000
0000
0010
0100
0001
0000
,
1000
0000
0100
0000
0010
0001
1000
0000
,
0001
0000
0100
0000
0010
1000
0001
0000
,
0100
0000
0100
0000
0010
1000
0010
0000
,
0200
0302
1003
0020
,
0230
0302
1003
0020
,
0130
0001
1000
0100
,
0002
0003
0020
0030
,
0200
0300
0002
0003
,
1000
1100
0001
0101
,
0001
1000
0010
0000
1000
0001
0010
0000
,
0001
0101
1000
1100
,
0001
0010
0100
0000
1000
0000
0001
0000
,
1000
1010
0001
0011
,
1000
0100
0010
0000
0001
1000
0001
0000
,
0100
0000
0010
0000
1000
1000
0001
0000
,
1000
0000
0010
0000
0100
0100
0001
0000
,
1000
0000
0100
0000
0010
0010
0001
0000
,
0010
0100
1000
1001
,
0001
0000
0010
0000
0001
0001
1000
0000
,
0100
0020
0032
2003
,
3100
0010
0001
0000
0010
0100
1000
0000
,
0001
0101
1000
1100
,
0002
0023
0230
1300
,
1001
0000
0000
0000
;

//--------------- dance-single - Pruz ----------------
#NOTEDATA:;
#STEPSTYPE:dance-single;
#DESCRIPTION:Pruz;
#DIFFICULTY:Medium;
#METER:6;
#RADARVALUES:0.204548,0.259739,0.008731,0.096038,0,164,163,1,11,0,0,0,0,0,0.204548,0.259739,0.008731,0.096038,0,164,163,1,11,0,0,0,0,0;
#CHARTNAME:Pruz;
#CHARTSTYLE:;
#CREDIT:Pruz;
#NOTES:
0000
0000
0000
0000
,
0000
0000
0000
0000
,
0000
0000
0000
0000
,
0000
0000
0000
0000
,
1000
0100
0010
0001
,
1000
0010
2000
3100
,
0001
0010
0002
0103
,
0001
1000
0100
1000
,
0001
0001
0010
0010
,
0100
0100
1000
0001
,
0100
0010
1000
0001
0010
0010
0001
1000
,
0100
0010
0001
1000
0001
0100
0010
1000
,
0100
0010
0001
1000
0010
0010
1000
0001
,
0100
0010
1000
0001
1000
0100
0010
0001
,
1000
0000
0010
0000
0100
0100
0001
0000
,
2000
3020
0130
0002
,
1003
0100
0010
0000
0001
0000
2000
0000
,
3001
0100
0010
0000
2000
0000
3001
0000
,
1000
0100
0010
0000
0001
0010
0100
0000
,
1000
0010
0100
0000
0001
0100
1000
0000
,
0100
0000
0010
0000
0100
0100
0001
0000
,
1000
0000
0010
0000
0100
0100
0001
0000
,
0100
0000
0010
0000
0100
0100
0001
0000
,
1000
0000
0010
0000
0100
0100
0001
0000
,
2000
3100
0002
0103
,
1000
0010
0100
0001
1000
0001
0010
0000
,
0100
0000
1000
0000
0100
0010
0001
0000
,
1000
0000
0010
0000
0100
0001
0100
0000
,
0010
0000
1000
0000
0100
0010
0001
0000
,
0100
0000
0010
0000
1000
0001
1000
0000
,
0100
0000
0010
0000
0001
0010
0100
0000
,
2000
0100
0001
3010
,
0100
0100
0001
0000
1000
1000
0010
0000
,
0100
0000
0001
0000
1000
0100
0010
0000
,
0002
1000
0100
0013
,
1001
0000
0000
0000
;

//--------------- dance-single - Pruz ----------------
#NOTEDATA:;
#STEPSTYPE:dance-single;
#DESCRIPTION:Pruz;
#DIFFICULTY:Hard;
#METER:10;
#RADARVALUES:0.305575,0.412527,0.12223,0.130961,0.170249,245,231,14,15,0,0,0,0,0,0.305575,0.412527,0.12223,0.130961,0.170249,245,231,14,15,0,0,0,0,0;
#CHARTNAME:Pruz;
#CHARTSTYLE:;
#CREDIT:Pruz;
#NOTES:
0000
0000
0000
0000
,
0000
0000
0000
0000
,
0000
0000
0000
0000
,
0000
0000
0000
0000
,
1000
0001
0100
1000
,
0010
0010
0001
1000
,
0010
0010
1000
0001
,
0010
0010
0001
0100
,
1000
0010
0100
0100
,
0010
0000
0000
0000
0000
0000
0001
0000
0000
0000
0000
0000
0100
0000
0000
0000
0000
0000
0100
0000
0000
0000
0000
0010
,
1000
0000
0000
0001
0000
0000
1000
0000
0000
0100
0000
0010
0001
0000
0000
0010
0000
0000
0100
0000
1000
0001
0000
1000
,
0010
0000
0000
0100
0000
0001
1000
0000
0000
0100
0000
0000
0010
0000
0000
0001
0000
0010
0100
0000
0000
1000
0000
0001
,
1000
0000
0000
0010
0000
0000
1000
0000
0000
0100
0000
0010
0001
0000
0000
0010
0000
0000
0100
0000
1000
0001
0000
1000
,
0010
0000
0000
0100
0000
0001
1000
0000
0000
0100
0000
0000
0010
0000
0000
0001
0000
0010
0100
0000
0000
1000
0000
0001
,
0200
0000
0000
0300
0000
0000
1000
0000
0000
0000
0000
0010
0100
0000
0010
0001
0000
0000
1000
0000
0000
0000
0000
0000
,
0010
0000
0000
0100
0000
0000
0001
0000
1000
0010
0000
0000
0100
0000
0000
0000
0000
0000
0002
0000
0000
0000
0000
0000
,
1003
0000
0100
0001
0000
0000
0010
0000
1000
0001
0000
0000
0100
0000
0000
0000
0000
0000
0020
0000
0000
0000
0000
0000
,
0130
0000
0000
1000
0000
0000
0010
0000
0001
1000
0000
0000
0100
0000
0000
0000
0000
0000
0010
0000
0000
0001
0000
0000
,
1000
1000
0010
0010
0001
0001
0100
0100
,
0001
0000
0000
0001
0000
0000
0010
0000
0000
0010
0000
0000
1000
0000
0000
0100
0000
0000
0010
0000
0000
0001
0000
1000
,
0010
0000
0000
0100
0000
0000
0101
0000
0000
0001
0000
0010
0100
0000
0000
1000
0000
0000
1001
0000
0000
0001
0000
0100
,
0010
0000
1000
0001
0000
0000
0011
0000
0000
0001
0000
0000
0100
0000
0010
1000
0000
0000
1001
0000
0000
0001
0000
1000
,
0100
0000
0000
0010
0000
0000
0011
0000
0000
0001
0000
0100
0010
0000
0000
1000
0000
0000
1001
0000
0000
0001
0000
0010
,
0100
0000
1000
0001
0000
0000
0101
0000
0000
0001
0000
0000
0020
0000
0000
0000
0000
0000
0230
0000
0000
2300
0000
0000
,
3001
0000
0000
0100
0000
0000
0110
0000
0000
1000
0000
0100
0010
0000
0000
0001
0000
0000
1001
0000
0000
1000
0000
0010
,
0001
0000
0010
1000
0000
0000
1100
0000
0000
1000
0000
0000
0101
0000
0000
1100
0000
0000
0000
0000
0000
0000
0000
0001
,
1000
0000
0000
0000
0000
0000
0010
0000
0000
0100
0000
0000
0001
0000
0000
1000
0000
0000
0010
0000
0000
1000
0000
0001
,
0010
0000
0000
0001
0000
1000
0010
0000
0000
1000
0000
0100
0010
0000
0001
0010
0000
0000
0100
0000
0000
1000
0000
0000
,
0001
0000
0000
0010
0000
0000
0001
0000
0000
1000
0000
0000
0010
0000
1000
0001
0000
0000
0010
0000
0000
0000
0000
0000
,
0001
0000
0100
0000
0010
1000
0001
0000
,
0010
0000
0001
0000
0100
0010
1000
0000
,
1100
0002
0023
0230
,
1300
0000
0010
1000
0000
0000
0001
0000
0000
0000
0000
0000
1000
0000
0100
1000
0000
0000
0001
0000
0000
0000
0000
0000
,
0020
0230
2300
3001
,
0200
2300
3200
0301
,
1001
0000
0000
0000
;

//--------------- dance-single - Pruz ----------------
#NOTEDATA:;
#STEPSTYPE:dance-single;
#DESCRIPTION:Pruz;
#DIFFICULTY:Challenge;
#METER:12;
#RADARVALUES:0.40785,0.49656,0.165884,0.558766,0.475825,327,308,19,64,3,0,0,0,0,0.40785,0.49656,0.165884,0.558766,0.475825,327,308,19,64,3,0,0,0,0;
#CHARTNAME:Pruz;
#CHARTSTYLE:;
#CREDIT:Pruz;
#NOTES:
0000
0000
0000
0000
,
0000
0000
0000
0000
,
0000
0000
0000
0000
,
0000
0000
0000
0000
,
1000
0010
0001
0100
,
1000
0010
0020
0030
,
1000
0010
0020
0030
,
1000
0100
0001
0010
,
1000
1000
0010
0001
,
0100
0000
0000
0000
0000
0000
0000
0000
0000
0000
0000
0000
0100
0000
0000
0000
0000
0000
0000
0000
0000
0000
0000
0000
1000
0000
0000
0000
0000
0000
0000
0000
0000
0000
0000
0000
0020
0000
0000
0000
0000
0000
0000
0000
0000
0030
1000
0000
,
0001
0000
0000
0020
0000
0031
1000
0000
0000
0200
0000
0310
0001
0000
0000
0020
0000
0130
1000
0000
0001
2000
0000
3001
,
0200
0000
0000
0310
0000
1000
0001
0000
0000
0020
0000
0031
1000
0000
0000
0200
0000
0310
0001
0000
0000
0020
0000
0130
,
1000
0000
0000
0020
0000
1030
0001
0000
0000
0200
0000
0310
1000
0000
0000
0020
0000
0130
0001
0000
1000
0002
0000
1003
,
0200
0000
0000
0310
0000
0001
1000
0000
0000
0020
0000
1030
0001
0000
0000
0200
0000
0310
1000
0000
0000
0020
0000
0130
,
0002
0000
1003
0000
0000
0001
0020
0000
0030
0000
0000
0001
2000
0000
3001
0200
0000
0301
2000
0000
3100
0010
0000
0001
,
0020
0000
0130
1000
0000
0100
0020
0000
0031
1000
0000
0010
0002
0000
0000
0003
0000
0000
0200
0000
0000
0000
0000
0000
,
0320
0000
0130
1000
0000
0100
0020
0000
0031
1000
0000
0010
0002
0000
0000
0003
0000
0000
0200
0000
0000
0010
0000
0310
,
0002
0000
0013
0100
0000
1000
0002
0000
1003
0010
0000
1000
0002
0000
0000
0103
0000
0000
0010
0000
1000
0001
0000
0000
,
2000
0000
0000
3100
0000
0000
0020
0000
0000
0031
0000
1000
0001
0000
0010
0001
0000
1000
0001
0000
0100
0010
0000
0000
,
2000
0000
0000
3100
0000
0000
0020
0000
0000
0031
0000
1000
0001
0000
0010
0001
0000
1000
0001
0000
0100
0010
0000
0000
,
1000
0000
0001
1000
0000
0000
1100
0000
0000
0100
0000
0010
0001
0000
0010
0100
0000
0000
1100
0000
0000
2000
0000
3001
,
0010
0000
0001
1000
0000
0000
1010
0000
0000
2000
0000
3001
0100
0000
0001
1000
0000
0000
1010
0000
0000
0010
0000
0100
,
0001
0000
1000
0001
0000
0000
0011
0000
0000
0010
0000
0100
1000
0000
0100
0010
0000
0000
0011
0000
0000
0001
0000
1000
,
0100
0000
1000
0001
0000
0000
0101
0000
0000
0002
0000
1003
0010
0000
1000
0001
0000
0000
0101
0000
0000
0001
0000
1000
,
0010
0000
0000
1000
0000
0100
1000
0000
0000
0010
0000
0100
0001
0000
0000
0100
0000
0010
1000
0000
0000
0002
0000
0013
,
1000
0000
0000
0020
0000
0031
1000
0000
0000
0020
0000
0031
0100
0000
0000
0100
0000
0000
2000
0000
3002
0000
0023
0000
,
0230
0000
1300
0000
0000
0000
1100
0000
0000
0100
0000
0010
0001
0000
0010
0100
0000
0000
1100
0000
0000
2000
0000
3001
,
0010
0000
0001
1000
0000
0000
1010
0000
0000
2000
0000
3001
0100
0000
0001
1000
0000
0000
1010
0000
0000
0010
0000
0100
,
0001
0000
1000
0001
0000
0000
0011
0000
0000
0010
0000
0100
1000
0000
0100
0010
0000
0000
0011
0000
0000
0002
0000
1003
,
0100
0000
1000
0001
0000
0000
0101
0000
0000
0002
0000
1003
0010
0000
1000
0001
0000
0000
0101
0000
0000
0001
0000
1000
,
0100
0000
0000
0010
0000
0001
0010
0000
0100
1000
0000
0100
0010
0000
0001
1000
0000
0000
1010
0000
0000
0010
0000
1000
,
1001
0002
0023
0230
,
1300
0000
0001
1000
0000
0000
0020
0030
0000
1000
0000
0001
1000
0000
0100
0010
0000
0000
0002
0003
0000
1000
0000
0010
,
1000
0000
0000
0001
0000
1000
0200
0300
0000
1000
0000
0001
0010
0000
0100
1000
0000
0001
2000
3000
0000
0000
0000
0000
,
0020
0030
0002
0003
0200
0300
2000
3000
,
1001
0000
0000
0000
;
