#VERSION:0.83;
#TITLE:Rhythm Kitchen;
#SUBTITLE:;
#ARTIST:Rare Americans;
#TITLETRANSLIT:;
#SUBTITLETRANSLIT:;
#ARTISTTRANSLIT:;
#GENRE:Alternative/Indie;
#CREDIT:;
#MUSIC:Rhythm Kitchen.ogg;
#BANNER:Rhythm Kitchen.png;
#BACKGROUND:Rhythm Kitchen-bg.png;
#CDTITLE:;
#SAMPLESTART:45.082;
#SAMPLELENGTH:19.832;
#SELECTABLE:YES;
#OFFSET:-0.000;
#BPMS:0.000=116.980;
#STOPS:;
#SPEEDS:0.000=1.000=0.000=0;
#SCROLLS:0.000=1.000;
#TICKCOUNTS:0.000=4;
#TIMESIGNATURES:0.000=4=4;
#LABELS:0.000=Song Start;
#COMBOS:0.000=1;
#ORIGIN:;
#PREVIEWVID:;
#JACKET:Rhythm Kitchen-jacket.png;
#CDIMAGE:;
#DISCIMAGE:;
#BGCHANGES:0.000=Rhythm Kitchen.avi=1.000=0=0=0=StretchNoLoop====,
99999.000=-nosongbg-=1.000=0=0=0=StretchNoLoop====
;
#FGCHANGES:;

//--------------- dance-single - Pruz ----------------
#NOTEDATA:;
#STEPSTYPE:dance-single;
#DESCRIPTION:Pruz;
#DIFFICULTY:Beginner;
#METER:3;
#RADARVALUES:0.113186,0.165208,0,0.236301,0,114,114,0,34,0,0,0,0,0,0.113186,0.165208,0,0.236301,0,114,114,0,34,0,0,0,0,0;
#CHARTNAME:Pruz;
#CHARTSTYLE:;
#CREDIT:Pruz;
#NOTES:
0000
0000
0000
0000
,
0000
0000
0000
0000
,
1000
0000
0000
0000
,
1000
0000
0000
0000
,
0001
0000
0000
0000
,
0001
0000
0000
0000
,
0100
0000
0010
0000
,
0000
0000
0000
0000
,
0100
0000
0010
0000
,
0000
0000
0000
0000
,
1000
0000
0001
0000
,
1000
0000
0001
0000
,
0010
0000
0001
0000
,
0010
0000
0100
0000
,
1000
0000
0100
0000
,
1000
0000
0100
0000
,
0010
0000
0001
0000
,
1000
0000
0000
0000
,
0001
0000
0100
0000
,
0001
0000
0100
0000
,
0010
0000
1000
0000
,
0001
0000
0000
0000
,
2000
3000
2000
3000
,
0002
0003
0002
0003
,
0020
0030
0020
0030
,
0200
0300
0200
0300
,
1000
0001
1000
0000
,
0010
0100
0010
0000
,
2000
3000
2000
3000
,
0002
0003
0002
1003
,
2000
0000
3100
0010
,
0020
0000
0031
1000
,
2000
0000
3100
0000
,
0010
0100
0010
0000
,
0001
0000
1000
0000
,
0001
0000
0010
0000
,
0001
0000
1000
0000
,
0001
0000
0100
0000
,
0001
0000
0010
0000
,
0100
0000
1000
0000
,
0002
0000
0003
0000
,
2000
0000
3000
0000
,
0001
0000
0000
0000
,
0001
0000
0000
0000
,
1000
0000
0000
0000
,
0000
0000
0000
0000
,
0001
0000
0000
0000
,
0001
0000
0000
0000
,
1000
0000
0000
0000
,
1000
0000
0000
0000
,
0100
0000
0000
0000
,
0000
0000
0000
0000
,
2000
3000
2000
3000
,
0002
0003
0002
0003
,
0020
0030
0020
0030
,
0200
0300
0200
0300
,
1000
0001
1000
0000
,
0010
0100
0010
0000
,
2000
3000
2000
3000
,
0002
0003
0002
1003
,
2000
0000
3010
0100
,
0200
0000
0301
1000
,
2000
0000
3010
0000
,
0200
0000
0000
0000
0000
0000
0000
0000
0000
0000
0000
0300
,
0001
0000
0000
0000
,
0001
0000
0000
0000
,
1000
0000
0000
0000
,
2000
0000
0000
0000
0000
0000
0000
0000
0000
0000
0000
3000
;

//--------------- dance-single - Pruz ----------------
#NOTEDATA:;
#STEPSTYPE:dance-single;
#DESCRIPTION:Pruz;
#DIFFICULTY:Easy;
#METER:5;
#RADARVALUES:0.188644,0.235433,0.0139,0.02085,0,190,188,2,3,0,0,0,0,0,0.188644,0.235433,0.0139,0.02085,0,190,188,2,3,0,0,0,0,0;
#CHARTNAME:Pruz;
#CHARTSTYLE:;
#CREDIT:Pruz;
#NOTES:
0000
0000
0000
0000
,
0000
0000
0000
0000
,
1000
0001
1000
0100
,
1000
0001
1000
0010
,
1000
0001
1000
0100
,
1000
0001
1000
0010
,
0100
0000
0001
0000
,
0100
0000
0010
0000
,
1000
0000
0001
0000
,
1000
0100
0010
0000
,
0001
1000
0010
0000
,
1000
0001
0100
0000
,
0001
1000
0100
0000
,
1000
0001
0010
0000
,
0001
0100
0010
0000
,
1000
0100
0010
0000
,
0001
0100
1000
0010
,
0001
1000
0001
0100
,
0010
1000
0001
0000
,
0010
0001
1000
0000
,
0100
0010
0001
1001
,
0110
0000
0000
0000
,
1000
0001
1000
0000
,
0001
0010
0100
0000
,
1000
0001
1000
0000
,
0010
0100
0001
0000
,
1000
0100
0010
0000
,
0100
1000
0001
0000
,
0100
0010
1000
0001
,
1000
0100
0010
0001
,
1000
0000
0010
0000
,
1000
0000
0001
0000
,
1000
0000
0100
0000
,
0010
0100
1000
0000
,
0001
0001
0010
0000
,
0001
0001
1000
0000
,
0010
0010
0100
0000
,
0010
0010
1000
0000
,
0002
0003
0020
0030
,
0200
0300
1000
0001
,
1000
0010
0100
0000
,
0001
0000
1000
0000
,
0001
0000
0001
0000
,
1000
0000
1000
0000
,
0100
0000
0100
0000
,
0010
0001
1000
0000
,
0001
0010
0100
0000
,
1000
0100
0010
0000
,
0001
1000
0010
0000
,
1000
0001
0010
0000
,
0100
0000
0000
0000
,
0000
0000
0000
0000
,
1000
0001
1000
0000
,
0001
0010
0100
0000
,
1000
0001
1000
0000
,
0010
0100
0001
0000
,
1000
0100
0010
0000
,
0100
1000
0001
0000
,
0100
0010
1000
0001
,
1000
0100
0010
0001
,
1000
0000
0010
0000
,
1000
0000
0001
0000
,
1000
0000
0100
0000
,
0010
0100
1000
0001
,
1000
0000
0010
0000
,
0100
0001
0100
0010
,
1000
0000
0001
0000
,
1000
0000
0010
0100
;

//--------------- dance-single - Pruz ----------------
#NOTEDATA:;
#STEPSTYPE:dance-single;
#DESCRIPTION:Pruz;
#DIFFICULTY:Medium;
#METER:8;
#RADARVALUES:0.278002,0.353149,0,0.0278,0.205026,280,280,0,4,0,0,0,0,0,0.278002,0.353149,0,0.0278,0.205026,280,280,0,4,0,0,0,0,0;
#CHARTNAME:Pruz;
#CHARTSTYLE:;
#CREDIT:Pruz;
#NOTES:
0000
0000
0000
0000
,
0000
0000
0000
0000
,
2000
0000
0000
3000
0000
0100
2000
0000
0000
3000
0000
0000
,
0100
0010
0001
1000
,
0002
0000
0000
0003
0000
0100
0002
0000
0000
0003
0000
1000
,
0010
0000
1000
0001
0000
0000
1000
0000
0000
0100
0000
0000
,
0010
0000
0000
0000
0000
0001
1000
0000
0000
0000
0000
0001
,
0100
0010
1000
0001
,
1000
0000
0000
0000
0000
0100
1000
0000
0000
0000
0000
0000
,
0001
0000
0000
0010
0000
0000
0100
0000
0000
0000
0000
1000
,
0001
0010
0100
1000
,
0001
0000
0100
0000
0000
0000
0001
0000
1000
0000
0000
0000
,
0100
0000
1000
0001
0000
0000
0100
0000
0001
1000
0000
0000
,
0100
0000
0010
0000
0000
0000
0001
0000
0000
1000
0000
0000
,
0010
0000
1000
0001
0000
0000
0010
0000
0001
1000
0000
0000
,
0100
0010
0001
1000
,
0001
0000
0000
0010
0000
0000
0100
0000
1000
0000
0000
0001
,
0100
0000
0001
1000
0000
0001
0010
0000
0100
0000
0000
0000
,
1000
0000
0000
0001
0000
0000
1000
0000
0010
0000
0000
0000
,
1000
0000
0001
0000
0000
0000
0100
0000
0010
1000
0000
0001
,
1000
0000
0100
1000
0000
0001
1000
0000
0000
0010
0000
0000
,
0100
0000
0000
0000
,
0001
0001
1000
1000
,
0010
0000
0000
0010
0000
0000
0100
0000
0001
0100
0000
0010
,
1000
1000
0001
0001
,
0100
0000
0000
1000
0000
0000
0010
0000
0000
0001
0000
1000
,
0010
0000
1000
0001
0000
1000
0100
0000
1000
0001
0000
0000
,
0010
0000
0001
1000
0000
0001
0100
0000
0000
0001
0000
0000
,
1000
0000
0000
0010
0000
0000
0100
0000
0000
0001
0000
1000
,
0001
0000
0010
0001
0000
1000
0001
0000
0100
0010
0000
1000
,
0001
0010
0100
0000
,
1000
0100
0010
0000
,
0001
0010
0100
0000
,
1000
0001
1000
0000
,
0010
0000
0000
0010
0000
0000
0100
0000
0001
1000
0000
0000
,
0100
0000
0000
0100
0000
0000
0010
0000
0001
1000
0000
0000
,
0001
0001
0010
0100
,
1000
0000
0000
1000
0000
0000
0001
0000
0100
0010
0000
1000
,
0001
0001
0010
0010
,
1000
1000
0100
0001
,
1000
0000
0000
0010
0000
0000
0100
0000
0001
0000
0000
1000
,
0001
0000
0000
0010
0000
0000
0100
0000
0000
0000
0000
1000
,
0001
0000
0001
0000
,
0010
0000
0010
0000
,
0100
1000
0100
0000
,
0010
0001
1000
0000
,
0001
0100
0010
0000
,
1000
0100
0010
0000
,
0001
1000
0010
0100
,
0001
0001
1000
1000
,
0100
0000
0000
0000
,
0010
0000
0000
0000
,
0001
0001
1000
1000
,
0100
0000
0000
0100
0000
0000
0010
0000
0001
0010
0000
0100
,
1000
1000
0001
0001
,
0010
0000
0000
1000
0000
0000
0100
0000
0000
0001
0000
1000
,
0100
0000
1000
0001
0000
1000
0010
0000
1000
0001
0000
0000
,
0100
0000
0001
1000
0000
0001
0010
0000
0000
0001
0000
0000
,
1000
0000
0000
0100
0000
0000
0010
0000
0000
0001
0000
1000
,
0001
0000
0100
0001
0000
1000
0001
0000
0010
0100
0000
1000
,
0001
0100
0010
0000
,
1000
0100
0010
0000
,
0001
0100
0010
0000
,
1000
0001
1000
0100
,
1000
1000
0010
0010
,
0001
0100
1000
0001
,
1000
1000
0100
0100
,
0010
0000
0100
1000
;

//--------------- dance-single - Pruz ----------------
#NOTEDATA:;
#STEPSTYPE:dance-single;
#DESCRIPTION:Pruz;
#DIFFICULTY:Hard;
#METER:10;
#RADARVALUES:0.376295,0.40122,0,0.07645,0.458703,379,379,0,11,0,0,0,0,0,0.376295,0.40122,0,0.07645,0.458703,379,379,0,11,0,0,0,0,0;
#CHARTNAME:Pruz;
#CHARTSTYLE:;
#CREDIT:Pruz;
#NOTES:
0000
0000
0000
0000
,
0000
0000
0000
0000
0000
0000
0000
0000
0000
0000
0000
0001
,
1000
0000
0010
1000
0000
0001
1000
0000
0010
0100
0000
0001
,
1000
0000
0100
1000
0000
0001
1000
0000
0100
0010
0000
0001
,
1000
0000
0100
0010
0000
0100
1000
0000
0001
1000
0000
0001
,
0100
0000
0010
1000
0000
0010
0100
0000
0001
1000
0000
0100
,
0020
0000
0000
0001
0000
0000
0031
0000
0000
1000
0000
0010
,
0100
0000
0001
0100
0000
0010
1000
0000
0001
1000
0000
0000
,
0200
0000
0000
0010
0000
0000
0310
0000
0000
0001
0000
1000
,
0010
0000
1000
0001
0000
0100
0001
0000
1000
0010
0000
0100
,
0001
0000
0010
0001
0000
1000
0001
0000
0010
0100
0000
1000
,
0001
0000
0100
0001
0000
1000
0001
0000
0100
0010
0000
1000
,
0001
0000
0100
0010
0000
0100
0001
0000
1000
0001
0000
1000
,
0100
0000
0010
0001
0000
0010
0100
0000
1000
0001
0000
0100
,
0020
0000
0000
1000
0000
0000
1030
0000
0000
0001
0000
0010
,
0100
0000
1000
0100
0000
0010
0001
0000
1000
0001
0000
0000
,
0200
0000
0000
0010
0000
0000
0310
0000
0000
1000
0000
0001
,
0100
0000
0001
1000
0000
0010
1000
0000
0001
0010
0000
0100
,
1000
0000
0000
0001
0000
0000
0100
0000
0010
1000
0000
0001
,
1000
0000
0000
0100
0000
0000
0010
0000
0001
1000
0000
0001
,
0100
0000
0000
0010
0000
0000
1000
0000
0001
1000
0000
0000
,
0100
0000
0000
0000
,
1000
0000
0000
0001
0000
0100
0001
0000
0000
1000
0000
0000
,
0010
0000
0000
1000
0000
0001
0100
0000
0010
1000
0000
0000
,
0001
0000
0000
1000
0000
0000
0100
0000
0000
0010
0000
0001
,
1000
0000
0001
0010
0000
0001
1000
0000
0100
0010
0000
0001
,
1000
0000
0000
0010
0000
0100
0001
0000
0000
0100
0000
0000
,
0010
0000
0000
1000
0000
0001
1000
0000
0000
0100
0000
0000
,
0010
0000
0000
0001
0000
0000
0010
0000
0000
0100
0000
1000
,
0001
0000
0100
0010
0000
1000
0001
0000
0100
0010
0000
1000
,
0002
0100
0010
1003
,
0002
0010
0100
1003
,
0200
0010
0001
1300
,
0001
0010
0001
1000
0010
1000
0001
0000
0000
0000
0000
0000
,
0100
0000
0000
0010
0000
0000
1000
0000
0000
0000
0000
0001
,
1000
0100
0010
0001
,
1000
0000
0000
0001
0000
0000
0100
0000
0010
1000
0000
0001
,
1000
0000
0000
0100
0000
0000
0010
0000
0001
1000
0000
0000
,
0001
0100
1000
0010
,
0001
0000
0000
1000
0000
0000
0010
0000
0000
0100
0000
0001
,
2000
0001
0001
0000
,
3100
0000
0000
0010
0000
0000
0001
0000
0000
0000
0000
1000
,
0001
0000
0100
0001
0000
1000
0001
0000
0100
0010
0000
1000
,
0001
0000
0010
0001
0000
1000
0001
0000
0010
0100
0000
1000
,
0001
0000
0010
0100
0000
0010
0001
0000
1000
0100
0000
1000
,
0001
0000
0000
0000
0000
0000
0000
0000
0000
0000
0000
1000
,
0100
0000
1000
0001
0000
0100
0001
0000
1000
0010
0000
0100
,
0001
0000
1000
0001
0000
0010
0001
0000
1000
0001
0000
0100
,
0010
0000
1000
0001
0000
0100
0010
0000
1000
0001
0000
0010
,
0100
0000
1000
0100
0000
0010
0001
0000
1000
0001
0000
0000
,
0100
0000
0000
0000
,
0001
0000
0000
0000
,
1000
0000
0000
0001
0000
0010
0001
0000
0000
1000
0000
0000
,
0100
0000
0000
1000
0000
0001
0010
0000
0100
1000
0000
0000
,
0001
0000
0000
1000
0000
0000
0010
0000
0000
0100
0000
0001
,
1000
0000
0001
0100
0000
0001
1000
0000
0010
0100
0000
0001
,
1000
0000
0000
0100
0000
0010
0001
0000
0000
0010
0000
0000
,
0100
0000
0000
1000
0000
0001
1000
0000
0000
0010
0000
0000
,
0100
0000
0000
0001
0000
0000
0100
0000
0000
0010
0000
1000
,
0001
0000
0010
0100
0000
1000
0001
0000
0010
0100
0000
1000
,
0002
0010
0100
1003
,
0002
0100
0010
1003
,
0020
0100
0001
1030
,
0001
1000
0001
1000
,
0100
0010
0001
0010
,
0100
1000
0100
0010
,
0001
0100
0010
1000
,
0010
0100
0001
0000
1000
0001
1000
0100
1000
0001
0010
0001
;

//--------------- dance-single - Pruz ----------------
#NOTEDATA:;
#STEPSTYPE:dance-single;
#DESCRIPTION:Pruz;
#DIFFICULTY:Challenge;
#METER:11;
#RADARVALUES:0.43686,0.431076,0.00695,0.208501,0.722804,440,439,1,30,0,0,0,0,0,0.43686,0.431076,0.00695,0.208501,0.722804,440,439,1,30,0,0,0,0,0;
#CHARTNAME:Pruz;
#CHARTSTYLE:;
#CREDIT:Pruz;
#NOTES:
0000
0000
0000
0000
,
0000
0000
0000
0000
0000
0000
0000
0000
0000
0000
0000
0001
,
1000
0000
0001
0010
0000
0001
1000
0000
0001
0100
0000
0001
,
1000
0000
0010
0100
0000
0001
0100
0000
0010
1000
0000
0001
,
1000
0000
0100
1000
0000
0100
0010
0000
0001
0010
0000
0001
,
1000
0000
0100
0010
0000
0001
0010
0000
0100
1000
0000
0001
,
1000
0000
0001
0010
0000
0001
1000
0000
0001
0100
0000
0001
,
1000
0000
0100
0010
0000
0001
0010
0000
0100
1000
0000
0001
,
1000
0000
0010
1000
0000
0010
0100
0000
0001
0100
0000
0001
,
1000
0000
1000
0010
0000
0010
0100
0000
0000
0000
0000
0001
,
1000
0000
0010
0000
0000
0100
0001
0000
1000
0000
0000
0100
,
1000
0000
0001
0000
0000
0010
0001
0000
1000
0100
0000
0010
,
0001
0000
1000
0000
0000
0001
0100
0000
0010
0000
0000
1000
,
0001
0000
0100
0000
0000
0001
1000
0000
0100
1000
0000
0000
,
0001
0000
0001
0000
0000
0010
0100
0000
0100
0000
0000
1000
,
0001
0000
1000
0010
0000
1000
0001
0000
0100
0010
0000
1000
,
0001
0000
0010
0001
0000
0000
1000
0000
0100
1000
0000
0000
,
0001
0000
0010
0100
0000
1000
0001
0000
1000
0010
0000
0100
,
0001
0000
1000
0010
0000
1000
0001
0000
0010
0000
0000
0001
,
1000
0000
0100
0000
0000
1000
0001
0000
0010
0001
0000
1000
,
0001
0000
0100
0010
0000
1000
0001
0000
0100
0010
0000
2000
,
0002
0000
0000
0000
0000
0000
0000
0000
3000
0000
0000
0000
,
0103
0010
1000
0010
0000
0100
0001
0000
1000
0001
0000
0010
,
0100
0000
0000
1000
0000
0001
0010
0000
0001
0100
0000
0010
,
1000
0000
0001
1000
0000
0100
1000
0000
0001
0010
0000
0100
,
1000
0000
0000
0100
0000
0000
0010
0000
0001
0010
0000
0100
,
1000
0000
0001
0100
0000
0001
1000
0000
0010
0100
0000
0001
,
1000
0000
0100
0010
0000
0001
1000
0000
0010
0100
0000
0001
,
1000
0000
0000
0001
0000
0010
0000
0000
0100
1000
0000
0100
,
0010
0000
0001
1000
0000
0001
0100
0000
0010
1000
0000
0002
,
2000
0000
0000
0000
0000
0000
3003
0000
0000
0010
0000
2000
,
0002
0000
0000
0000
0000
0000
3003
0000
0000
0100
0000
0002
,
2000
0000
3003
0010
,
0001
1000
0001
0100
0010
1000
0001
0000
0000
1000
0000
0000
,
0200
0000
0300
0010
0000
0000
0002
0000
1003
0010
0000
1000
,
0001
0000
0100
0010
0000
0000
2000
0000
3001
1000
0000
0000
,
0200
0000
0300
0010
0000
0000
0001
0000
1000
0001
0000
0100
,
0020
0000
0000
1030
0000
0000
0002
0000
0013
0100
0000
0000
,
1000
0000
0002
1003
0000
0002
0013
0000
0002
1003
0000
0002
,
0103
0000
0000
0010
0000
0000
1000
0000
0000
0001
0000
1000
,
0200
0000
0000
0320
0000
0000
0032
0000
1003
0010
0000
1000
,
0001
0000
0000
0100
0000
0000
0010
0000
0000
0000
0000
1000
,
0001
0000
1000
0010
0000
1000
0001
0000
1000
0100
0000
1000
,
0001
0000
0010
0100
0000
1000
0100
0000
0010
0001
0000
1000
,
0001
0000
0100
0001
0000
0100
0010
0000
1000
0010
0000
1000
,
0001
0000
0100
0010
0000
1000
0001
0000
0000
0000
0000
1000
,
0001
0000
1000
0010
0000
1000
0001
0000
1000
0100
0000
1000
,
0001
0000
0100
0010
0000
1000
0010
0000
0100
0001
0000
1000
,
0001
0000
0010
0001
0000
0010
0100
0000
1000
0100
0000
1000
,
0001
0000
0001
0010
0000
0010
0100
0000
0100
1000
0000
0000
,
0002
0103
0010
1000
,
2002
0000
0003
0000
,
3100
0010
0001
0010
0000
0100
1000
0000
0001
1000
0000
0010
,
0100
0000
0000
0001
0000
1000
0010
0000
1000
0100
0000
0010
,
0001
0000
1000
0001
0000
0100
0001
0000
1000
0010
0000
0100
,
0001
0000
0000
0100
0000
0000
0010
0000
1000
0010
0000
0100
,
0001
0000
1000
0100
0000
1000
0001
0000
0010
0100
0000
1000
,
0001
0000
0100
0010
0000
1000
0001
0000
0010
0100
0000
1000
,
0001
0000
0000
1000
0000
0010
0000
0000
0100
0001
0000
0100
,
0010
0000
1000
0001
0000
1000
0100
0000
0010
0001
0000
2000
,
0002
0000
0000
0000
0000
0000
3003
0000
0000
0010
0000
0002
,
2000
0000
0000
0000
0000
0000
3003
0000
0000
0100
0000
2000
,
0002
0000
3003
0010
,
1000
0001
1000
0100
0010
0100
1000
0001
1000
0010
0100
0010
,
1000
0000
0000
0001
0000
0100
0001
0000
0000
1000
0000
0000
,
0010
0000
0000
0100
0000
0000
0001
0000
1000
0001
0000
0010
,
0100
0000
0000
1000
0000
0000
0001
0000
0100
0001
0000
1000
,
0010
0100
0001
0000
1000
0001
0010
0100
1000
0001
1000
0001
,
0000
0000
0000
0000
0000
0000
1000
0000
0000
0000
0000
0010
0000
0000
0000
0000
0100
0000
0000
0000
0000
0000
0001
0000
;
