#VERSION:0.83;
#TITLE:REFLECT;
#SUBTITLE:;
#ARTIST:Gawr Gura;
#TITLETRANSLIT:;
#SUBTITLETRANSLIT:;
#ARTISTTRANSLIT:;
#GENRE:;
#ORIGIN:;
#TAGS:;
#CREDIT:;
#BANNER:REFLECT.png;
#BACKGROUND:REFLECT-bg.png;
#PREVIEWVID:;
#JACKET:REFLECT-jacket.png;
#CDIMAGE:;
#DISCIMAGE:;
#LYRICSPATH:;
#CDTITLE:cdtitle.png;
#MUSIC:REFLECT.ogg;
#OFFSET:-0.047000;
#SAMPLESTART:86.417000;
#SAMPLELENGTH:15.190000;
#SELECTABLE:YES;
#BPMS:0.000000=124.999992
;
#STOPS:;
#DELAYS:;
#WARPS:;
#TIMESIGNATURES:0.000000=4=4
;
#TICKCOUNTS:0.000000=4
;
#COMBOS:0.000000=1
;
#SPEEDS:0.000000=1.000000=0.000000=0
;
#SCROLLS:0.000000=1.000000
;
#LABELS:0.000000=Song Start
;
#BGCHANGES:0.000=REFLECT.avi=1.000=1=0=0=StretchNoLoop==CrossFade==,
99999=-nosongbg-=1.000=0=0=0 // don't automatically add -songbackground-
;
#KEYSOUNDS:;
#ATTACKS:
;

//---------------dance-single - Pruz----------------
#NOTEDATA:;
#CHARTNAME:Pruz;
#CHARTHASH:16777215;
#STEPSTYPE:dance-single;
#BANNER:;
#DESCRIPTION:Pruz;
#CHARTSTYLE:;
#DIFFICULTY:Beginner;
#METER:1;
#METERF:0.000000;
#LASTSECONDHINT:101.806999;
#RADARVALUES:0.085933,0.147145,0.000000,0.129561,0.000000,65.000000,65.000000,0.000000,14.000000,0.000000,0.000000,0.000000,0.000000,0.000000,0.085933,0.147145,0.000000,0.129561,0.000000,65.000000,65.000000,0.000000,14.000000,0.000000,0.000000,0.000000,0.000000,0.000000;
#CREDIT:Pruz;
#NOTES:
// measure 0
0000
0000
0000
0000
,  // measure 1
0000
0000
0000
0000
,  // measure 2
0000
0000
0000
0000
,  // measure 3
0000
0000
0000
0000
,  // measure 4
0000
0000
0000
0000
,  // measure 5
1000
0000
0000
0000
,  // measure 6
1000
0000
0000
0000
,  // measure 7
1000
0000
0000
0000
,  // measure 8
0020
0000
0000
0030
,  // measure 9
1000
0000
0000
0000
,  // measure 10
1000
0000
0000
0000
,  // measure 11
1000
0000
0000
0000
,  // measure 12
0200
0000
0000
0300
,  // measure 13
1000
0000
0000
0000
,  // measure 14
0000
0000
0000
0000
,  // measure 15
0002
0000
0000
0003
0000
0000
0000
0000
,  // measure 16
0000
0000
0000
0000
,  // measure 17
1000
0000
0000
0000
,  // measure 18
0000
0000
0000
0000
,  // measure 19
0200
0000
0000
0300
0000
0000
0000
0000
,  // measure 20
0000
0000
0000
0000
,  // measure 21
1000
0000
1000
0000
,  // measure 22
0010
0000
0100
0000
,  // measure 23
0001
0000
0001
0000
,  // measure 24
0010
0000
0200
0300
,  // measure 25
1000
0000
1000
0000
,  // measure 26
0010
0000
0100
0000
,  // measure 27
0002
0000
0000
0000
0000
0000
0000
0003
,  // measure 28
2000
0000
0000
0000
0000
3000
0000
0000
,  // measure 29
0020
0000
0030
0000
,  // measure 30
0020
0000
0030
0000
,  // measure 31
0100
0000
0001
0000
,  // measure 32
1000
0000
1000
0000
,  // measure 33
0200
0000
0300
0000
,  // measure 34
0200
0000
0300
0000
,  // measure 35
0010
0000
0001
0000
,  // measure 36
1000
0000
1000
0000
,  // measure 37
0010
0100
0000
0100
,  // measure 38
0000
0001
0000
0001
,  // measure 39
1000
0100
0000
0100
,  // measure 40
0000
0010
0000
0010
,  // measure 41
0001
1000
0000
1000
,  // measure 42
0000
0010
0000
0010
,  // measure 43
0000
0100
0000
0001
,  // measure 44
2000
0000
0000
3000
,  // measure 45
0001
0000
0000
0000
,  // measure 46
0001
0000
0000
0000
,  // measure 47
0001
0000
0000
0000
,  // measure 48
0020
0000
0000
0030
,  // measure 49
0001
0000
0000
0000
,  // measure 50
0001
0000
0000
0000
,  // measure 51
0001
0000
0000
0000
,  // measure 52
0200
0000
0000
0300
,  // measure 53
0001
0000
0000
0000
;

//---------------dance-single - Pruz----------------
#NOTEDATA:;
#CHARTNAME:Pruz;
#CHARTHASH:16777215;
#STEPSTYPE:dance-single;
#BANNER:;
#DESCRIPTION:Pruz;
#CHARTSTYLE:;
#DIFFICULTY:Easy;
#METER:3;
#METERF:0.000000;
#LASTSECONDHINT:101.806999;
#RADARVALUES:0.000000,0.000000,0.000000,0.000000,0.000000,0.000000,0.000000,0.000000,0.000000,0.000000,0.000000,0.000000,0.000000,0.000000,0.000000,0.000000,0.000000,0.000000,0.000000,0.000000,0.000000,0.000000,0.000000,0.000000,0.000000,0.000000,0.000000,0.000000;
#CREDIT:Pruz;
#NOTES:
0000
0000
0000
0000
,
0000
0000
0000
0000
,
0000
0000
0000
0000
,
0000
0000
0000
0000
,
0000
0000
0000
0000
,
1000
1000
2000
3000
,
0001
0001
0002
0003
,
1000
1000
2000
3000
,
0200
0000
0000
0320
,
0031
0001
1000
0100
,
1000
1000
0001
0100
,
0001
0001
1000
0100
,
0020
0000
0000
0230
,
1300
1000
1000
1000
,
0001
0001
1000
0100
,
0010
0010
0010
0010
,
0100
0100
0010
0001
,
1000
1000
1000
1000
,
0001
0001
1000
0100
,
1000
1000
0010
0010
,
0100
0100
0010
1000
,
0001
0000
0001
0000
,
0010
0000
0100
1000
,
0001
0000
0001
0000
,
0100
0000
0010
1000
,
0001
0000
0001
0000
,
0010
0000
0010
0000
,
0100
1000
0100
0010
,
0002
0000
0000
0000
0000
0003
1000
0000
,
0001
1000
0000
0001
,
0100
0001
0000
0001
,
1000
0000
0100
0000
,
0010
0100
0000
1000
,
0001
1000
0000
0001
,
0100
0001
0000
0001
,
1000
0000
0100
0000
,
0010
0100
0000
1000
,
0000
1001
0000
0001
,
0000
0010
0000
0100
,
1000
0001
0000
0001
,
0000
0100
0000
0100
,
0000
0110
0000
0010
,
0000
1000
0000
0001
,
1000
0100
1000
0001
,
0020
0000
0000
0230
,
1300
1000
2000
3000
,
0001
0001
0002
0003
,
1000
1000
2000
3000
,
0200
0000
0000
0320
,
0031
0001
1000
0100
,
1000
1000
0001
0100
,
0001
0001
1000
0100
,
0020
0000
0000
0230
,
1300
0000
0000
0000
;

//---------------dance-single - Pruz----------------
#NOTEDATA:;
#CHARTNAME:Pruz;
#CHARTHASH:16777215;
#STEPSTYPE:dance-single;
#BANNER:;
#DESCRIPTION:Pruz;
#CHARTSTYLE:;
#DIFFICULTY:Medium;
#METER:6;
#METERF:0.000000;
#LASTSECONDHINT:101.806999;
#RADARVALUES:0.000000,0.000000,0.000000,0.000000,0.000000,0.000000,0.000000,0.000000,0.000000,0.000000,0.000000,0.000000,0.000000,0.000000,0.000000,0.000000,0.000000,0.000000,0.000000,0.000000,0.000000,0.000000,0.000000,0.000000,0.000000,0.000000,0.000000,0.000000;
#CREDIT:Pruz;
#NOTES:
0000
0000
0000
0000
,
0000
0000
0000
0000
,
0000
0000
0000
0000
,
0000
0000
0000
0000
,
0000
0000
0000
0000
,
1000
0001
0200
0300
,
0001
1000
0020
0030
,
1000
0001
0020
0030
,
0200
0000
0000
0300
0000
0000
0200
0000
0000
0300
0000
0000
2000
0000
0000
0000
,
3001
1000
0200
0300
,
1000
0001
0020
0030
,
0001
1000
0020
0030
,
0200
0000
0000
0300
0000
0000
0200
0000
0000
0300
0000
0000
0002
0000
0000
0000
,
1003
1000
0010
0100
,
0001
0001
0010
0100
,
0010
0010
0001
1000
,
0010
0010
0100
0001
,
1000
1000
0100
0010
,
0001
0001
0100
0010
,
0100
0100
0001
1000
,
0100
0100
0010
0001
,
1000
0000
0010
0000
0100
0001
0000
0000
,
0001
0010
0100
1100
,
1000
0000
0010
0000
0100
0001
0000
0000
,
0010
0100
1000
1001
,
0001
0000
0000
0011
0000
0000
0000
0000
1000
0000
0000
1010
0000
0000
0000
0000
,
0001
0000
0000
0011
0000
0000
0000
0000
1000
0000
0000
1010
0000
0000
0000
0000
,
0001
0001
1000
1000
,
0100
0000
0000
1001
,
1000
0010
0000
0001
,
0010
1000
0000
0001
,
0010
0100
0000
0010
,
0001
1000
0000
0001
,
1000
0010
0000
0001
,
0010
1000
0000
0001
,
0010
0100
1000
0100
,
0010
0000
0000
0001
0000
0000
1000
0000
0000
0001
0000
0000
0010
0000
0000
0000
,
0000
0110
0000
0100
,
1000
0001
0000
1000
,
0010
0100
0000
0001
,
1000
0100
0000
0010
,
0001
1001
0000
1000
,
0001
0100
0000
0100
,
0001
0010
0100
0010
,
0100
0000
0000
1000
0000
0000
0001
0000
0000
1000
0000
0000
0100
0000
0000
0000
,
0010
0010
0002
0003
,
0100
0100
0020
0030
,
0100
0100
0002
0003
,
0020
0000
0000
0230
0000
0000
2300
0000
,
3010
0010
0200
0300
,
0001
0001
0200
0300
,
0010
0010
2000
3000
,
0002
0000
0000
0023
0000
0000
0230
0000
,
1300
0000
0000
0000
;

//---------------dance-single - Pruz----------------
#NOTEDATA:;
#CHARTNAME:Pruz;
#CHARTHASH:16777215;
#STEPSTYPE:dance-single;
#BANNER:;
#DESCRIPTION:Pruz;
#CHARTSTYLE:;
#DIFFICULTY:Hard;
#METER:9;
#METERF:0.000000;
#LASTSECONDHINT:101.806999;
#RADARVALUES:0.000000,0.000000,0.000000,0.000000,0.000000,0.000000,0.000000,0.000000,0.000000,0.000000,0.000000,0.000000,0.000000,0.000000,0.000000,0.000000,0.000000,0.000000,0.000000,0.000000,0.000000,0.000000,0.000000,0.000000,0.000000,0.000000,0.000000,0.000000;
#CREDIT:Pruz;
#NOTES:
0000
0000
0000
0000
,
0000
0000
0000
0000
,
0000
0000
0000
0000
,
0000
0000
0000
0000
,
0000
0000
0000
0000
,
1000
0001
1000
0000
0100
0000
0010
0000
,
0001
1000
0001
0000
0010
0000
0100
0000
,
1000
0001
1000
0000
0010
0100
0001
0000
,
2000
0000
0000
3002
0000
0000
0023
0000
0000
0032
0000
0000
2003
0000
0000
0000
,
3001
1000
0001
0000
0100
0000
0010
0000
,
1000
0001
1000
0000
0010
0000
0100
0000
,
0001
1000
0001
0000
0010
0000
0100
0000
,
2000
0000
0000
3002
0000
0000
0023
0000
0000
0230
0000
0000
2300
0000
0000
0000
,
3001
0001
0100
0000
0100
0010
1000
0000
,
0001
0000
1000
0000
0100
0000
0000
0100
1000
0000
0001
0000
1000
0000
0000
0000
,
1000
1000
0100
0000
0100
1000
0001
0000
,
0001
0000
0100
0000
0010
0000
0000
0010
1000
0000
0001
0000
1000
0000
0000
0000
,
0001
0001
0100
0000
0100
0010
1000
0000
,
0001
0000
1000
0000
0100
0000
0000
0100
1000
0000
0001
0000
1000
0000
0000
0000
,
1000
1000
0100
0000
0100
1000
0001
0000
,
0001
0000
1000
0000
0010
0000
0000
0100
0001
0000
1000
0000
0001
0000
0000
0000
,
0010
0000
0000
0100
0000
0000
1000
0000
0001
0000
0001
0000
0000
0000
0000
0000
,
1000
0000
0000
0010
0000
0000
0100
0000
0001
0000
0000
0000
1001
0000
0000
0000
,
1000
0000
0000
0100
0000
0000
0010
0000
0001
0000
0001
0000
0000
0000
0000
0000
,
1000
0000
0000
0010
0000
0000
0100
0000
0001
0000
0000
0000
1001
0000
0000
0000
,
1000
0000
0000
1100
0000
0000
0000
0000
0001
0000
0000
0101
0000
0000
0000
0000
,
1000
0000
0000
1010
0000
0000
0000
0000
0001
0000
0000
0011
0000
0000
0001
0000
,
1000
0010
1000
0001
1000
0100
1000
0001
,
1000
0000
0000
0000
0000
0010
0100
0000
,
0001
1000
0010
0000
1000
0001
0010
0000
,
0100
1000
0001
0000
0100
0001
1000
0000
,
0100
0000
0010
0000
0001
1000
0001
0010
,
0100
0000
0000
0000
1000
0000
0001
0010
0000
0000
0001
0000
1000
0000
0000
0000
,
0010
0100
0001
0000
0010
0100
1000
0000
,
0001
1000
0100
0000
1000
0001
0100
0000
,
0010
0000
0100
0000
0001
1000
0001
0100
,
0010
0000
0000
0010
0000
0000
1000
0000
0000
1000
0000
0000
0001
0000
0000
0000
,
1000
0100
0010
0000
0001
1000
0010
0000
,
1000
0000
0100
0000
0001
0000
0100
1000
0000
0000
0001
0000
0001
0000
0001
0000
,
1000
0010
0100
0000
0001
1000
0100
0000
,
1000
0000
0010
0000
0001
0000
0010
1000
0000
0000
0001
0000
1000
0000
0100
1000
,
0000
0000
0001
0000
0001
0000
1000
0010
0000
0000
1000
0000
1000
0000
0100
1000
,
0000
0000
0001
0000
0001
0000
1000
0010
0000
0000
1000
0000
1000
0000
0001
0000
,
1000
0000
1000
0100
0000
0000
0001
0000
0100
0000
1000
0000
0001
0000
0010
0000
,
0100
0000
0000
0100
0000
0000
1000
0000
0000
1000
0000
0000
0001
0000
0000
0000
,
1000
0001
1000
0000
0100
0000
0010
0000
,
0001
1000
0001
0000
0010
0000
0100
0000
,
1000
0001
1000
0000
0010
0100
0001
0000
,
2000
0000
0000
3002
0000
0000
0203
0000
0000
0302
0000
0000
2003
0000
0000
0000
,
3001
1000
0001
0000
0100
0000
0010
0000
,
1000
0001
1000
0000
0010
0000
0100
0000
,
0001
1000
0001
0000
0010
0000
0100
0000
,
2000
0000
0000
3200
0000
0000
0320
0000
0000
0032
0000
0000
2003
0000
0001
0000
,
3001
0000
0000
0000
;

//---------------dance-single - Pruz----------------
#NOTEDATA:;
#CHARTNAME:Pruz;
#CHARTHASH:16777215;
#STEPSTYPE:dance-single;
#BANNER:;
#DESCRIPTION:Pruz;
#CHARTSTYLE:;
#DIFFICULTY:Challenge;
#METER:13;
#METERF:0.000000;
#LASTSECONDHINT:101.806999;
#RADARVALUES:0.000000,0.000000,0.000000,0.000000,0.000000,0.000000,0.000000,0.000000,0.000000,0.000000,0.000000,0.000000,0.000000,0.000000,0.000000,0.000000,0.000000,0.000000,0.000000,0.000000,0.000000,0.000000,0.000000,0.000000,0.000000,0.000000,0.000000,0.000000;
#CREDIT:Pruz;
#NOTES:
0000
0000
0000
0000
,
0000
0000
0000
0000
,
0000
0000
0000
0000
,
0000
0000
0000
0000
,
0000
0000
0000
0000
,
1000
0000
0001
0000
0100
0000
0001
0000
1000
0000
1000
0010
1000
0000
1000
0000
,
0001
0000
1000
0000
0100
0000
1000
0000
0001
0000
0001
0100
0001
0000
0001
0000
,
1000
0000
0001
0000
0100
0000
0001
0000
1000
0100
0010
0000
0001
0000
0001
0000
,
2000
0000
0000
3002
0000
0000
0023
0000
0000
0032
0000
0000
2003
0000
0000
0000
,
3001
0000
1000
0000
0100
0000
1000
0000
0001
0000
0001
0010
0001
0000
0001
0000
,
1000
0000
0001
0000
0100
0000
0001
0000
1000
0000
1000
0100
1000
0000
1000
0000
,
0001
0000
1000
0000
0100
0000
1000
0000
0001
0100
0010
0000
1000
0000
1000
0000
,
0002
0000
0000
2003
0000
0000
3020
0000
0000
2030
0000
0000
3002
0000
0000
0000
,
0013
0000
0100
0000
1000
0000
0000
0001
1000
0000
0100
0000
0010
0000
0000
0000
,
0001
0000
0100
0000
0010
0000
0000
0100
0001
0000
1000
0000
0001
0000
0000
0000
,
0010
0000
0100
0000
1000
0000
0000
0001
1000
0000
0100
0000
0010
0000
0000
0000
,
0001
0000
1000
0000
0010
0000
0000
0100
0001
0000
1000
0000
0001
0000
0000
0000
,
0100
0000
0010
0000
1000
0000
0000
0001
1000
0000
0010
0000
0100
0000
0000
0000
,
0001
0000
1000
0000
0100
0000
0000
1000
0001
0000
0100
0000
0010
0000
0000
0000
,
1000
0000
0100
0000
0010
0000
0000
0001
0010
0000
0100
0000
1000
0000
0000
0000
,
0001
0000
1000
0000
0010
0000
0000
0100
0001
0000
1000
0000
0001
0000
0000
0000
,
0100
0000
0000
0100
0010
0000
0100
0000
0001
0000
0001
0000
1000
0000
0001
0000
,
0010
0000
0000
0010
0100
0000
0010
0000
0001
0000
0000
0000
1001
0000
0000
0000
,
1000
0000
0000
1000
0001
0000
1000
0000
0010
0000
0100
0000
0000
0000
0001
0000
,
1000
0000
0000
1000
0000
0000
1000
0000
0100
0000
1000
0000
1001
0000
0001
0000
,
0100
0000
0000
0110
0000
0000
0010
0000
1000
0000
0000
1001
0000
0000
0001
0000
,
0010
0000
0000
0110
0000
0000
0100
0000
1000
0000
0000
1001
0000
0000
0001
0000
,
0100
1000
0100
0010
1000
0100
0001
0100
,
0020
0000
0000
0000
0000
0000
0030
0000
0000
0000
0001
0000
1001
0000
1000
0001
,
0010
0100
0010
0000
0001
0100
0010
0000
,
1000
0000
0001
0000
0010
0000
0010
0001
1000
0000
0100
0000
0010
0000
0000
0000
,
0100
0000
0100
1000
0001
0000
1000
0000
0010
0000
0100
0000
0001
0000
0100
0000
,
0010
0000
0000
0000
1000
0000
0001
1000
0000
0000
0100
0000
0010
0000
0100
1000
,
0001
0100
0010
0000
1000
0100
0010
0000
,
0001
0000
1000
0000
0010
0000
0010
1000
0001
0000
0100
0000
0010
0000
0000
0000
,
0100
0000
0100
0001
1000
0000
0001
0000
0010
0000
0100
0000
1000
0000
0001
0000
,
1001
0000
0000
0011
0000
0001
1000
0000
0000
0010
0000
0000
0110
0000
0000
0000
,
0100
0000
0001
1000
0100
0000
1000
0000
0001
0000
0100
0010
1000
0000
0001
0000
,
1000
0000
0010
0000
0100
0000
0001
1000
0000
0000
0001
0000
0010
0000
0100
0000
,
1000
0000
0001
1000
0010
0000
0100
0000
0001
0000
1000
0100
0000
0000
1000
0000
,
0001
0000
0100
0000
0010
0000
1000
0001
0000
0000
0010
0000
0001
0000
1000
0010
,
0000
0000
0100
0000
0001
0000
1000
0001
0000
0000
0010
0000
0100
0000
1000
0001
,
0000
0000
1000
0000
0100
0000
0010
0001
0000
0000
1000
0000
0010
0000
0100
0000
,
0001
0000
1000
0100
0000
1000
0000
0000
0001
0000
0010
0000
0100
0000
1000
0000
,
1001
0000
0000
1010
0000
0000
1001
0000
0000
0011
0000
0000
0110
0000
0000
0000
,
0010
0000
0001
0000
1000
0000
0010
0100
0001
0000
1000
0001
1000
0000
1000
0000
,
0010
0000
0100
0000
0001
0000
1000
0001
0010
0000
0001
1000
0001
0000
0001
0000
,
0100
0000
0010
0000
1000
0000
0001
1000
0100
0010
0001
0000
1000
0000
1000
0000
,
2020
3030
0000
2002
3003
0000
0022
0033
0000
2002
3003
0000
2000
0000
3020
0000
,
0130
0000
0001
0000
1000
0000
0100
0000
0010
0000
0001
1000
0010
0000
0010
0000
,
0100
0000
0001
0000
1000
0000
0001
0010
0100
0000
1000
0001
1000
0000
1000
0000
,
0010
0000
0100
0000
0001
0000
1000
0001
0010
0100
1000
0000
0001
0000
0001
0000
,
0202
0303
0000
2002
3003
0000
2200
3300
0000
2002
3003
0000
0002
0000
1000
0000
,
1003
0000
0000
0000
;
