#TITLE:REFLECT;
#SUBTITLE:(ddrDave's cut);
#ARTIST:Gawr Gura;
#TITLETRANSLIT:;
#SUBTITLETRANSLIT:;
#ARTISTTRANSLIT:;
#GENRE:;
#CREDIT:;
#BANNER:REFLECT (ddrDave's cut).png;
#BACKGROUND:REFLECT (ddrDave's cut)-bg.png;
#LYRICSPATH:;
#CDTITLE:cdtitle.png;
#MUSIC:REFLECT (ddrDave's cut).ogg;
#OFFSET:-0.475000;
#SAMPLESTART:53.485001;
#SAMPLELENGTH:15.974000;
#SELECTABLE:YES;
#BPMS:0.000000=125.047005
;
#STOPS:
;
#BGCHANGES:0.000=REFLECT (ddrDave's cut).avi=1.000=0=0=1=====,
99999=-nosongbg-=1.000=0=0=0 // don't automatically add -songbackground-
;
#KEYSOUNDS:;
#ATTACKS:;

//---------------dance-single - Pruz----------------
#NOTES:
     dance-single:
     Pruz:
     Beginner:
     2:
     0.107648,0.153291,0.013337,0.213390,0.000000,113.000000,111.000000,2.000000,32.000000,0.000000,0.000000,0.107648,0.153291,0.013337,0.213390,0.000000,113.000000,111.000000,2.000000,32.000000,0.000000,0.000000:
// measure 0
0000
0000
0000
0000
,  // measure 1
0000
0000
0000
0000
,  // measure 2
0000
0000
0000
0000
,  // measure 3
0000
0000
0000
0000
,  // measure 4
1000
0000
0000
0000
,  // measure 5
1000
0000
0000
0000
,  // measure 6
0001
0000
0000
0000
,  // measure 7
0020
0000
0000
0030
,  // measure 8
0001
0000
0000
0000
,  // measure 9
0001
0000
0000
0000
,  // measure 10
1000
0000
0000
0000
,  // measure 11
0020
0000
0000
0030
,  // measure 12
0100
0000
0000
0000
,  // measure 13
0001
0000
0001
0000
,  // measure 14
2000
0000
0000
3000
0000
0000
0000
0000
,  // measure 15
0000
0000
0000
0000
,  // measure 16
0100
0000
0000
0000
,  // measure 17
1000
0000
1000
0000
,  // measure 18
0002
0000
0000
0003
0000
0000
0000
0000
,  // measure 19
0000
0000
0000
0000
,  // measure 20
1000
0000
0010
0000
,  // measure 21
0100
0000
0001
2000
,  // measure 22
3100
0000
0100
0000
,  // measure 23
0010
0000
0100
1000
,  // measure 24
0001
0000
0001
0000
,  // measure 25
1000
0000
1000
0000
,  // measure 26
0020
0000
0000
0000
,  // measure 27
0200
0000
0000
0330
0000
0000
0000
0000
,  // measure 28
1001
0000
1000
0000
,  // measure 29
0001
0000
0001
0000
,  // measure 30
0020
0000
0000
0130
,  // measure 31
2000
0000
0000
3001
,  // measure 32
1000
0000
1000
0000
,  // measure 33
0010
0000
0010
0000
,  // measure 34
0100
0000
0001
0000
,  // measure 35
2000
0000
0000
3002
,  // measure 36
1003
0000
1000
0000
,  // measure 37
0200
0000
0300
0010
,  // measure 38
0001
0000
0001
0000
,  // measure 39
0200
0000
0300
0010
,  // measure 40
1000
0000
1000
0000
,  // measure 41
0001
0000
0001
0000
,  // measure 42
0010
0000
0100
0000
,  // measure 43
2000
0000
0000
3002
,  // measure 44
2003
0000
0000
0000
,  // measure 45
0000
0000
0000
0000
,  // measure 46
3002
0000
0000
0000
,  // measure 47
0000
0000
0000
0000
,  // measure 48
2003
0000
0000
0000
,  // measure 49
3020
0000
0000
0000
,  // measure 50
0230
0000
0000
0000
,  // measure 51
0302
0000
0000
0003
,  // measure 52
1001
0000
1000
0000
,  // measure 53
0001
0000
0001
0000
,  // measure 54
0020
0000
0000
0130
,  // measure 55
2000
0000
0000
3001
,  // measure 56
1000
0000
1000
0000
,  // measure 57
0010
0000
0010
0000
,  // measure 58
0100
0000
0001
0000
,  // measure 59
2000
0000
0000
3002
,  // measure 60
1003
0000
1000
0000
,  // measure 61
0200
0000
0300
0010
,  // measure 62
0001
0000
0001
0000
,  // measure 63
0200
0000
0300
0010
,  // measure 64
1000
0000
1000
0000
,  // measure 65
0001
0000
0001
0000
,  // measure 66
0010
0000
0100
0000
,  // measure 67
2000
0000
0000
3002
,  // measure 68
1003
0000
0000
0000
,  // measure 69
1000
0000
0000
0000
,  // measure 70
0001
0000
0000
0000
,  // measure 71
0020
0000
0000
0030
,  // measure 72
0001
0000
0000
0000
,  // measure 73
0001
0000
0000
0000
,  // measure 74
1000
0000
0000
0000
,  // measure 75
0020
0000
0000
0030
,  // measure 76
0200
0000
0000
0000
0000
0300
0000
0000
;

//---------------dance-single - Pruz----------------
#NOTES:
     dance-single:
     Pruz:
     Easy:
     4:
     0.000000,0.000000,0.000000,0.000000,0.000000,0.000000,0.000000,0.000000,0.000000,0.000000,0.000000,0.000000,0.000000,0.000000,0.000000,0.000000,0.000000,0.000000,0.000000,0.000000,0.000000,0.000000:
0000
0000
0000
0000
,
0000
0000
0000
0000
,
0000
0000
0000
0000
,
0000
0000
0000
0000
,
1000
1000
0000
0010
,
0100
0100
0000
0001
,
1000
1000
0000
0100
,
0020
0000
0000
0032
,
1003
1000
0000
0100
,
0010
0010
0000
0001
,
1000
1000
0000
0010
,
0200
0000
0000
0302
,
1003
1000
0100
0010
,
0001
0001
1000
0010
,
2000
0000
0000
3000
0001
0000
0001
0000
,
2000
3000
0200
1000
,
0310
0010
0001
1000
,
0010
0010
1000
0001
,
0200
0000
0000
0300
0010
0000
1000
0000
,
0002
0003
0020
1000
,
0130
0000
0100
0000
,
1000
0000
1000
0002
,
1003
0000
1000
0000
,
0010
0000
0010
0100
,
0001
0000
0001
0000
,
1000
0000
1000
0000
,
0010
0010
0010
0010
,
0100
0000
0000
0001
,
1000
0000
0100
0000
,
0001
0000
0010
0000
,
1000
1000
0001
0001
,
0010
0000
0100
0000
,
1000
0000
0010
0000
,
0001
0000
0100
0000
,
1000
1000
0001
0001
,
0020
0000
0000
0230
,
1300
0001
0000
0001
,
0100
0010
0000
0010
,
1000
0001
0000
0001
,
0010
0100
0000
0100
,
0010
0000
0010
0000
,
0001
0000
0001
0000
,
1000
0000
0010
0000
,
0200
0000
0000
0302
,
1003
0000
0000
0000
,
1000
0000
0000
0000
,
0001
0000
0000
0000
,
0001
0000
0000
0000
,
1001
0000
0000
0000
,
2000
0000
3000
0000
,
0002
0003
2000
3000
,
0002
0000
0003
1000
,
0001
0000
0100
0000
,
1000
0000
0010
0000
,
0001
0001
1000
1000
,
0010
0000
0100
0000
,
0001
0000
0010
0000
,
1000
0000
0100
0000
,
0001
0001
1000
1000
,
0020
0000
0000
0230
,
0301
1000
0000
1000
,
0010
0100
0000
0001
,
0010
0100
0000
1000
,
0001
0100
0000
0010
,
1000
0000
1000
0000
,
0001
0000
0001
0000
,
0010
0000
0100
0000
,
2000
0000
0000
3002
,
1003
1000
0000
0010
,
0100
0100
0000
0001
,
1000
1000
0000
0100
,
0020
0000
0000
0032
,
1003
1000
0000
0100
,
0010
0010
0000
0001
,
1000
1000
0000
0010
,
0200
0000
0000
0302
,
2003
0000
0000
0000
0000
3000
0000
0000
;

//---------------dance-single - Pruz----------------
#NOTES:
     dance-single:
     Pruz:
     Medium:
     7:
     0.000000,0.000000,0.000000,0.000000,0.000000,0.000000,0.000000,0.000000,0.000000,0.000000,0.000000,0.000000,0.000000,0.000000,0.000000,0.000000,0.000000,0.000000,0.000000,0.000000,0.000000,0.000000:
0000
0000
0000
0000
,
0000
0000
0000
0000
,
0000
0000
0000
0000
,
0000
0000
0000
0000
,
1000
1000
0001
1000
,
0001
0001
1000
0001
,
1000
1000
0001
1000
,
0001
0000
0000
0001
0000
0000
0001
0000
,
1000
1000
0001
1000
,
0001
0001
1000
0001
,
1000
1000
0001
1000
,
0001
0000
0000
0001
0000
0000
0001
0000
,
1000
0000
1000
0000
1000
0001
1000
0000
,
0001
0000
0001
0000
0001
1000
0001
0000
,
1000
0000
1000
0000
1000
0001
1000
0000
,
0001
0000
0001
0000
0001
1000
0001
0000
,
1000
0000
1000
0000
1000
0001
1000
0000
,
0001
0000
0001
0000
0001
1000
0001
0000
,
1000
0000
1000
0000
1000
0001
1000
0000
,
0001
0000
1000
0000
0001
1000
0001
0000
,
1000
0000
0000
1000
0000
0000
0000
0000
0001
0000
0000
0000
0000
0000
0000
0000
,
1000
0000
0000
1000
0000
0000
0000
0000
0001
0000
0000
0000
1000
0000
0000
0000
,
0001
0000
0000
0001
0000
0000
0000
0000
1000
0000
0000
0000
0000
0000
0000
0000
,
0001
0000
0000
0001
0000
0000
0000
0000
1000
0000
0000
0000
0001
0000
0000
0000
,
1000
0000
0000
1010
0000
0000
0000
0000
0001
0000
0000
0011
0000
0000
0000
0000
,
1000
0000
0000
1100
0000
0000
0000
0000
0001
0000
0000
0101
0000
0000
0000
0000
,
0001
0000
0001
0000
0001
0000
0001
1000
,
0001
0000
0000
0000
0000
0001
1000
0000
,
1001
0010
0000
0001
,
1000
0010
0000
0010
,
1000
0001
1000
0000
0001
0000
0010
0000
,
0100
0000
0000
0000
1000
0000
0000
0001
0000
0000
0100
0000
0001
0000
0000
0000
,
1000
0010
0000
1000
,
0001
0010
0000
0010
,
0001
1000
0001
0000
1000
0000
0010
0000
,
0100
0000
0000
0100
0000
0000
0001
0000
0000
0001
0000
0000
2000
0000
0000
0000
,
3001
0000
0000
0000
1001
0000
0000
0000
0010
0000
0000
0100
0000
0000
0000
0000
,
0001
0000
0001
0000
1000
0001
1000
0001
,
1000
0000
0000
0000
0100
0000
0000
0000
0010
0000
0000
0001
0000
0000
0000
0000
,
1000
0000
0000
0000
0010
0000
0000
0100
0000
0000
0001
0000
1000
0000
0000
0000
,
1100
0000
0000
0000
0100
0000
0000
0010
0000
0000
0000
0000
0100
0000
0000
1000
,
0000
0000
0000
0000
0001
0000
0000
0100
0000
0000
0000
0000
0110
0000
0000
0000
,
0010
1000
0001
0010
,
0100
0000
0000
1000
0000
0000
0001
0000
,
1000
0001
0000
0001
,
1000
0001
1000
0000
0002
0000
2003
0000
,
3001
0000
1000
0000
0000
0001
0000
0000
,
1000
0001
1000
0001
0000
0000
0000
0000
,
1000
0100
0001
0010
,
1000
0010
0001
0100
,
1000
0001
0100
0001
1000
0001
0010
0001
,
1000
0001
0100
0010
1000
0001
1000
0000
,
1001
0010
0000
0001
,
1000
0010
0000
0010
,
1000
0001
1000
0000
0001
0000
0010
0000
,
0100
0000
0000
0000
1000
0000
0000
0001
0000
0000
0100
0000
0001
0000
0000
0000
,
1000
0010
0000
1000
,
0001
0010
0000
0010
,
0001
1000
0001
0000
1000
0000
0010
0000
,
0100
0000
0000
0100
0000
0000
0001
0000
0000
0001
0000
0000
2000
0000
0000
0000
,
3001
0000
0000
0000
1001
0000
0000
0000
0010
0000
0000
0100
0000
0000
0000
0000
,
0001
0000
0001
0000
1000
0001
1000
0001
,
1000
0000
0000
0000
0100
0000
0000
0000
0010
0000
0000
0001
0000
0000
0000
0000
,
1000
0000
0000
0000
0010
0000
0000
0100
0000
0000
0001
0000
1000
0000
0000
0000
,
1100
0000
0000
0000
0100
0000
0000
0010
0000
0000
0000
0000
0100
0000
0000
1000
,
0000
0000
0000
0000
0001
0000
0000
0100
0000
0000
0000
0000
0110
0000
0000
0000
,
0010
1000
0001
0010
,
0100
0000
0000
1000
0000
0000
0001
0000
,
1000
1000
0001
1000
,
0001
0001
1000
0001
,
1000
1000
0001
1000
,
0001
0000
0000
0001
0000
0000
0001
0000
,
1000
1000
0001
1000
,
0001
0001
1000
0001
,
1000
1000
0001
1000
,
0001
0000
0000
0001
0000
0000
0002
0000
,
2003
0000
0000
0000
0000
3000
0000
0000
;

//---------------dance-single - Pruz----------------
#NOTES:
     dance-single:
     Pruz:
     Hard:
     10:
     0.000000,0.000000,0.000000,0.000000,0.000000,0.000000,0.000000,0.000000,0.000000,0.000000,0.000000,0.000000,0.000000,0.000000,0.000000,0.000000,0.000000,0.000000,0.000000,0.000000,0.000000,0.000000:
0000
0000
0000
0000
,
0000
0000
0000
0000
,
0000
0000
0000
0000
,
0000
0000
0000
0000
,
1000
0001
0100
0001
1000
0000
0010
0000
,
0100
0001
1000
0001
0100
0000
0010
0000
,
1000
0001
0010
0001
1000
0000
0100
0000
,
0020
0000
0000
0000
0000
0000
0000
0000
0000
0000
0000
0000
0000
0000
0000
0000
0000
0000
0000
0000
0000
0000
0000
0000
0000
0000
0000
0000
0000
0000
0000
0000
0000
0000
0000
0030
0020
0000
0000
0000
0000
0000
0000
0000
0000
0000
0000
0000
0000
0000
0000
0000
0000
0000
0000
0000
0000
0000
0000
0000
0000
0000
0000
0000
0000
0000
0000
0000
0000
0000
0000
0000
0032
0000
0000
0000
0000
0000
0000
0000
0000
0000
0000
0000
0000
0000
0000
0000
0000
0000
0000
0000
0000
0000
0000
0000
0000
0000
0000
0000
0000
0000
0000
0000
0000
0000
0000
0003
0002
0000
0000
0000
0000
0000
0000
0000
0000
0000
0000
0000
0000
0000
0000
0000
0000
0000
0000
0000
0000
0000
0000
0000
0000
0000
0000
0000
0000
0000
0000
0000
0000
0000
0000
0000
2003
0000
0000
0000
0000
0000
0000
0000
0000
0000
0000
0000
0000
0000
0000
0000
0000
0000
0000
0000
0000
0000
0000
0000
0000
0000
0000
0000
0000
0000
0000
0000
0000
0000
0000
0000
0000
0000
0000
0000
0000
0000
0000
0000
0000
0000
0000
0000
,
3001
1000
0100
1000
0001
0000
1001
0000
,
1000
0001
0010
0001
1000
0000
1001
0000
,
0001
1000
0100
1000
0001
0000
1001
0000
,
2000
0000
0000
0000
0000
0000
0000
0000
0000
0000
0000
0000
0000
0000
0000
0000
0000
0000
0000
0000
0000
0000
0000
0000
0000
0000
0000
0000
0000
0000
0000
0000
0000
0000
0000
3000
2000
0000
0000
0000
0000
0000
0000
0000
0000
0000
0000
0000
0000
0000
0000
0000
0000
0000
0000
0000
0000
0000
0000
0000
0000
0000
0000
0000
0000
0000
0000
0000
0000
0000
0000
0000
3200
0000
0000
0000
0000
0000
0000
0000
0000
0000
0000
0000
0000
0000
0000
0000
0000
0000
0000
0000
0000
0000
0000
0000
0000
0000
0000
0000
0000
0000
0000
0000
0000
0000
0000
0300
0200
0000
0000
0000
0000
0000
0000
0000
0000
0000
0000
0000
0000
0000
0000
0000
0000
0000
0000
0000
0000
0000
0000
0000
0000
0000
0000
0000
0000
0000
0000
0000
0000
0000
0000
0000
0320
0000
0000
0000
0000
0000
0000
0000
0000
0000
0000
0000
0000
0000
0000
0000
0000
0000
0000
0000
0000
0000
0000
0000
0000
0000
0000
0000
0000
0000
0000
0000
0000
0000
0000
0000
0000
0000
0000
0000
0000
0000
0000
0000
0000
0000
0000
0000
,
0031
1000
0100
0000
1000
0001
0010
0000
,
0001
0001
1000
0000
1000
1000
0001
0000
,
0010
0100
0001
0000
0100
1000
0001
0000
,
0100
0000
0010
0000
1000
0000
0000
0001
0000
0000
1000
0000
0001
0000
0000
0000
,
0010
0100
1000
0000
0001
1000
0010
0000
,
1000
1000
0001
0000
0001
0001
1000
0000
,
0100
0010
0001
0000
1000
0001
0100
0000
,
0010
0000
1000
0000
0001
0000
0000
1000
0000
0000
0001
0000
1000
0000
0000
0000
,
0100
0000
0000
0100
0000
0000
0100
0000
1000
0000
0001
0000
0000
0000
0000
0000
,
0010
0000
0000
0010
0000
0000
0010
0000
0001
0000
0000
0000
2000
0000
0000
0000
,
3100
0000
0000
0100
0000
0000
0100
0000
0010
0000
0001
0000
0000
0000
0000
0000
,
1000
0000
0000
1000
0000
0000
1000
0000
0010
0000
0000
0000
0100
0000
0000
0000
,
0001
0000
0000
0011
0000
0000
0000
0000
1000
0000
0000
1010
0000
0000
0000
0000
,
0001
0000
0000
0101
0000
0000
0000
0000
1000
0000
0000
1100
0000
0000
0000
0000
,
1000
0001
0100
0001
1000
0001
0010
0001
,
0200
0000
0000
0000
0000
0300
0000
0000
0000
0000
0001
0000
1000
0000
0000
0000
,
0100
1000
0001
0000
0010
0001
1000
0000
,
0100
1000
0001
0000
0100
0010
1000
0000
,
0001
0000
0010
0001
0000
0001
0000
0000
1000
0000
0000
1000
0000
0000
1000
0000
,
0001
0000
0000
0100
0000
0000
0010
1000
0000
0000
0001
0000
1000
0000
0000
0000
,
0100
1000
0001
0000
0010
0001
1000
0000
,
0100
1000
0001
0000
0100
0001
1000
0000
,
0001
0000
0100
0001
0000
0001
0000
0000
1000
0000
0000
0000
1000
0000
1000
0000
,
0200
0000
0000
0000
0000
0000
0000
0000
0000
0000
0000
0000
0000
0000
0000
0000
0000
0000
0000
0000
0000
0000
0000
0000
0000
0000
0000
0000
0000
0000
0000
0000
0000
0000
0000
0300
0200
0000
0000
0000
0000
0000
0000
0000
0000
0000
0000
0000
0000
0000
0000
0000
0000
0000
0000
0000
0000
0000
0000
0000
0000
0000
0000
0000
0000
0000
0000
0000
0000
0000
0000
0000
0320
0000
0000
0000
0000
0000
0000
0000
0000
0000
0000
0000
0000
0000
0000
0000
0000
0000
0000
0000
0000
0000
0000
0000
0000
0000
0000
0000
0000
0000
0000
0000
0000
0000
0000
0000
0230
0000
0000
0000
0000
0000
0000
0000
0000
0000
0000
0000
0000
0000
0000
0000
0000
0000
0000
0000
0000
0000
0000
0000
0000
0000
0000
0000
0000
0000
0000
0000
0000
0000
0000
0000
2300
0000
0000
0000
0000
0000
0000
0000
0000
0000
0000
0000
0000
0000
0000
0000
0000
0000
0000
0000
0000
0000
0000
0000
0000
0000
0000
0000
0000
0000
0000
0000
0000
0000
0000
0000
0000
0000
0000
0000
0000
0000
0000
0000
0000
0000
0000
0000
,
3001
0000
1000
0000
0100
0000
0000
0000
1000
0000
0001
1000
0000
0000
0100
0000
,
0010
0000
0001
0000
1000
0000
0010
1000
0002
0000
0000
0000
0023
0000
0000
0000
,
0130
0000
1000
0000
0001
0000
0000
0000
0100
0000
0001
1000
0000
0000
0100
0000
,
0010
0000
0100
0000
1000
0000
0001
0010
0000
0000
0001
0000
1000
0000
0010
1000
,
0002
0000
0000
0000
1000
0000
0000
0013
0000
0000
0001
0000
1000
0000
0000
0000
,
0002
0000
0000
0000
0100
0000
0000
1003
0000
0000
0001
0000
0010
0000
0100
0000
,
1000
0000
0001
1000
0000
1000
0000
0001
0000
0000
0100
0000
0010
0000
0000
0000
,
2000
0000
0000
0000
0000
0000
0000
0000
0000
0000
0000
0000
0000
0000
0000
0000
0000
0000
0000
0000
0000
0000
0000
0000
0000
0000
0000
0000
0000
0000
0000
0000
0000
0000
0000
3000
2000
0000
0000
0000
0000
0000
0000
0000
0000
0000
0000
0000
0000
0000
0000
0000
0000
0000
0000
0000
0000
0000
0000
0000
0000
0000
0000
0000
0000
0000
0000
0000
0000
0000
0000
0000
3002
0000
0000
0000
0000
0000
0000
0000
0000
0000
0000
0000
0000
0000
0000
0000
0000
0000
0000
0000
0000
0000
0000
0000
0000
0000
0000
0000
0000
0000
0000
0000
0000
0000
0000
0000
0203
0000
0000
0000
0000
0000
0000
0000
0000
0000
0000
0000
0000
0000
0000
0000
0000
0000
0000
0000
0000
0000
0000
0000
0000
0000
0000
0000
0000
0000
0000
0000
0000
0000
0000
0000
0320
0000
0000
0000
0000
0000
0000
0000
0000
0000
0000
0000
0000
0000
0000
0000
0000
0000
0000
0000
0000
0000
0000
0000
0000
0000
0000
0000
0000
0000
0000
0000
0000
0000
0000
0000
0000
0000
0000
0000
0000
0000
0000
0000
0000
0000
0000
0000
,
1030
0000
0000
0000
1000
0000
0000
0000
0000
0000
0001
1000
0001
0000
0010
0000
,
0100
1000
0100
0000
0020
0000
0032
0000
,
2003
0000
3002
0000
0000
0023
0000
0000
,
0000
0130
1000
0001
0000
0000
0000
0000
,
1001
0000
1000
0001
0010
0000
0100
0000
,
1000
0000
0001
1000
0010
0000
0100
0000
,
0001
1000
0100
1000
0001
0010
0001
1000
,
0010
0100
0001
0010
0100
1000
0001
0000
,
0010
0001
1000
0000
0010
1000
0001
0000
,
0100
0001
1000
0000
0100
0010
0001
0000
,
1000
0000
0010
1000
0000
1000
0000
0000
0001
0000
0000
0001
0000
0000
0001
0000
,
1000
0000
0000
0100
0000
0000
0010
0001
0000
0000
1000
0000
0001
0000
0000
0000
,
0010
0001
1000
0000
0010
1000
0001
0000
,
0100
0001
1000
0000
0100
1000
0001
0000
,
1000
0000
0100
1000
0000
1000
0000
0000
0001
0000
0000
0000
0001
0000
0001
0000
,
0200
0000
0000
0000
0000
0000
0000
0000
0000
0000
0000
0000
0000
0000
0000
0000
0000
0000
0000
0000
0000
0000
0000
0000
0000
0000
0000
0000
0000
0000
0000
0000
0000
0000
0000
0300
0200
0000
0000
0000
0000
0000
0000
0000
0000
0000
0000
0000
0000
0000
0000
0000
0000
0000
0000
0000
0000
0000
0000
0000
0000
0000
0000
0000
0000
0000
0000
0000
0000
0000
0000
0000
0320
0000
0000
0000
0000
0000
0000
0000
0000
0000
0000
0000
0000
0000
0000
0000
0000
0000
0000
0000
0000
0000
0000
0000
0000
0000
0000
0000
0000
0000
0000
0000
0000
0000
0000
0000
0230
0000
0000
0000
0000
0000
0000
0000
0000
0000
0000
0000
0000
0000
0000
0000
0000
0000
0000
0000
0000
0000
0000
0000
0000
0000
0000
0000
0000
0000
0000
0000
0000
0000
0000
0000
0302
0000
0000
0000
0000
0000
0000
0000
0000
0000
0000
0000
0000
0000
0000
0000
0000
0000
0000
0000
0000
0000
0000
0000
0000
0000
0000
0000
0000
0000
0000
0000
0000
0000
0000
0000
0000
0000
0000
0000
0000
0000
0000
0000
0000
0000
0000
0000
,
1003
0000
0001
0000
0010
0000
0000
0000
0001
0000
1000
0001
0000
0000
0100
0000
,
0010
0000
1000
0000
0001
0000
0010
0001
2000
0000
0000
0000
3020
0000
0000
0000
,
0130
0000
0001
0000
1000
0000
0000
0000
0100
0000
1000
0001
0000
0000
0100
0000
,
0010
0000
1000
0000
0001
0000
1000
0100
0000
0000
0010
0000
0001
0000
1000
0001
,
0200
0000
0000
0000
0001
0000
0000
0310
0000
0000
1000
0000
0001
0000
0000
0000
,
0020
0000
0000
0000
0100
0000
0000
0031
0000
0000
1000
0000
0010
0000
0100
0000
,
0001
0000
1000
0001
0000
0001
0000
1000
0000
0000
0100
0000
0010
0000
0000
0000
,
0002
0000
0000
0000
0000
0000
0000
0000
0000
0000
0000
0000
0000
0000
0000
0000
0000
0000
0000
0000
0000
0000
0000
0000
0000
0000
0000
0000
0000
0000
0000
0000
0000
0000
0000
0003
0002
0000
0000
0000
0000
0000
0000
0000
0000
0000
0000
0000
0000
0000
0000
0000
0000
0000
0000
0000
0000
0000
0000
0000
0000
0000
0000
0000
0000
0000
0000
0000
0000
0000
0000
0000
2003
0000
0000
0000
0000
0000
0000
0000
0000
0000
0000
0000
0000
0000
0000
0000
0000
0000
0000
0000
0000
0000
0000
0000
0000
0000
0000
0000
0000
0000
0000
0000
0000
0000
0000
0000
3020
0000
0000
0000
0000
0000
0000
0000
0000
0000
0000
0000
0000
0000
0000
0000
0000
0000
0000
0000
0000
0000
0000
0000
0000
0000
0000
0000
0000
0000
0000
0000
0000
0000
0000
0000
0230
0000
0000
0000
0000
0000
0000
0000
0000
0000
0000
0000
0000
0000
0000
0000
0000
0000
0000
0000
0000
0000
0000
0000
0000
0000
0000
0000
0000
0000
0000
0000
0000
0000
0000
0000
0000
0000
0000
0000
0000
0000
0000
0000
0000
0000
0000
0000
,
0301
1000
0100
1000
0001
0000
0010
0000
,
0100
1000
0001
1000
0100
0000
0010
0000
,
0001
1000
0010
1000
0001
0000
0100
0000
,
0020
0000
0000
0000
0000
0000
0000
0000
0000
0000
0000
0000
0000
0000
0000
0000
0000
0000
0000
0000
0000
0000
0000
0000
0000
0000
0000
0000
0000
0000
0000
0000
0000
0000
0000
0030
0020
0000
0000
0000
0000
0000
0000
0000
0000
0000
0000
0000
0000
0000
0000
0000
0000
0000
0000
0000
0000
0000
0000
0000
0000
0000
0000
0000
0000
0000
0000
0000
0000
0000
0000
0000
2030
0000
0000
0000
0000
0000
0000
0000
0000
0000
0000
0000
0000
0000
0000
0000
0000
0000
0000
0000
0000
0000
0000
0000
0000
0000
0000
0000
0000
0000
0000
0000
0000
0000
0000
3000
2000
0000
0000
0000
0000
0000
0000
0000
0000
0000
0000
0000
0000
0000
0000
0000
0000
0000
0000
0000
0000
0000
0000
0000
0000
0000
0000
0000
0000
0000
0000
0000
0000
0000
0000
0000
3002
0000
0000
0000
0000
0000
0000
0000
0000
0000
0000
0000
0000
0000
0000
0000
0000
0000
0000
0000
0000
0000
0000
0000
0000
0000
0000
0000
0000
0000
0000
0000
0000
0000
0000
0000
0000
0000
0000
0000
0000
0000
0000
0000
0000
0000
0000
0000
,
1003
0001
0100
0001
1000
0000
1001
0000
,
0001
1000
0010
1000
0001
0000
1001
0000
,
1000
0001
0100
0001
1000
0000
1001
0000
,
0002
0000
0000
0000
0000
0000
0000
0000
0000
0000
0000
0000
0000
0000
0000
0000
0000
0000
0000
0000
0000
0000
0000
0000
0000
0000
0000
0000
0000
0000
0000
0000
0000
0000
0000
0003
0002
0000
0000
0000
0000
0000
0000
0000
0000
0000
0000
0000
0000
0000
0000
0000
0000
0000
0000
0000
0000
0000
0000
0000
0000
0000
0000
0000
0000
0000
0000
0000
0000
0000
0000
0000
0023
0000
0000
0000
0000
0000
0000
0000
0000
0000
0000
0000
0000
0000
0000
0000
0000
0000
0000
0000
0000
0000
0000
0000
0000
0000
0000
0000
0000
0000
0000
0000
0000
0000
0000
0030
0020
0000
0000
0000
0000
0000
0000
0000
0000
0000
0000
0000
0000
0000
0000
0000
0000
0000
0000
0000
0000
0000
0000
0000
0000
0000
0000
0000
0000
0000
0000
0000
0000
0000
0000
0000
0230
0000
0000
0000
0000
0000
0000
0000
0000
0000
0000
0000
0000
0000
0000
0000
0000
0000
0000
0000
0000
0000
0000
0000
0000
0000
0000
0000
0000
0000
0000
0000
0000
0000
0000
0000
0000
0000
0000
0000
0000
0000
0000
0000
0000
0000
0000
0000
,
2300
0000
0000
3000
;

//---------------dance-single - Pruz----------------
#NOTES:
     dance-single:
     Pruz:
     Challenge:
     13:
     0.000000,0.000000,0.000000,0.000000,0.000000,0.000000,0.000000,0.000000,0.000000,0.000000,0.000000,0.000000,0.000000,0.000000,0.000000,0.000000,0.000000,0.000000,0.000000,0.000000,0.000000,0.000000:
0000
0000
0000
0000
,
0000
0000
0000
0000
,
0000
0000
0000
0000
,
0000
0000
0000
0000
,
1000
0000
0001
0000
0100
0000
0001
0000
1000
0000
0010
0100
0010
0000
0010
0000
,
1000
0000
0001
0000
0010
0000
0001
0000
1000
0000
0100
0010
0100
0000
0100
0000
,
1000
0000
0001
0000
0100
0000
0001
0000
1000
0010
0100
0000
0001
0000
0001
0000
,
2000
0000
0000
0000
0000
0000
0000
0000
0000
0000
0000
0000
0000
0000
0000
0000
0000
0000
0000
0000
0000
0000
0000
0000
0000
0000
0000
0000
0000
0000
0000
0000
0000
0000
0000
3000
2000
0000
0000
0000
0000
0000
0000
0000
0000
0000
0000
0000
0000
0000
0000
0000
0000
0000
0000
0000
0000
0000
0000
0000
0000
0000
0000
0000
0000
0000
0000
0000
0000
0000
0000
3000
0002
0000
0000
0000
0000
0000
0000
0000
0000
0000
0000
0000
0000
0000
0000
0000
0000
0000
0000
0000
0000
0000
0000
0000
0000
0000
0000
0000
0000
0000
0000
0000
0000
0000
0000
0003
0002
0000
0000
0000
0000
0000
0000
0000
0000
0000
0000
0000
0000
0000
0000
0000
0000
0000
0000
0000
0000
0000
0000
0000
0000
0000
0000
0000
0000
0000
0000
0000
0000
0000
0000
0000
1003
0000
0000
0000
0000
0000
0000
0000
0000
0000
0000
0000
0000
0000
0000
0000
0000
0000
0000
0000
0000
0000
0000
0000
1000
0000
0000
0000
0000
0000
0000
0000
0000
0000
0000
0000
0000
0000
0000
0000
0000
0000
0000
0000
0000
0000
0000
0000
,
0001
0000
1000
0000
0100
0000
1000
0000
0001
0000
0010
0100
0010
0000
0010
0000
,
0001
0000
1000
0000
0010
0000
1000
0000
0001
0000
0100
0010
0100
0000
0100
0000
,
0001
0000
1000
0000
0100
0000
1000
0000
0001
0010
0100
0000
1000
0000
1000
0000
,
0002
0000
0000
0000
0000
0000
0000
0000
0000
0000
0000
0000
0000
0000
0000
0000
0000
0000
0000
0000
0000
0000
0000
0000
0000
0000
0000
0000
0000
0000
0000
0000
0000
0000
0000
0003
0002
0000
0000
0000
0000
0000
0000
0000
0000
0000
0000
0000
0000
0000
0000
0000
0000
0000
0000
0000
0000
0000
0000
0000
0000
0000
0000
0000
0000
0000
0000
0000
0000
0000
0000
0003
2000
0000
0000
0000
0000
0000
0000
0000
0000
0000
0000
0000
0000
0000
0000
0000
0000
0000
0000
0000
0000
0000
0000
0000
0000
0000
0000
0000
0000
0000
0000
0000
0000
0000
0000
3000
2000
0000
0000
0000
0000
0000
0000
0000
0000
0000
0000
0000
0000
0000
0000
0000
0000
0000
0000
0000
0000
0000
0000
0000
0000
0000
0000
0000
0000
0000
0000
0000
0000
0000
0000
0000
3001
0000
0000
0000
0000
0000
0000
0000
0000
0000
0000
0000
0000
0000
0000
0000
0000
0000
0000
0000
0000
0000
0000
0000
0001
0000
0000
0000
0000
0000
0000
0000
0000
0000
0000
0000
0000
0000
0000
0000
0000
0000
0000
0000
0000
0000
0000
0000
,
0100
0000
0010
0000
1000
0000
0000
0001
1000
0000
0100
0000
0010
0000
0000
0000
,
0100
0000
1000
0000
0001
0000
0000
0100
0010
0000
1000
0000
0001
0000
0000
0000
,
0010
0000
0100
0000
1000
0000
0000
0001
1000
0000
0010
0000
0100
0000
0000
0000
,
0001
0000
0100
0000
0010
0000
0000
1000
0001
0000
1000
0000
0100
0000
0010
0000
,
0001
0000
1000
0000
0100
0000
0000
0100
1000
0000
0001
0000
1000
0000
0000
0000
,
0010
0000
0100
0000
0001
0000
0000
0001
1000
0000
0001
0000
0010
0000
0000
0000
,
0100
0000
1000
0000
0001
0000
0000
0001
0100
0000
0010
0000
1000
0000
0000
0000
,
0001
0000
1000
0000
0100
0000
0000
1000
0000
0000
0001
0000
0100
0000
0000
0000
,
0001
0000
0000
0001
0000
0000
0001
0000
1000
0000
1000
0000
0000
0000
0000
0000
,
1000
0000
0000
1000
0000
0000
1000
0000
0100
0000
0000
0000
0020
0000
0000
0000
,
0031
0000
0000
0001
0000
0000
0001
0000
1000
0000
1000
0000
0000
0000
0000
0000
,
1000
0000
0000
0001
0000
0000
1000
0000
0010
0000
0100
0001
1000
0000
1000
0000
,
0100
0000
0100
0020
0000
0000
0031
0000
1000
0000
1000
0020
0000
0000
0130
0000
,
0001
0000
0001
1000
0000
0000
0100
0000
1000
0000
1000
0001
0000
0000
0100
0000
,
0010
0000
1000
0000
0001
0000
0010
0000
0100
0000
1000
0001
1000
0001
1000
0001
,
2000
0000
0000
0000
0000
3000
0000
0000
0000
0000
0001
0000
0100
0000
0010
1000
,
0001
0000
1000
0000
0100
0000
0010
0001
1000
0000
0001
0000
0100
0000
0010
0100
,
0001
0000
1000
0000
0100
0000
0010
0100
1000
0000
0001
0000
0100
0000
0010
0000
,
1000
0000
1000
0001
0000
0001
0000
0010
0100
0000
1000
0001
1000
0000
0010
0000
,
0100
0000
0000
0001
1000
0000
0001
1000
0000
0000
0100
0000
0010
0000
0001
1000
,
0001
0000
0100
0000
0010
0000
1000
0001
1000
0000
0001
0000
0010
0000
0100
1000
,
0001
0000
1000
0000
0010
0000
0100
0001
1000
0000
0001
0000
0010
0000
0100
0000
,
1000
0000
1000
0001
0000
0001
0000
0100
0010
0000
1000
0001
1000
0000
0100
0000
,
0010
0000
0001
0100
0000
0010
1000
0000
0100
0010
0000
0000
1001
0000
0000
0000
,
0001
0000
0100
0000
0010
0000
1000
0000
0001
0000
1000
0100
0000
0000
1000
0001
,
0100
0000
0010
0000
1000
0000
0001
1000
0200
0000
0010
0000
2300
0000
0001
0000
,
3100
0000
1000
0000
0001
0000
0100
0000
0010
0000
1000
0001
0000
0000
0010
0000
,
0100
0000
0010
0000
0001
0000
1000
0010
0000
0000
1000
0000
0001
0000
1000
0100
,
0020
0000
1000
0000
0100
0000
0000
0031
0000
0000
1000
0000
0010
0000
1000
0001
,
0200
0000
1000
0000
0010
0000
0000
0301
0000
0000
1000
0000
0100
0000
0010
0000
,
0001
0000
1000
0010
0000
0010
0000
1000
0000
0000
0001
0000
0010
0000
0100
1000
,
0001
0000
0001
1000
0000
0001
1000
0000
1000
0001
0000
0000
2000
0000
0000
0000
,
3100
0000
0000
0000
0020
0000
0000
0000
0000
0000
0031
1000
0001
0000
0001
0000
,
0100
0010
2000
0000
3002
0000
0203
0000
,
0310
0000
2000
0000
0000
3002
0000
0000
,
0000
0013
0001
1000
0000
0000
0000
0000
,
1001
0000
1000
0010
0100
0000
0002
0000
,
1003
0001
0100
0001
1000
1000
0010
0000
,
0100
0001
1000
0100
1000
0001
0100
0010
,
1000
0001
1000
0001
1000
0001
1000
0001
1000
0000
0001
0000
0010
0000
1000
0010
,
0001
0000
1000
0000
0010
0000
0100
0001
1000
0000
0100
0000
0001
0000
0100
1000
,
0001
0000
1000
0000
0010
0000
0100
0001
1000
0000
0001
0000
0010
0000
0100
0000
,
1000
0000
1000
0010
0000
0010
0000
0100
0001
0000
1000
0001
1000
0000
0100
0000
,
0010
0000
0000
0001
1000
0000
0010
0100
0000
0000
0001
0000
0010
0000
1000
0010
,
0001
0000
0100
0000
0010
0000
1000
0001
0010
0000
0001
0000
0100
0000
1000
0100
,
0001
0000
1000
0000
0100
0000
0010
0001
1000
0000
0010
0000
0010
0000
0100
0000
,
0001
0000
0001
1000
0000
1000
0000
0100
0010
0000
0001
1000
0001
0000
0100
0000
,
0010
0000
1000
0100
0000
0010
0001
0000
0100
0010
0000
0000
1001
0000
0000
0000
,
0001
0000
0100
0000
0010
0000
1000
0000
0001
0000
1000
0100
0000
0000
1000
0001
,
0010
0000
0100
0000
0010
0000
0001
1000
0020
0000
0100
0000
2030
0000
0001
0000
,
3100
0000
1000
0000
0001
0000
0100
0000
0010
0000
1000
0001
0000
0000
0010
0000
,
0100
0000
0010
0000
0001
0000
1000
0010
0000
0000
1000
0000
0001
0000
1000
0100
,
0020
0000
1000
0000
0100
0000
0000
0031
0000
0000
1000
0000
0010
0000
1000
0001
,
0200
0000
1000
0000
0010
0000
0000
0301
0000
0000
1000
0000
0010
0000
0100
0000
,
0001
0000
1000
0100
0000
0100
0000
1000
0000
0000
0001
0000
0100
0000
0010
1000
,
0001
0000
0001
1000
0000
0001
1000
0000
1000
0001
0000
0000
0020
0000
0000
0000
,
0031
0000
1000
0000
0100
0000
1000
0000
0001
0000
0010
0100
0010
0000
0010
0000
,
0001
0000
1000
0000
0010
0000
1000
0000
0001
0000
0100
0010
0100
0000
0100
0000
,
0001
0000
1000
0000
0100
0000
1000
0000
0001
0010
0100
0000
1000
0000
1000
0000
,
0002
0000
0000
0000
0000
0000
0000
0000
0000
0000
0000
0000
0000
0000
0000
0000
0000
0000
0000
0000
0000
0000
0000
0000
0000
0000
0000
0000
0000
0000
0000
0000
0000
0000
0000
0003
0002
0000
0000
0000
0000
0000
0000
0000
0000
0000
0000
0000
0000
0000
0000
0000
0000
0000
0000
0000
0000
0000
0000
0000
0000
0000
0000
0000
0000
0000
0000
0000
0000
0000
0000
0003
2000
0000
0000
0000
0000
0000
0000
0000
0000
0000
0000
0000
0000
0000
0000
0000
0000
0000
0000
0000
0000
0000
0000
0000
0000
0000
0000
0000
0000
0000
0000
0000
0000
0000
0000
3000
2000
0000
0000
0000
0000
0000
0000
0000
0000
0000
0000
0000
0000
0000
0000
0000
0000
0000
0000
0000
0000
0000
0000
0000
0000
0000
0000
0000
0000
0000
0000
0000
0000
0000
0000
0000
3001
0000
0000
0000
0000
0000
0000
0000
0000
0000
0000
0000
0000
0000
0000
0000
0000
0000
0000
0000
0000
0000
0000
0000
0001
0000
0000
0000
0000
0000
0000
0000
0000
0000
0000
0000
0000
0000
0000
0000
0000
0000
0000
0000
0000
0000
0000
0000
,
1000
0000
0001
0000
0100
0000
0001
0000
1000
0000
0010
0100
0010
0000
0010
0000
,
1000
0000
0001
0000
0010
0000
0001
0000
1000
0000
0100
0010
0100
0000
0100
0000
,
1000
0000
0001
0000
0100
0000
0001
0000
1000
0010
0100
0000
0001
0000
0001
0000
,
2000
0000
0000
0000
0000
0000
0000
0000
0000
0000
0000
0000
0000
0000
0000
0000
0000
0000
0000
0000
0000
0000
0000
0000
0000
0000
0000
0000
0000
0000
0000
0000
0000
0000
0000
3000
2000
0000
0000
0000
0000
0000
0000
0000
0000
0000
0000
0000
0000
0000
0000
0000
0000
0000
0000
0000
0000
0000
0000
0000
0000
0000
0000
0000
0000
0000
0000
0000
0000
0000
0000
3000
0002
0000
0000
0000
0000
0000
0000
0000
0000
0000
0000
0000
0000
0000
0000
0000
0000
0000
0000
0000
0000
0000
0000
0000
0000
0000
0000
0000
0000
0000
0000
0000
0000
0000
0000
0003
0002
0000
0000
0000
0000
0000
0000
0000
0000
0000
0000
0000
0000
0000
0000
0000
0000
0000
0000
0000
0000
0000
0000
0000
0000
0000
0000
0000
0000
0000
0000
0000
0000
0000
0000
0000
1003
0000
0000
0000
0000
0000
0000
0000
0000
0000
0000
0000
0000
0000
0000
0000
0000
0000
0000
0000
0000
0000
0000
0000
1000
0000
0000
0000
0000
0000
0000
0000
0000
0000
0000
0000
0000
0000
0000
0000
0000
0000
0000
0000
0000
0000
0000
0000
,
0200
0000
0000
0300
;
