#VERSION:0.83;
#TITLE:PropriƩtaire;
#SUBTITLE:;
#ARTIST:Appelez-moi Charles;
#TITLETRANSLIT:;
#SUBTITLETRANSLIT:;
#ARTISTTRANSLIT:;
#GENRE:Pop;
#CREDIT:;
#MUSIC:Proprietaire.ogg;
#BANNER:Proprietaire.png;
#BACKGROUND:Proprietaire-bg.png;
#CDTITLE:;
#SAMPLESTART:71.637;
#SAMPLELENGTH:16.652;
#SELECTABLE:YES;
#OFFSET:-0.085;
#BPMS:0.000=87.000;
#STOPS:;
#SPEEDS:0.000=1.000=0.000=0;
#SCROLLS:0.000=1.000;
#TICKCOUNTS:0.000=4;
#TIMESIGNATURES:0.000=4=4;
#LABELS:0.000=Song Start;
#COMBOS:0.000=1;
#LASTSECONDHINT:143.350;
#ORIGIN:;
#PREVIEWVID:;
#JACKET:Proprietaire-jacket.png;
#CDIMAGE:;
#DISCIMAGE:;
#BGCHANGES:0.000=Proprietaire.avi=1.000=0=0=0=StretchNoLoop====,
99999.000=-nosongbg-=1.000=0=0=0=StretchNoLoop====
;
#FGCHANGES:;

//--------------- dance-single - Pruz ----------------
#NOTEDATA:;
#STEPSTYPE:dance-single;
#DESCRIPTION:Pruz;
#DIFFICULTY:Beginner;
#METER:3;
#RADARVALUES:0.119159,0.119208,0,0.243282,0,120,120,0,35,0,0,0,0,0,0.119159,0.119208,0,0.243282,0,120,120,0,35,0,0,0,0,0;
#CHARTNAME:Pruz;
#CHARTSTYLE:;
#CREDIT:Pruz;
#NOTES:
0000
0000
0000
0000
,
0000
0000
0000
0000
,
2000
3000
2000
3000
,
0002
0003
0002
0003
,
2000
3000
2000
3000
,
0002
0003
0002
0003
,
1000
1000
0020
0030
,
1000
1000
0002
0003
,
1000
1000
0020
0030
,
1000
1000
0002
0003
,
0100
0100
0020
0030
,
0100
0100
0002
0003
,
2000
0001
0000
0001
,
0000
0001
3000
0001
,
1000
0100
0010
0000
,
0001
0010
0100
0000
,
1000
0010
0100
0000
,
0001
0100
0010
0000
,
2000
3000
0002
0003
,
2000
3000
0020
0030
,
0200
0300
0002
0003
,
2000
3000
0020
0030
,
0100
0100
0100
0000
,
0001
0001
0001
0000
,
1000
1000
1000
0000
,
0020
0000
0000
0000
0000
0000
0200
0000
0000
0000
0000
0330
0000
0000
0000
0000
0000
0000
0000
0000
0000
0000
0000
0000
,
0001
0001
0020
0030
,
0001
0001
2000
3000
,
0001
0001
0020
0030
,
0001
0001
2000
3000
,
0100
0100
0020
0030
,
0100
0100
2000
3000
,
0002
1000
0000
1000
,
0000
1000
0003
1000
,
0001
0100
0010
0000
,
1000
0010
0100
0000
,
0001
0010
0100
0000
,
1000
0100
0010
0000
,
0001
0100
0010
0000
,
1000
0010
0100
0000
,
0001
0010
0100
0000
,
1000
0100
0010
0000
,
0002
1000
0000
1000
,
0000
1000
0000
0100
,
2003
0001
0000
0001
,
0000
0001
0000
0100
,
3020
0000
0000
0000
,
0000
0000
0000
0000
,
0000
0000
0000
0000
,
0030
0000
0000
0000
;

//--------------- dance-single - Pruz ----------------
#NOTEDATA:;
#STEPSTYPE:dance-single;
#DESCRIPTION:Pruz;
#DIFFICULTY:Easy;
#METER:4;
#RADARVALUES:0.140011,0.153268,0,0.208527,0.003475,141,141,0,30,0,0,0,0,0,0.140011,0.153268,0,0.208527,0.003475,141,141,0,30,0,0,0,0,0;
#CHARTNAME:Pruz;
#CHARTSTYLE:;
#CREDIT:Pruz;
#NOTES:
0000
0000
0000
0000
,
0000
0000
0000
0000
,
1000
0100
0010
0001
,
1000
0100
0010
0001
,
0001
0010
0100
1000
,
0001
0010
0100
1000
,
0001
1000
0020
0030
,
1000
0001
0200
0300
,
0001
1000
0200
0300
,
1000
0001
0020
0030
,
0100
1000
0002
0003
,
0100
0001
2000
3000
,
0020
0100
0000
0100
,
0000
0100
0000
0100
,
1030
0001
2000
3000
,
0010
1000
0020
0030
,
1000
0001
2000
3000
,
0001
0010
0002
0003
,
1000
0100
0010
0000
,
0001
0010
0100
0000
,
1000
0001
0010
0010
,
0001
1000
0100
0100
,
0010
0010
0020
0030
,
0010
0010
0020
0030
,
0010
0010
0020
0030
,
0010
0000
0000
0000
0000
0000
0010
0000
0000
0000
0000
0100
0000
0000
0000
0000
0000
0000
0000
0000
0000
0000
0000
0000
,
1000
0001
0020
0030
,
0001
1000
0200
0300
,
1000
0001
0200
0300
,
0001
1000
0020
0030
,
0100
0001
2000
3000
,
0100
1000
0002
0003
,
0020
0100
0000
0100
,
0000
0100
0000
0100
,
0031
1000
0002
0003
,
0010
0001
0020
0030
,
0001
1000
0002
0003
,
1000
0010
2000
3000
,
0001
1000
0002
0003
,
0010
0001
0020
0030
,
0001
1000
0002
0003
,
1000
0010
2000
3000
,
0001
0001
1000
1000
,
0010
0010
0100
0001
,
1000
1000
0100
0100
,
0010
0010
0001
1000
,
0020
0000
0000
0000
,
0000
0000
0000
0000
,
0000
0000
0000
0000
,
0030
0000
0000
0000
;

//--------------- dance-single - Pruz ----------------
#NOTEDATA:;
#STEPSTYPE:dance-single;
#DESCRIPTION:Pruz;
#DIFFICULTY:Medium;
#METER:6;
#RADARVALUES:0.225408,0.238416,0,0.048656,0.003475,227,227,0,7,0,0,0,0,0,0.225408,0.238416,0,0.048656,0.003475,227,227,0,7,0,0,0,0,0;
#CHARTNAME:Pruz;
#CHARTSTYLE:;
#CREDIT:Pruz;
#NOTES:
0000
0000
0000
0000
,
0000
0000
0000
0000
,
1000
0000
1000
0000
1000
0000
0100
0010
,
0001
0000
0001
0000
0001
0000
0100
0010
,
1000
0000
1000
0000
1000
0000
0100
0010
,
0001
0000
0001
0000
0001
0000
1000
0001
,
0100
0000
0010
0000
1000
1000
0001
0000
,
0010
0000
0100
0000
1000
1000
0001
0000
,
0100
0000
0010
0000
1000
1000
0001
0000
,
0010
0000
0100
0000
1000
1000
0001
0000
,
0100
0010
1000
0000
0010
0010
1000
0000
,
0100
0010
0001
0000
0010
0010
0100
0000
,
2000
0000
0001
0000
0001
0001
3010
0000
,
2000
0000
0001
0000
0001
0001
3100
0000
,
0010
0000
0001
0000
1000
0000
0001
1000
,
0001
0000
0100
0000
0010
0000
1000
0001
,
1000
0000
0100
0000
0010
0000
0001
1000
,
0001
0000
0100
0000
0010
0000
1000
0001
,
1000
0100
0010
0000
0001
0001
1000
0000
,
0001
0100
0010
0000
1000
1000
0001
0000
,
0100
0010
1000
0000
0001
0001
1000
0000
,
0100
0010
0001
0000
1000
1000
0010
0000
,
1000
0000
0001
0000
0100
0000
0001
0001
,
1000
0000
0100
0000
1000
0000
0001
1000
,
0001
0000
0100
0000
0010
0000
1000
0001
,
1000
0000
0000
0000
0000
0000
1000
0000
0000
0000
0000
0010
0000
0000
0000
0000
0000
0000
0000
0000
0000
0000
0000
0000
,
0100
0000
0010
0000
1000
1000
0001
0000
,
0010
0000
0100
0000
1000
1000
0001
0000
,
0100
0000
0010
0000
1000
1000
0001
0000
,
0010
0000
0100
0000
1000
1000
0001
0000
,
0100
0010
1000
0000
0010
0010
1000
0000
,
0100
0010
0001
0000
0010
0010
0100
0000
,
2000
0000
0001
0000
0001
0001
3010
0000
,
2000
0000
0001
0000
0001
0001
3100
0000
,
0010
0000
0001
0000
1000
0000
0001
1000
,
0001
0000
0100
0000
0010
0000
1000
0001
,
1000
0000
0100
0000
0010
0000
0001
1000
,
0001
0000
0100
0000
0010
0000
1000
0001
,
1000
0000
0100
0000
0010
0000
0001
1000
,
0001
0000
0100
0000
0010
0000
1000
0001
,
1000
0000
0100
0000
0010
0000
0001
1000
,
0001
0000
0100
0000
0010
0000
1000
0001
,
2000
0100
0001
0010
,
0100
0000
3001
0000
1000
0010
1000
0001
,
2000
0100
0001
0010
,
0100
0000
3001
0000
1000
0100
1000
0001
,
0020
0000
0000
0000
,
0000
0000
0000
0000
,
0000
0000
0000
0000
,
0030
0000
0000
0000
;

//--------------- dance-single - Pruz ----------------
#NOTEDATA:;
#STEPSTYPE:dance-single;
#DESCRIPTION:Pruz;
#DIFFICULTY:Hard;
#METER:11;
#RADARVALUES:0.381307,0.391684,0,0.006951,0.264135,384,384,0,1,0,0,0,0,0,0.381307,0.391684,0,0.006951,0.264135,384,384,0,1,0,0,0,0,0;
#CHARTNAME:Pruz;
#CHARTSTYLE:;
#CREDIT:Pruz;
#NOTES:
0000
0000
0000
0000
,
0000
0000
0000
0000
,
1000
0100
0100
0001
0100
0100
0010
0100
,
1000
1000
0001
0010
0001
0001
1000
0001
,
0100
0010
0010
0001
0010
0010
0100
0010
,
1000
1000
0001
0100
0001
0001
1000
0001
,
0010
0000
0000
0001
0000
0000
1000
0000
0000
0100
0000
0000
1000
0000
0000
0001
0000
0100
0010
0000
0000
0010
0000
0000
,
1000
0000
0000
1000
0000
0000
0001
0000
0000
0000
0000
1000
0001
0000
0000
1000
0000
0000
0001
0000
0000
0000
0000
0000
,
0100
0000
0000
0010
0000
0000
1000
0000
0000
0001
0000
0000
1000
0000
0000
0100
0000
0010
0001
0000
0000
1000
0000
0001
,
0100
0010
1000
0000
0001
1000
0100
0000
,
1000
0000
0000
0001
0000
0000
0010
0000
0000
0100
0000
0000
1000
0000
0000
0001
0000
1000
0100
0000
0000
0010
0000
0000
,
0100
0000
0000
0100
0000
0000
1000
0000
0000
0000
0000
0001
1000
0000
0000
0001
0000
0000
0010
0000
0000
0000
0000
0000
,
0100
0000
0000
0100
0000
1000
0001
0000
0000
0001
0000
1000
0100
0000
0000
0100
0000
0000
1000
0000
0000
0001
0000
0000
,
1000
0000
0000
1000
0000
0001
0010
0000
0000
0010
0000
0001
1000
0000
0000
1000
0000
0000
0001
0000
0000
0000
0000
0000
,
0100
0000
0000
0001
0000
1000
0010
0000
0000
1000
0000
0001
0010
0000
0000
0100
0000
1000
0001
0000
0000
0001
0000
0000
,
0100
0000
0000
0010
0000
1000
0001
0000
0000
0010
0000
0001
1000
0000
0000
1000
0000
0100
0010
0000
0000
0010
0000
0000
,
0100
0000
0000
1000
0000
0001
0100
0000
0000
0001
0000
1000
0100
0000
0000
0010
0000
0001
1000
0000
0000
1000
0000
0000
,
0100
0000
0000
1000
0000
0001
0100
0000
0000
0001
0000
1000
0100
0000
0000
0100
0000
0010
0001
0000
0000
0001
0000
0000
,
1000
0000
0000
0000
0000
0000
0010
0000
0000
0000
0000
0000
1000
0000
0000
0000
0000
0000
1000
0000
0000
0000
0001
0000
0010
0000
0000
0000
0000
0000
0001
0000
0000
1000
0000
0000
0001
0000
0000
0000
0100
0000
0010
0000
0000
0000
0000
0000
,
1000
0000
0000
0000
0000
0000
0001
0000
0000
0000
0000
0000
0100
0000
0000
0000
0000
0000
0100
0000
0000
0000
0001
0000
1000
0000
0000
0000
0000
0000
0100
0000
0000
0000
1000
0000
0001
0000
0000
0000
0000
0000
0010
0000
0000
0100
0000
0000
,
0010
0000
0000
0000
0000
0000
0010
0000
0000
0000
0000
0000
0001
0000
0000
0000
0000
0000
0001
0000
0000
0000
1000
0000
0100
0000
0000
0000
0000
0000
1000
0000
0000
0001
0000
0000
1000
0000
0000
0000
0010
0000
1000
0000
0000
0000
0000
0000
,
0001
0000
0000
0100
0000
0000
0010
0000
0000
0010
0000
1000
0001
0000
0000
1000
0000
0100
1000
0000
0000
1000
0000
0000
,
0001
0000
0100
0000
0010
0000
1000
1000
,
0001
0000
0010
0000
0100
0000
1000
1000
,
0001
0000
0100
0000
0010
0000
1000
1000
,
0100
0000
0000
0000
0000
0000
0010
0000
0000
0000
0000
0001
0000
0000
0000
0000
0000
0000
0000
0000
0000
0000
0000
0000
,
1000
0000
0000
0001
0000
0000
0100
0000
0000
0001
0000
0000
1000
0000
0000
0100
0000
0010
0001
0000
0000
0001
0000
0000
,
1000
0000
0000
0010
0000
0000
1000
0000
0000
0000
0000
0001
1000
0000
0000
0100
0000
0000
0010
0000
0000
0000
0000
0000
,
0001
0000
0000
1000
0000
0000
0100
0000
0000
1000
0000
0000
0001
0000
0000
0100
0000
0010
1000
0000
0000
1000
0000
0000
,
0001
0000
0000
0010
0000
0000
0001
0000
0000
0000
0000
1000
0001
0000
0000
0100
0000
0000
0010
0000
0000
0000
0000
0000
,
1000
0000
0000
0001
0000
0000
0010
0000
0000
0100
0000
0000
1000
0000
0000
0001
0000
1000
0100
0000
0000
0010
0000
0000
,
0100
0000
0000
0100
0000
0000
1000
0000
0000
0000
0000
0001
1000
0000
0000
0001
0000
0000
0010
0000
0000
0000
0000
0000
,
0100
0000
0000
0100
0000
1000
0001
0000
0000
0001
0000
1000
0100
0000
0000
0100
0000
0000
1000
0000
0000
0001
0000
0000
,
1000
0000
0000
1000
0000
0001
0010
0000
0000
0010
0000
0001
1000
0000
0000
1000
0000
0000
0001
0000
0000
0000
0000
0000
,
0100
0000
0000
0001
0000
1000
0010
0000
0000
1000
0000
0001
0010
0000
0000
0100
0000
1000
0001
0000
0000
0001
0000
0000
,
0100
0000
0000
0010
0000
1000
0001
0000
0000
1000
0000
0010
0100
0000
0000
0001
0000
0100
0010
0000
0000
0010
0000
0000
,
1000
0000
0000
0001
0000
0100
0010
0000
0000
1000
0000
0010
0100
0000
0000
0001
0000
1000
0001
0000
0000
1000
0000
0000
,
0100
0000
0000
0010
0000
0100
1000
0000
0000
0100
0000
0010
0001
0000
0000
1000
0000
0010
1000
0000
0000
1000
0000
0000
,
0100
0000
0000
1000
0000
0001
0010
0000
0000
0001
0000
1000
0010
0000
0000
0100
0000
0001
1000
0000
0000
1000
0000
0000
,
0100
0000
0000
0010
0000
0001
1000
0000
0000
0001
0000
0010
0100
0000
0000
1000
0000
0100
0010
0000
0000
0010
0000
0000
,
0001
0000
0000
1000
0000
0100
0010
0000
0000
0001
0000
0010
0100
0000
0000
1000
0000
0001
1000
0000
0000
0001
0000
0000
,
0100
0000
0000
0010
0000
0100
0001
0000
0000
0100
0000
0010
1000
0000
0000
0001
0000
0010
0001
0000
0000
0001
0000
0000
,
1000
0000
0000
0000
0000
0001
0000
0000
0000
1000
0000
0000
0000
0000
0010
0000
0000
0000
1000
0000
0000
0000
0000
0001
,
0000
0000
0000
1000
0000
0000
0000
0000
0100
0000
0000
0000
0010
0000
0000
0001
0000
0000
1000
0000
0000
0001
0000
0000
,
0100
0000
0000
0000
0000
0010
0000
0000
0000
0100
0000
0000
0000
0000
1000
0000
0000
0000
0100
0000
0000
0000
0000
0010
,
0000
0000
0000
0100
0000
0000
0000
0000
0001
0000
0000
0000
1000
0000
0000
0010
0000
0000
0100
0000
0000
0001
0000
0000
,
0020
0000
0000
0000
,
0000
0000
0000
0000
,
0000
0000
0000
0000
,
0030
0000
0000
0000
;

//--------------- dance-single - Pruz ----------------
#NOTEDATA:;
#STEPSTYPE:dance-single;
#DESCRIPTION:Pruz;
#DIFFICULTY:Challenge;
#METER:13;
#RADARVALUES:0.499473,0.505621,0.006951,0.006951,0.656861,503,502,1,1,5,0,0,0,0,0.499473,0.505621,0.006951,0.006951,0.656861,503,502,1,1,5,0,0,0,0;
#CHARTNAME:Pruz;
#CHARTSTYLE:;
#CREDIT:Pruz;
#NOTES:
0000
0000
0000
0000
,
0000
0000
0000
0000
,
1000
0000
0000
1000
0000
1000
0100
0000
0100
0010
0000
0010
0001
0000
0000
1000
0000
0001
0010
0000
0000
0010
0000
0000
,
0001
0000
0000
0001
0000
0001
0100
0000
0100
0010
0000
0010
1000
0000
0000
0001
0000
1000
0010
0000
0000
0010
0000
0000
,
1000
0000
0000
0001
0000
0001
0100
0000
0100
0001
0000
0001
1000
0000
0000
0100
0000
0010
0001
0000
0000
1000
0000
0000
,
0001
0000
0000
1000
0000
1000
0100
0000
0100
1000
0000
1000
0001
0000
0000
0100
0000
0010
1000
0000
0000
0001
0000
1000
,
0100
0000
0000
1000
0000
0000
0001
0000
0000
0010
0000
0000
0001
0000
1000
0000
0000
1000
0100
0000
0000
0100
0000
1000
,
0001
0000
0000
1000
0000
0000
0100
0000
0000
0000
0000
0100
1000
0000
0000
0001
0000
0010
0001
0000
0000
1000
0000
0001
,
0010
0000
0000
0001
0000
0000
1000
0000
0000
0010
0000
0000
1000
0000
0001
0000
0000
0001
0100
0000
0000
0100
0000
0001
,
1000
0000
0000
0001
0000
0000
0010
0000
0000
0000
0000
0010
0001
0000
0000
1000
0000
0100
1000
0000
0000
0001
0000
1000
,
0001
0000
0000
1000
0000
0000
0010
0000
0000
1000
0000
0000
0001
0000
0000
0100
0000
0001
1000
0000
0000
0001
0000
0010
,
0001
0000
0000
0001
0000
0000
1000
0000
0000
0000
0000
1000
0100
0000
0000
0100
0000
0010
0001
0000
0000
0001
0000
1000
,
0001
0000
0000
0100
0000
0100
0010
0000
0000
1000
0000
1000
0001
0000
0000
0010
0000
0000
0100
0000
0000
1000
0000
0001
,
1000
0000
0000
0100
0000
0100
0010
0000
0000
0001
0000
0001
1000
0000
0000
0010
0000
0000
0100
0000
0000
0001
0000
1000
,
0001
0000
1000
0000
0000
0001
1000
0000
0000
0001
0000
1000
0100
0000
0010
0001
0000
1000
0010
0000
0000
0010
0000
0000
,
1000
0000
0001
0000
0000
1000
0001
0000
0000
1000
0000
0001
0100
0000
0010
1000
0000
0001
0010
0000
0000
0010
0000
0000
,
0001
0000
1000
0000
0000
0001
1000
0000
0000
0001
0000
1000
0100
0000
0010
0001
0000
1000
0010
0000
0000
0010
0000
0000
,
1000
0000
0001
0000
0000
1000
0001
0000
0000
1000
0000
0001
0100
0000
0010
1000
0000
0001
0010
0000
0000
0010
0000
0000
,
0001
0000
0000
1000
0000
0100
1000
0000
0000
0001
0000
0010
0100
0000
0000
1000
0000
0001
0010
0000
0001
0000
0000
1000
,
0001
0000
0000
0100
0000
0010
1000
0000
0000
1000
0000
0001
0010
0000
0000
0010
0000
0001
1000
0001
1000
0001
1000
0001
,
0100
0000
0000
0001
0000
1000
0001
0000
0000
0010
0000
0001
1000
0000
0000
0001
0000
1000
0010
0000
1000
0000
0000
0001
,
1000
0000
0000
0100
0000
1000
0001
0000
0000
0010
0000
0001
1000
0000
0001
0000
0000
0100
0001
0000
1000
0000
0000
0001
,
0100
0000
0000
0100
0000
0010
1000
0000
0001
1000
0000
0001
0010
0000
0000
0100
0000
0010
1000
0000
0000
1000
0000
0000
,
0010
0000
0000
0100
0000
0010
0001
0000
1000
0001
0000
1000
0100
0000
0000
0100
0000
0010
1000
0000
0000
1000
0000
0000
,
0010
0000
0000
0001
0000
1000
0010
0000
1000
0001
0000
0100
0010
0000
0000
1000
0000
0100
0001
0000
0000
0001
0000
0000
,
0100
0000
0000
0010
0000
0100
1000
0000
0100
0010
0000
0001
0000
0000
0000
0000
0000
0000
0000
0000
0000
0000
0000
1000
,
0100
0000
0000
1000
0000
0000
0001
0000
0000
0010
0000
0000
0001
0000
1000
0000
0000
1000
0010
0000
0000
0010
0000
1000
,
0001
0000
0000
1000
0000
0000
0100
0000
0000
0100
0000
1000
0001
0000
0000
0100
0000
0001
1000
0000
0000
1000
0000
0001
,
0010
0000
0000
0001
0000
0000
1000
0000
0000
0010
0000
0000
1000
0000
0001
0000
0000
0001
0100
0000
0000
0100
0000
0001
,
1000
0000
0000
0001
0000
0000
0010
0000
0000
0000
0000
0010
0001
0000
0000
1000
0000
0100
1000
0000
0000
0001
0000
1000
,
0001
0000
0000
0100
0000
0000
0010
0000
0000
1000
0000
0000
0001
0000
0000
0010
0000
0001
1000
0000
0000
0001
0000
0100
,
0010
0000
0000
0010
0000
0000
1000
0000
0000
0000
0000
1000
0100
0000
0000
0100
0000
0010
0001
0000
0000
0001
0000
1000
,
0001
0000
0000
0100
0000
0100
0010
0000
0000
1000
0000
1000
0001
0000
0000
0010
0000
0000
0100
0000
0000
1000
0000
0001
,
1000
0000
0000
0100
0000
0100
0010
0000
0000
0001
0000
0001
1000
0000
0000
0010
0000
1000
0001
0000
0000
1000
0000
0001
,
1000
0000
0001
0000
0000
1000
0001
0000
0000
1000
0000
0001
0100
0000
0010
1000
0000
0001
0010
0000
0000
0010
0000
0000
,
0001
0000
1000
0000
0000
0001
1000
0000
0000
0001
0000
1000
0100
0000
0010
0001
0000
1000
0010
0000
0000
0010
0000
0000
,
1000
0000
0001
0000
0000
1000
0001
0000
0000
1000
0000
0001
0100
0000
0010
1000
0000
0001
0010
0000
0000
0010
0000
0000
,
0001
0000
1000
0000
0000
0001
1000
0000
0000
0001
0000
1000
0100
0000
0010
0001
0000
1000
0010
0000
0000
0010
0000
1000
,
0001
0000
1000
0000
0000
0001
1000
0000
0000
0001
0000
1000
0100
0000
0010
0001
0000
1000
0010
0000
0000
0010
0000
0000
,
1000
0000
0001
0000
0000
1000
0001
0000
0000
1000
0000
0001
0100
0000
0010
1000
0000
0001
0010
0000
0000
0010
0000
0000
,
0001
0000
1000
0000
0000
0001
1000
0000
0000
0001
0000
1000
0100
0000
0010
0001
0000
1000
0010
0000
0000
0010
0000
0000
,
1000
0000
0001
0000
0000
1000
0001
0000
0000
1000
0000
0001
0100
0000
0010
1000
0000
0001
0010
0000
0000
0010
0000
0000
,
0001
0000
1000
0000
0000
0001
0010
0000
0000
0001
0000
1000
0000
0000
0001
0100
0000
0000
0001
0000
1000
0000
0000
0001
,
0010
0000
0000
0001
0000
1000
0000
0000
0001
0100
0000
0100
0010
0000
0010
1000
0000
1000
0001
0000
0000
0001
0000
0000
,
1000
0000
0001
0000
0000
1000
0010
0000
0000
1000
0000
0001
0000
0000
1000
0100
0000
0000
1000
0000
0001
0000
0000
1000
,
0010
0000
0000
1000
0000
0001
0000
0000
1000
0100
0000
0100
0010
0000
0010
0001
0000
0001
1000
0000
0000
1000
0000
0000
,
0120
0000
0000
0000
,
0000
0000
0000
0000
,
0000
0000
0000
0000
,
0030
0000
0000
0000
;
