#TITLE:MONTERO;
#SUBTITLE:(Call Me By Your Name);
#ARTIST:Lil Nas X;
#TITLETRANSLIT:;
#SUBTITLETRANSLIT:;
#ARTISTTRANSLIT:;
#GENRE:Hip Hop;
#CREDIT:;
#MUSIC:MONTERO (Call Me By Your Name).ogg;
#BANNER:MONTERO (Call Me By Your Name).png;
#BACKGROUND:MONTERO (Call Me By Your Name)-bg.png;
#CDTITLE:;
#SAMPLESTART:78.786;
#SAMPLELENGTH:12.350;
#SELECTABLE:YES;
#OFFSET:-1.406;
#BPMS:0.000=89.477;
#STOPS:;
#ORIGIN:;
#TAGS:;
#PREVIEWVID:;
#JACKET:MONTERO (Call Me By Your Name)-jacket.png;
#CDIMAGE:;
#DISCIMAGE:;
#BGCHANGES:0.000=MONTERO (Call Me By Your Name).avi=1.000=1=0=1===CrossFade==,
99999.000=-nosongbg-=1.000=0=0=0=StretchNoLoop====
;
#FGCHANGES:;

//--------------- dance-single - Pruz ----------------
#NOTES:
     dance-single:
     Pruz:
     Beginner:
     1:
     0.064278,0.125231,0,0.220186,0.01436,47,47,0,23,0,0,0,0,0,0.064278,0.125231,0,0.220186,0.01436,47,47,0,23,0,0,0,0,0:
0000
0000
0000
0000
,
0000
0000
0000
0000
,
0000
0000
0000
0000
,
0000
0000
0000
0000
,
0000
0000
0000
0000
,
0000
0000
0000
0000
0000
0010
0010
0010
,
1000
0000
0001
0000
,
1000
0000
0100
0000
,
1000
0000
0001
0000
,
0100
0000
0010
0000
,
2000
0000
3002
0000
,
0023
0000
0230
0000
,
2300
0000
3002
0000
,
2003
0000
3000
0000
,
0010
0000
0001
0000
,
0001
0000
0010
0000
,
0100
0000
1000
0000
,
1000
0000
0100
0000
,
0002
0000
0003
0000
,
0020
0000
0030
0000
,
0200
0000
0300
0000
,
2000
0000
3000
0000
,
0001
0000
0000
0000
,
0100
0000
0000
0000
,
1000
0000
0000
0000
,
0100
0000
0002
0000
,
0003
0000
2000
0000
,
3000
0000
0002
0000
,
0003
0000
2000
0000
,
3000
0000
0002
0000
,
0003
0000
0200
0000
,
0300
0000
0020
0000
,
0030
0000
2000
0000
,
3000
0000
0000
0000
0000
0000
0000
0000
0002
0000
0000
0003
0000
0000
0000
0000
,
0000
0000
0000
0000
0000
0000
0000
0000
2000
0000
0000
3000
0000
0000
0000
0000
,
0000
0000
0002
0000
,
0000
0000
0000
0003
2000
0000
0000
0000
,
0000
0000
0000
3000
0000
0000
0010
0000
0000
0000
0000
0000
0000
0000
0000
0000
;

//--------------- dance-single - Pruz ----------------
#NOTES:
     dance-single:
     Pruz:
     Easy:
     4:
     0.139497,0.180696,0.038293,0.344639,0.076587,102,98,4,36,0,0,0,0,0,0.139497,0.180696,0.038293,0.344639,0.076587,102,98,4,36,0,0,0,0,0:
0000
0000
0000
0000
,
0000
0000
0000
0000
,
0000
0000
0000
0000
,
0000
0000
0000
0000
,
0000
0000
0000
0000
,
0000
0000
0000
0000
0000
0010
0010
0010
,
1000
0001
1000
0000
,
0100
0001
0100
0000
,
1000
0001
1000
0000
,
0010
0100
0001
1000
,
0200
0300
0020
0030
,
0200
0300
2000
3000
,
0002
0003
0200
0300
,
0002
0000
0003
0000
,
2001
0000
0000
3000
0001
0000
0000
0000
,
0102
0000
0103
0000
,
0210
0000
0000
0300
0010
0000
0000
0000
,
2010
0000
3000
0000
,
0200
0000
0000
0320
0000
0000
0032
0000
0000
0023
0000
0000
0230
0000
0300
0000
,
1000
0001
1000
0010
,
0200
0000
0000
0320
0000
0000
2030
0000
0000
3020
0000
0000
0230
0000
0300
0000
,
0001
1000
0001
0100
,
0010
0000
1000
0000
,
0001
0000
0010
0000
,
0100
0000
1000
0000
,
0010
0000
0000
0000
0000
0000
0000
0000
0100
0000
0000
0001
0000
0000
0100
0000
,
0010
0000
0000
0000
0000
0000
0000
0000
1000
0000
0000
0001
0000
0000
1000
0000
,
0100
0000
0000
0000
0000
0000
0000
0000
0010
0000
0000
0001
0000
0000
0010
0000
,
0100
0000
0000
0000
0000
0000
0000
0000
1000
0000
0000
0001
0000
0000
1000
0000
,
0100
0000
0000
0000
0000
0000
0000
0000
0020
0000
0000
0230
0000
0000
2300
0000
,
0000
3200
0000
0000
0320
0000
0030
0000
0001
0000
0000
0000
1000
0000
0000
0000
,
0001
0000
0000
0000
0100
0000
0000
0000
0020
0000
0000
0230
0000
0000
0302
0000
,
0000
0203
0000
0000
0320
0000
0030
0000
1000
0000
0000
0000
0001
0000
0000
0000
,
1000
0000
0000
0000
0010
0000
0000
0000
0200
0000
0000
0300
0000
0000
0000
0000
,
0002
0000
0000
0003
0000
0000
0000
0000
2000
0000
0000
3000
0000
0000
0000
0000
,
0020
0000
0000
0030
0000
0000
0000
0000
0100
0000
0000
0000
0000
0000
0000
0000
,
0001
0000
1000
0000
,
0001
0000
0000
0020
0000
0000
0030
0000
;

//--------------- dance-single - Pruz ----------------
#NOTES:
     dance-single:
     Pruz:
     Medium:
     7:
     0.272156,0.289114,0.009573,0.325493,0.282413,199,198,1,34,0,0,0,0,0,0.272156,0.289114,0.009573,0.325493,0.282413,199,198,1,34,0,0,0,0,0:
0000
0000
0000
0000
,
0000
0000
0000
0000
,
0000
0000
0000
0000
,
0000
0000
0000
0000
,
0000
0000
0000
0000
,
0000
0000
0000
0000
0000
0010
0010
0010
,
1000
0000
0000
0001
0000
0000
1000
0000
0001
0000
0000
0001
0000
0000
1000
0000
,
0001
0000
0000
0010
0000
0000
0010
0000
0001
0000
0000
1000
0000
0000
1000
0000
,
0001
0000
0000
0100
0000
0000
0100
0000
0001
0000
0000
1000
0000
0000
1000
0000
,
0100
0000
0000
0001
0000
0000
0001
0000
0100
0000
0000
1000
0000
0000
1000
0000
,
0002
0103
0020
1030
,
0002
0000
1003
1000
0200
0000
0310
0000
,
0002
1003
0002
0103
,
0002
0000
1003
1000
0100
0000
0001
0000
,
0100
0000
0010
0100
0000
0000
1000
0000
0001
0000
0100
0010
0000
0000
1000
0000
,
0100
0000
0000
0001
0000
0000
0100
0000
0010
0000
0000
0001
0000
0000
0100
0010
,
1000
0000
0000
0001
0000
0000
0001
0000
1000
0000
0000
0100
0000
0000
0100
0000
,
1000
0000
0000
0001
0000
0000
0001
0000
1000
0000
0000
0000
0010
0000
0010
0000
,
0002
0000
0013
0100
0000
0000
1000
0000
0000
0100
0000
0010
0001
0000
0001
0000
,
0200
0000
0300
1000
0000
0000
0001
0000
0010
0000
0000
0100
0000
0000
0001
0000
,
2000
0000
3100
0010
0000
0000
0001
0000
0000
0010
0000
0100
1000
0000
1000
0000
,
0020
0000
0030
0001
0000
0000
1000
0000
0100
0000
0000
0010
0000
0000
1000
0000
,
0002
0000
0000
0010
0000
0000
1000
0000
0203
0000
0000
1000
0000
0000
0010
0000
,
0302
0000
0000
0010
0000
0000
1000
0000
0203
0000
0000
1000
0000
1000
1000
0000
,
0320
0000
0000
0001
0000
0000
0100
0000
2030
0000
0000
0100
0000
0000
0001
0000
,
3020
0000
0000
0001
0000
0000
0130
0000
1002
0000
0000
1003
0000
0000
0100
0000
,
0020
0000
0030
0001
0000
0000
1000
0000
0002
0000
0000
0103
0000
0000
0010
0000
,
2000
0000
0000
3001
0000
0000
1000
0000
0200
0000
0000
0310
0000
0000
0001
0000
,
2000
0000
3000
0001
0000
0000
1000
0000
0020
0000
0000
0130
0000
0000
0001
0000
,
2000
0000
0000
0000
3010
0000
0010
0000
2000
0000
3010
0100
0000
0000
0001
0000
,
0000
0100
0000
0010
1000
0000
1000
0000
0200
0000
0000
0301
0000
0000
1000
0000
,
0010
0000
0000
0100
0000
0000
1000
0000
0002
0000
0103
0010
0000
0000
1000
0000
,
0000
0010
0000
0100
0001
0000
0001
0000
0020
0000
0000
1030
0000
0000
0001
0000
,
0100
0000
0000
0010
0000
0000
0001
0000
2000
0000
0000
3100
0000
0000
0010
0000
,
0001
0000
0000
0010
0000
0000
0100
0000
2000
0000
0000
3001
0000
0000
1000
0000
,
0100
0000
0000
1000
0000
0000
0001
0000
2000
0000
0000
3010
0000
0000
0100
0000
,
0001
0000
0000
0100
0000
0000
0010
0000
1000
0000
0000
0001
0000
0000
1000
0000
,
0100
0000
0000
1000
0000
0000
0020
0000
0000
0000
0000
0000
0030
0000
0000
0000
;

//--------------- dance-single - Pruz ----------------
#NOTES:
     dance-single:
     Pruz:
     Hard:
     11:
     0.404815,0.415602,0.1436,0.239333,0.507386,296,281,15,25,0,0,0,0,0,0.404815,0.415602,0.1436,0.239333,0.507386,296,281,15,25,0,0,0,0,0:
0000
0000
0000
0000
,
0000
0000
0000
0000
,
0000
0000
0000
0000
,
0000
0000
0000
0000
,
0000
0000
0000
0000
,
0000
0000
0000
0000
0000
0010
0010
0010
,
1000
0001
0000
0001
1000
0000
0001
1000
0001
0000
1000
0001
0000
1000
0001
0000
,
1000
0000
0010
1000
0000
1000
0010
0000
1000
0000
0001
1000
0000
0001
1000
0000
,
0001
0010
0000
0010
0001
0000
0010
0001
0010
0000
0100
0010
0000
0010
0100
0000
,
1000
0000
0001
1000
0000
0001
1000
0000
0010
0000
0100
0010
0000
0100
0010
0000
,
2000
0000
3100
0000
0001
0000
0000
0000
0100
0010
0001
0010
0100
0000
0000
0000
,
1000
0100
0010
0001
1000
0000
1000
0000
0010
0100
1000
0100
0010
0000
0000
0000
,
2000
0000
3001
0000
0010
0000
0000
0000
0001
0100
0010
1000
0001
0000
0000
1000
,
0100
0001
0100
1000
0001
0000
0001
0000
0100
0010
0001
0010
0100
0000
0000
0000
,
0002
0000
0003
0101
0000
0000
0001
0000
0002
0000
0003
0011
0000
0000
1000
0000
,
2000
0000
3000
1100
0000
0000
1000
0000
1000
0000
0000
1010
0000
1000
0001
0000
,
2000
0000
3000
1100
0000
0000
1000
0000
2000
0000
3000
1010
0000
0000
0001
0000
,
0002
0000
0003
0101
0000
0000
0001
0000
0001
0100
0010
1000
0002
0000
0100
0000
,
1003
0000
0010
0100
0000
0001
1000
0000
0100
0000
0010
0001
0000
0000
1000
0000
,
0002
0000
0003
0101
0000
0000
0001
0000
0001
0000
0100
0010
2000
0000
0100
0000
,
3001
0000
0010
0100
0000
1000
0100
0000
0010
0000
0001
1000
0000
0000
0001
0000
,
0002
0000
0003
0011
0000
0000
0001
0000
0001
0000
0100
0010
1000
0001
1000
0000
,
1001
0000
0000
1000
0000
0100
0001
0000
0100
0000
0000
1000
0000
0001
1000
0000
,
0010
0000
0000
0100
0000
0001
0100
0000
0010
0000
0000
1000
0000
0010
0100
0000
,
0001
0000
0000
1000
0000
0100
0001
0000
0100
0000
0000
1000
0000
0001
1000
0000
,
0010
0000
0000
0100
0000
0001
0100
0000
0010
0000
0000
1000
0000
0001
0100
0000
,
0020
0000
1030
0001
0000
1000
0001
0000
0100
0000
0000
0110
0000
0000
0100
0000
,
0001
1000
0001
0100
0000
0000
0001
0000
0010
0000
0000
0001
0000
1000
0100
0000
,
0020
0000
0031
1000
0000
0001
1000
0000
0100
0000
0000
0110
0000
0000
0100
0000
,
1000
0100
0010
0001
2000
0000
0100
0000
3001
0000
0010
0100
0000
1000
0001
0000
,
0100
0000
0010
1000
0000
0000
0001
0000
2000
0000
3000
1100
0000
0000
1000
0000
,
1000
0000
0100
0010
0002
0000
0100
0000
1003
0000
0010
0100
0000
0001
0100
0000
,
0010
0000
1000
0001
0000
0000
1000
0000
2000
0000
3000
1010
0000
0000
1000
0000
,
1000
0000
0100
0010
0001
1000
0001
0000
2001
0000
3001
0010
0000
0001
1000
0000
,
0010
0000
1000
0100
0000
0010
0001
0000
2000
0000
3010
1000
0000
0100
0010
0000
,
0001
0000
1000
0010
0000
0100
0001
0000
2000
0000
3000
0100
0000
0010
0001
0000
,
0020
0000
0130
1000
0000
0001
1000
0000
0020
0000
0030
0100
0000
0001
1000
0000
,
0200
0000
0300
1000
0000
0000
0020
0000
0000
0000
0000
0000
0030
0000
0000
0000
;

//--------------- dance-single - Pruz ----------------
#NOTES:
     dance-single:
     Pruz:
     Challenge:
     12:
     0.488239,0.50595,0.421226,0.459519,0.588759,357,313,44,48,0,0,0,0,0,0.488239,0.50595,0.421226,0.459519,0.588759,357,313,44,48,0,0,0,0,0:
0000
0000
0000
0000
,
0000
0000
0000
0000
,
0000
0000
0000
0000
,
0000
0000
0000
0000
,
0000
0000
0000
0000
,
0000
0000
0000
0000
0000
0010
0010
0010
,
1000
0001
0000
0001
1000
1000
0001
1000
0001
0001
1000
1000
0000
1000
0010
0000
,
0010
0100
0000
0100
0010
0010
0100
0010
1000
1000
0001
1000
0000
0100
1000
0000
,
0001
1000
0000
1000
0001
0001
1000
0001
1000
1000
0001
0001
0000
0001
0010
0000
,
0010
0100
0000
0100
0010
0010
0100
0010
0001
0001
1000
0001
0000
0100
0001
0000
,
2000
0000
0010
0000
3001
0000
0000
0000
0010
0001
0010
0100
1000
0000
0000
0000
,
0001
0100
0010
1000
0001
0000
0001
0000
1000
0010
0100
0001
1000
0000
0000
0000
,
0100
0010
0001
1000
0001
0000
0100
0000
0010
0100
0001
1000
0010
0000
0000
1000
,
0001
0010
0100
1000
0001
0000
1000
0000
0010
0100
1000
0100
0010
0000
0000
0000
,
2002
0000
3003
0110
0000
0000
1001
0000
2002
0000
3003
0110
0000
0000
1001
0000
,
0220
0000
0330
1001
0000
0000
0110
0000
0220
0000
0330
1001
0000
0001
0010
0100
,
2000
0000
3000
0011
0000
0000
1100
0000
2200
0000
3300
0011
0000
0000
1100
0000
,
2020
0000
3030
0101
0000
0000
1010
0000
1000
0010
0100
0001
2000
0000
0100
0000
,
3001
0000
0010
0100
0000
1000
0100
0000
0010
0000
0001
1000
0000
0000
0001
0000
,
0202
0000
0303
1010
0000
0000
0101
0000
0001
0000
0100
0010
2000
0000
0100
0000
,
3001
0000
0010
0100
0000
1000
0100
0000
0010
0000
0001
1000
0000
0000
0001
0000
,
0022
0000
0033
1100
0000
0000
0011
0000
0001
0000
0100
0010
0001
0010
0100
0000
,
1001
0000
1000
0010
0000
0100
0001
0000
1000
0000
0001
0100
0000
0010
1000
0000
,
0100
0000
0010
0001
0000
0010
0100
0000
1000
0000
0010
0100
0000
0001
0100
0000
,
0010
0000
1000
0010
0000
0100
0001
0000
0100
0000
0010
1000
0000
0010
0100
0000
,
0001
0000
1000
0100
0010
0001
1000
0000
0110
0000
0000
1001
0000
0000
0110
0000
,
0200
0000
1300
0001
0000
0010
0100
0000
0110
0000
0000
1001
0000
0000
0110
0000
,
0100
1000
0100
0010
0001
0000
1000
0001
0100
0000
0000
1010
0000
0000
0101
0000
,
0002
0000
1003
0010
0000
0100
0001
0000
0011
0000
0000
1100
0000
0000
0011
0000
,
0001
1000
0100
1000
0002
0000
0100
0000
1003
0000
0010
0100
0000
0001
0100
0000
,
0010
0000
1000
0001
0000
0000
1000
0000
2200
0000
3300
0011
0000
0000
1100
0000
,
1000
0000
0100
0010
0002
0000
0100
0000
1003
0000
0010
0100
0000
0001
0100
0000
,
0010
0000
1000
0001
0000
0000
1000
0000
2020
0000
3030
0101
0000
0000
1010
0000
,
1000
0000
0100
0010
1000
0010
0100
0000
1001
0000
0001
0010
0000
0001
1000
0000
,
0010
0000
1000
0100
0000
0010
0001
0000
1000
0200
0320
0032
0203
0320
2030
3002
,
0023
0230
2300
3200
0320
0032
0203
0320
2030
0000
3001
0010
0000
0001
1000
0000
,
0200
0000
1300
0001
0000
0010
0100
0000
2000
0000
3001
0010
0000
0001
1000
0000
,
0200
0000
1300
0001
0000
1000
0020
0000
0000
0000
0000
0000
0030
0000
0000
0000
;
