#VERSION:0.83;
#TITLE:Lucifer;
#SUBTITLE:;
#ARTIST:MD10 a.k.a. F Rabbeat;
#TITLETRANSLIT:;
#SUBTITLETRANSLIT:;
#ARTISTTRANSLIT:;
#GENRE:Future Bass;
#CREDIT:;
#MUSIC:Lucifer.ogg;
#BANNER:Lucifer.png;
#BACKGROUND:Lucifer-bg.png;
#CDTITLE:;
#SAMPLESTART:40.141;
#SAMPLELENGTH:12.000;
#SELECTABLE:YES;
#OFFSET:-0.141;
#BPMS:0.000=150.000;
#STOPS:327.750=0.400
,342.750=0.400
;
#SPEEDS:0.000=1.000=0.000=0;
#SCROLLS:0.000=1.000;
#TICKCOUNTS:0.000=4;
#TIMESIGNATURES:0.000=4=4;
#LABELS:0.000=Song Start;
#COMBOS:0.000=1;
#ORIGIN:;
#PREVIEWVID:;
#JACKET:Lucifer-jacket.png;
#CDIMAGE:;
#DISCIMAGE:;
#BGCHANGES:0.000=Lucifer.avi=1.000=0=0=0=StretchNoLoop====,
99999.000=-nosongbg-=1.000=0=0=0=StretchNoLoop====
;
#FGCHANGES:;

//--------------- dance-single - Pruz ----------------
#NOTEDATA:;
#STEPSTYPE:dance-single;
#DESCRIPTION:Pruz;
#DIFFICULTY:Beginner;
#METER:3;
#RADARVALUES:0.145293,0.180847,0.026942,0.087561,0,151,147,4,13,0,0,0,0,0,0.145293,0.180847,0.026942,0.087561,0,151,147,4,13,0,0,0,0,0;
#CHARTNAME:;
#CHARTSTYLE:;
#CREDIT:Pruz;
#NOTES:
0000
0000
0000
0000
,
0000
0000
0000
0000
,
1001
0000
0001
0000
,
0010
0010
0000
0000
,
0001
0000
0000
0000
,
0100
0000
0000
0000
,
0001
0000
0010
0000
,
0001
0001
0000
0000
,
0100
0000
0000
0000
,
0020
0000
0030
0000
,
1001
0000
0001
0000
,
0010
0000
0010
0000
,
0100
0000
0100
0000
,
1000
0000
0001
0000
,
1000
0000
1000
0000
,
0010
0000
0010
0000
,
0100
0000
0100
0000
,
0001
0000
0001
1000
,
0001
0000
0001
0000
,
1000
0000
1000
0000
,
0010
0000
0010
0000
,
0100
0000
0100
0000
,
0002
0000
0000
0000
,
2003
0000
0000
0000
,
3002
0000
0000
0000
,
0103
0000
0000
0001
,
2000
0000
3000
0000
,
0001
0000
0001
0000
,
2000
0000
3000
0000
,
0010
0000
0010
0000
,
2000
0000
3000
0000
,
0001
0000
0001
0000
,
2000
0000
3000
0000
,
0100
0000
0100
0000
,
1000
0001
0000
0001
,
0000
0001
0000
0010
,
0100
1000
0000
1000
,
0000
1000
0000
1000
,
0100
0010
0000
0010
,
0000
0010
0000
0010
,
0001
0100
0000
0100
,
0002
0000
0000
0003
,
1001
0000
0000
0000
,
1000
0000
0000
0000
,
0001
0000
0000
0000
,
0001
0000
0000
0000
,
0100
0000
0000
0000
,
0001
0000
0000
0000
,
1000
0000
0000
0000
,
1000
0000
0000
0000
,
0001
0000
0010
0000
,
0002
0000
0000
0003
,
1000
0000
0000
0000
,
2000
0000
3000
0000
,
0001
0000
0010
0000
,
0002
0000
0000
0003
,
1000
0000
0000
0000
,
0002
0000
0003
0000
,
1000
0000
0010
0000
,
0000
0000
0000
0000
,
0001
0000
0010
0000
,
0000
0000
0000
0000
,
1000
0000
1000
0000
,
1000
0000
1000
0000
,
2000
0000
0000
0000
,
3001
0000
0000
0000
,
1001
0000
0001
0000
,
0100
0000
0100
0000
,
0010
0000
0010
0000
,
0001
0000
0001
0000
,
1000
0000
1000
0000
,
0100
0000
0100
0000
,
0010
0000
0010
0000
,
1000
0000
1000
0000
,
0001
0000
0001
0000
,
0010
0000
0010
1000
,
0010
0000
0010
0000
,
0100
0000
0100
0000
,
1000
0000
1000
0000
,
0010
0000
0010
0001
,
0010
0000
0010
0000
,
0100
0000
0000
0000
0200
0000
0000
0300
,
0000
0001
0000
0010
,
0000
0010
0000
1000
,
0000
1000
0000
0010
,
0000
0000
0200
0000
0000
0300
0000
0000
,
0001
0000
0010
0000
,
0010
0000
1000
0000
,
1000
0000
0010
0000
,
0200
0000
0301
0000
;

//--------------- dance-single - Pruz ----------------
#NOTEDATA:;
#STEPSTYPE:dance-single;
#DESCRIPTION:Pruz;
#DIFFICULTY:Easy;
#METER:6;
#RADARVALUES:0.334848,0.482259,0.262683,0.040413,0,348,309,39,6,0,0,0,0,0,0.334848,0.482259,0.262683,0.040413,0,348,309,39,6,0,0,0,0,0;
#CHARTNAME:;
#CHARTSTYLE:;
#CREDIT:Pruz;
#NOTES:
0000
0000
0000
0000
,
0000
0000
0000
0000
,
1000
0000
0010
0000
,
0100
0100
0000
0001
,
1000
0000
1000
0000
,
0010
1000
0010
0100
,
0001
0000
0010
0000
,
0100
0100
0000
1000
,
0001
0000
0001
0000
,
0200
0000
0300
0000
,
1001
1000
0001
0001
,
0010
0100
2000
3000
,
0001
0001
1000
1000
,
0010
0100
0001
1000
,
0001
0001
0100
0100
,
0010
1000
0002
0003
,
1000
1000
0100
0100
,
0010
0001
1000
0001
,
0100
0000
1010
0000
,
0100
0010
0001
1000
,
0100
0000
0011
0000
,
0100
0010
1000
0001
,
0100
0100
0100
0100
,
0010
0010
0010
0010
,
1000
1000
1000
1000
,
0001
1000
0001
1001
,
1000
0000
1000
0000
,
0100
0010
0001
0000
,
1000
0000
1000
0000
,
0010
0100
0001
0000
,
1000
0000
1000
0000
,
0100
0010
0001
0000
,
1000
0000
1000
0000
,
0100
0001
0100
0010
,
0001
1000
0001
0010
,
0001
1000
0001
0100
,
0001
1000
0001
0010
,
0001
1000
0002
1003
,
0001
0010
0001
1000
,
0001
0100
0001
1000
,
0001
0010
0001
1000
,
0002
0000
0000
0000
,
1003
0000
1000
0000
,
0010
0000
0100
0000
,
0001
0000
0001
0000
,
0010
0000
0100
0000
,
1000
1000
0001
0001
,
0010
0010
0001
1000
,
0010
0010
0100
0100
,
0001
1000
0010
1000
,
0001
0001
1000
1000
,
0010
0010
1000
0001
,
0010
0010
0100
0100
,
1000
0001
0010
0001
,
1000
1000
0001
0001
,
0010
0010
0001
1000
,
0010
0010
0100
0100
,
0001
1000
0100
1000
,
0001
0001
1000
1000
,
0001
0001
1000
0001
,
0010
0010
0100
0100
,
0010
0010
0100
0010
,
0001
0001
0001
0001
,
1000
1000
1000
1000
,
0010
0010
0010
0010
,
1000
0001
0010
0001
,
1001
1001
1001
1001
,
1000
0010
0100
0001
,
1001
1001
1001
1001
,
1000
0100
0010
0001
,
1001
1001
1001
1001
,
1000
0010
0100
0001
,
1001
1001
1001
1001
,
1000
0010
1000
1000
,
0001
0000
1000
0000
,
1001
0011
1001
1000
,
1001
1001
1001
1001
,
0001
0010
0100
1000
,
1001
1001
1001
1001
,
1000
0010
0100
0001
,
1001
1001
1001
1001
,
0001
1000
0001
0001
,
1000
1010
1001
0001
,
0010
1000
1000
0010
,
0100
1000
0001
1000
,
1000
0001
0001
0001
,
0011
1001
1000
0010
,
0001
0001
0010
0100
,
0001
1000
0001
0001
,
2000
0000
3001
0000
;

//--------------- dance-single - Pruz ----------------
#NOTEDATA:;
#STEPSTYPE:dance-single;
#DESCRIPTION:Pruz;
#DIFFICULTY:Medium;
#METER:11;
#RADARVALUES:0.515744,0.542541,0.262683,0.053884,0.097664,536,497,39,8,0,0,0,0,0,0.515744,0.542541,0.262683,0.053884,0.097664,536,497,39,8,0,0,0,0,0;
#CHARTNAME:;
#CHARTSTYLE:;
#CREDIT:Pruz;
#NOTES:
0000
0000
0000
0000
,
0000
0000
0000
0000
,
1001
0000
0001
0000
0010
0000
0100
1000
,
0100
0010
0001
0000
1000
0001
0100
0001
,
1000
0000
0010
0000
0100
0000
0001
1000
,
0100
0000
1000
0000
0001
0000
0000
0000
0100
0000
0000
0010
1000
0000
0001
0000
,
1000
0000
0100
0000
0001
0000
0100
1000
,
0010
0100
0001
0000
1000
0001
0010
0001
,
1000
0000
0010
0000
0100
0000
0001
1000
,
0002
0000
2000
3003
,
1001
0000
0000
0000
1000
0000
0000
0010
1000
0000
0000
0000
0001
0000
1000
0000
,
0010
0000
0000
0000
0100
0000
0000
0000
0001
0000
0000
0010
0001
0000
1000
0000
,
0001
0000
0000
0000
1000
0000
0000
0100
1000
0000
0000
0000
0001
0000
1000
0000
,
0100
0000
0000
0000
0010
0000
0000
0000
0001
0000
0000
1000
0010
0000
1000
0000
,
0001
0000
0000
0000
1000
0000
0000
0100
1000
0000
0000
0000
0001
0000
1000
0000
,
0100
0000
0000
0000
0010
0000
0000
0000
0001
0000
0000
0100
0001
0000
1000
0000
,
0001
0000
0000
0000
1000
0000
0000
0010
1000
0000
0000
0000
0001
0000
1000
0000
,
0010
0000
0000
0000
0100
0000
0000
0000
0001
0000
0000
1000
0100
0000
1000
0000
,
0001
0000
0100
0000
0010
0000
1000
0001
,
0010
0000
0001
0000
1000
0000
0100
1000
,
0001
0000
0100
0000
0010
0000
1000
0001
,
0100
0000
0001
0000
1000
0000
0001
1000
,
0010
0100
0010
1000
0001
0010
0100
0010
,
0001
0100
0010
1000
0001
1000
0100
0010
,
0002
0000
0000
0000
,
1003
0000
0010
0000
1000
0001
1000
0000
,
1001
0000
0000
1000
0000
0000
0100
0000
0000
0010
0000
0000
0001
0000
1000
0000
,
0001
0000
0010
0000
0001
0000
1000
0000
0100
0000
0000
0100
0000
0000
1000
0000
,
0001
0000
0000
1000
0000
0000
0010
0000
0000
0100
0000
0000
0001
0000
1000
0000
,
0001
0000
0100
0000
0001
0000
1000
0000
0010
0000
0000
0010
0000
0000
1000
0000
,
0001
0000
0000
0010
0000
0000
1000
0000
0000
0010
0000
0000
0001
0000
0010
0000
,
0100
0000
1000
0000
0001
0000
0010
0000
0001
0000
0000
1000
0000
0000
0100
0000
,
1000
0000
0000
0010
0000
0000
0001
0000
0000
0010
0000
0000
1000
0000
0010
0000
,
0100
0001
1000
0000
0100
1000
0001
0000
,
1000
1000
0010
0000
0001
0001
0010
0000
,
1000
0001
0010
0000
0001
1000
0010
0000
,
1000
0100
0010
0000
0001
0100
0010
0000
,
1000
0001
0010
0001
1000
1000
0010
0000
,
1001
0000
0000
1000
0000
0000
0100
0000
1000
0000
0000
0000
0001
0000
1000
0000
,
0100
0000
1000
0001
1000
0000
0010
1000
,
0001
0100
0001
1000
0001
0010
0001
1000
,
0002
0000
0000
1003
,
1001
0000
1000
0000
0010
0000
0010
0001
,
0010
1000
0001
0000
1000
0100
1000
0001
,
1000
0000
0001
0000
0010
0000
0010
1000
,
0010
0100
1000
0000
0001
0000
0010
0001
,
1000
0100
1000
0000
0001
0000
1000
0010
,
1000
0001
1000
0000
0100
0000
0010
0001
,
1000
0010
1000
0000
0001
0000
1000
0100
,
1000
0001
1000
0000
0010
0000
0100
0001
,
1000
0000
0001
0010
1000
0000
1000
0010
,
0001
1000
0001
0000
0100
0010
1000
0001
,
0010
0000
0001
1000
0100
0000
1000
0001
,
0010
0000
1000
0000
0010
0000
0001
1000
,
0001
0000
1000
0010
0001
0000
0001
0010
,
1000
0001
1000
0000
0100
0010
0001
1000
,
0010
0000
1000
0001
0100
0000
0001
1000
,
0010
0000
0001
0000
0010
0000
1000
0001
,
1000
0100
0010
0001
,
1000
0000
0000
0000
0010
0000
0000
0000
1000
0000
0000
0001
0010
0000
0001
0000
,
1000
0100
0010
0001
,
1000
0000
0000
0000
0100
0000
0000
0000
1000
0000
0000
0001
0010
0000
0001
0000
,
1000
0001
1000
0001
0100
0001
0100
0001
,
1000
0001
1000
0001
0010
0001
0010
0001
,
2000
0000
0002
3003
,
1001
0000
1000
0010
2000
0000
3001
0000
,
1001
0000
0001
0000
0011
0000
0001
1000
,
0001
0000
0101
0000
0100
0000
0010
1000
,
0001
0011
0001
1001
,
1000
0000
0000
0010
0100
0000
0000
0000
0010
0000
0000
1000
0001
0000
0000
0000
,
1001
0000
1000
0000
1010
0000
1000
0001
,
1000
0000
1100
0000
0100
0000
0010
0001
,
1000
1010
1000
1001
,
0001
0000
0000
0010
0100
0000
0000
0000
0010
0000
0000
0001
1000
0000
0000
0000
,
1001
1000
1010
1000
,
1001
0000
1001
0000
0001
0010
0100
0000
,
1100
1001
1100
1001
,
0001
0000
0000
0000
0010
0000
0000
0000
0001
0000
0000
1000
0010
0000
0000
0000
,
0101
1010
1100
0011
,
1000
0010
0100
0001
,
1010
0101
1100
0011
,
1000
0000
0100
0010
0001
0000
1001
0000
,
1000
1000
1000
0000
0001
0010
0011
0000
,
1001
0000
1000
0001
0100
0000
1001
0000
,
0001
0010
0100
0000
1000
0001
0010
0001
,
1000
0000
0010
0000
1000
0000
0001
1000
0001
0000
1000
0000
0001
0000
0001
0000
,
0001
0000
1000
0010
1010
0000
1001
0000
,
0001
1000
0100
0000
1001
0000
1000
0010
,
0100
0000
0001
1000
0100
0010
0001
1000
,
0002
0000
1003
0000
;

//--------------- dance-single - Pruz ----------------
#NOTEDATA:;
#STEPSTYPE:dance-single;
#DESCRIPTION:Pruz;
#DIFFICULTY:Hard;
#METER:13;
#RADARVALUES:0.58406,0.693247,0.262683,0.080826,0.262683,607,568,39,12,0,0,0,0,0,0.58406,0.693247,0.262683,0.080826,0.262683,607,568,39,12,0,0,0,0,0;
#CHARTNAME:;
#CHARTSTYLE:;
#CREDIT:Pruz;
#NOTES:
0000
0000
0000
0000
,
0000
0000
0000
0000
,
1001
0000
0001
0100
0010
0000
1000
0001
,
0010
0001
1000
0000
0100
0000
0010
0000
,
0001
0000
1000
0000
0001
0000
0100
0001
,
1000
0000
0010
0000
0100
0000
0001
1000
,
0001
0000
0100
0010
1000
0000
0001
1000
,
0100
1000
0001
0000
0010
0000
0100
0000
,
1000
1000
0001
0001
,
2000
0000
0002
3003
,
1000
0000
0000
0010
1000
0000
0000
0000
0001
0000
0000
1000
0100
0000
0010
0000
,
0001
0000
0000
0001
0010
0000
0000
0010
0100
0000
0000
0100
1000
0000
0001
0000
,
1000
0000
0000
0100
0010
0000
0000
0000
0001
0000
0000
0100
0010
0000
1000
0000
,
0001
0000
0000
0001
0100
0000
0000
0100
0010
0000
0000
0010
1000
0000
0001
0000
,
1000
0000
0000
0100
1000
0000
0000
0000
0001
0000
0000
1000
0010
0000
0100
0000
,
0001
0000
0000
0001
0100
0000
0000
0100
0010
0000
0000
0010
1000
0000
0001
0000
,
1000
0000
0000
0010
0100
0000
0000
0000
0001
0000
0000
0010
0100
0000
1000
0000
,
0001
0000
0000
0001
0010
0000
0000
0010
0100
0000
0000
0100
1000
0000
0001
0000
,
1000
0000
0000
0010
0001
0000
0010
0000
1000
0000
0000
0001
0010
0000
1000
0000
,
0010
0000
0000
0100
1000
0000
0001
0000
0010
0000
0000
0001
0100
0000
0010
0000
,
1000
0000
0000
0010
0001
0000
0010
0000
1000
0000
0000
0001
0010
0000
1000
0000
,
0010
0000
0000
0100
1000
0000
0001
0000
0010
0000
0000
0001
0100
0000
0010
0000
,
1000
0001
0100
0001
1000
0010
0100
0001
,
1000
0001
0010
0001
1000
0100
0010
0001
,
2000
0000
0000
0000
,
3001
0000
0000
0000
0010
0000
0001
0000
1000
0001
0010
0000
0001
0000
0000
0000
,
1001
0000
0000
1000
0000
0000
1000
0000
0010
0000
0000
0000
1000
0000
0001
0000
,
0010
0000
0001
0000
0010
0000
0100
0000
1000
0000
0000
0001
0000
0000
1000
0000
,
0001
0000
0000
0001
0000
0000
0001
0000
0010
0000
0000
0000
0100
0000
1000
0000
,
0001
0000
0100
0000
0001
0000
0100
0000
0010
0000
0000
1000
0000
0000
0001
0000
,
1000
0000
0000
1000
0000
0000
1000
0000
0100
0000
0000
0000
1000
0000
0001
0000
,
0100
0000
0001
0000
0100
0000
0010
0000
1000
0000
0000
0001
0000
0000
1000
0000
,
0001
0000
0000
0001
0000
0000
0001
0000
0100
0000
0000
0000
0010
0000
1000
0000
,
0001
0000
0010
0000
0001
0000
0010
0000
0100
0000
0000
1000
0000
0000
0001
0000
,
0010
0001
1000
0000
0010
1000
0001
0000
,
0010
0001
1000
0010
0100
0000
0001
1000
,
0100
1000
0001
0000
0100
0001
1000
0000
,
0100
1000
0010
0100
0001
0001
1001
0000
,
0010
1000
0001
0000
0010
0001
1000
0000
,
0010
1000
0001
0010
0100
0000
1000
0001
,
0100
0001
1000
0000
0100
1000
0001
0000
,
0100
0001
0010
0100
1000
1000
1001
0000
,
0002
0000
0010
0000
1000
0000
0100
0100
,
0103
0010
1000
0000
0001
1000
0100
1000
,
0002
0000
0100
0000
1000
0000
0010
0010
,
0013
0001
1000
0000
0010
0000
1000
0001
,
2000
0000
0010
0000
0001
0000
0100
0100
,
3100
0010
0001
0000
1000
0001
0100
0001
,
2000
0000
0100
0000
0001
0000
0010
0010
,
3010
1000
0001
0000
0010
0000
0100
1000
,
0001
0000
0000
0001
1000
0000
0010
0000
1000
0000
0000
1000
0001
0000
0010
0000
,
0100
0000
1000
0000
0001
0000
0000
0000
0100
0000
0000
0001
1000
0000
0010
0000
,
0100
0000
0000
0100
0001
0000
0100
0000
0010
0000
0000
0010
1000
0000
0001
0000
,
1000
0000
0000
0100
1000
0000
0100
0000
0010
0000
0000
0001
0010
0000
0001
0000
,
1000
0000
0000
1000
0001
0000
0100
0000
0001
0000
0000
0001
1000
0000
0100
0000
,
0010
0000
0001
0000
1000
0000
0000
0000
0100
0000
0000
1000
0001
0000
0010
0000
,
0100
0000
0000
0100
1000
0000
0100
0000
0010
0000
0000
0010
0001
0000
1000
0000
,
0001
0000
0000
0100
0001
0000
0100
0000
0010
0000
0000
1000
0010
0000
1000
0000
,
0001
0000
0000
0001
1000
0000
0100
0000
0010
0000
0000
0010
0001
0000
1000
0000
,
0001
0000
0000
0001
0010
0000
0100
0000
1000
0000
0000
1000
0001
0000
0100
0000
,
0001
0000
0000
0001
1000
0000
0010
0000
0100
0000
0000
0100
0001
0000
1000
0000
,
0001
0000
0000
0001
0100
0000
0010
0000
1000
0000
0000
1000
0001
0000
0010
0000
,
0001
1000
0001
0010
0001
1000
0010
0100
,
0001
1000
0001
0100
0001
1000
0010
0100
,
0002
1000
1000
1003
,
1001
0000
0000
1000
0001
0000
0010
0000
0001
0000
1000
0000
0001
0000
0000
0000
,
1001
0000
1000
0000
1100
0000
1000
0001
,
0010
0000
0110
0000
1100
0000
1000
0001
,
1000
1001
1000
1010
,
1000
0000
0000
0001
0010
0000
0000
0000
0001
0000
0000
1000
0010
0000
1000
0000
,
1001
0000
0001
0000
0101
0000
0001
1000
,
0010
0000
0110
0000
0101
0000
0001
1000
,
0001
1001
0001
0011
,
0001
0000
0000
1000
0010
0000
0000
0000
1000
0000
0000
0001
0010
0000
0001
0000
,
1001
0000
1000
0000
1010
0000
1000
0001
,
0010
0000
0001
0000
1000
0000
0000
0000
0001
0000
1000
0001
0020
0000
0000
0000
,
0031
1001
1000
1100
,
1000
0000
0000
0001
0010
0000
0000
0000
0100
0000
0000
1000
0001
0000
1000
0000
,
1001
0000
0001
0000
0011
0000
0001
1000
,
0010
1000
0001
0000
1000
0001
0200
0000
,
0301
1001
0001
0101
,
0001
0000
0000
1000
0010
0000
0000
0000
1000
0000
0000
0001
0010
0000
0001
0000
,
1001
0000
1001
0000
1001
0000
0000
0000
1000
0000
0100
1000
0100
0000
0000
0000
,
0110
0000
0010
0001
1001
0000
1000
0000
,
1001
0000
0001
1000
0010
0000
0000
0000
0110
0000
0100
0001
1000
0000
0001
0000
,
0010
0000
0001
1000
0020
0000
0000
0000
1030
0000
0001
0000
1001
0000
1001
0000
,
1001
0000
0000
0000
0001
0000
0100
0001
0100
0000
0000
0000
0110
0000
0000
0000
,
0010
0000
1000
0000
1001
0000
0000
0000
0001
0000
0000
0000
1001
0000
1000
0001
,
0010
0000
0000
0000
0110
0000
0100
1000
0001
0000
1000
0000
0010
0000
1000
0001
,
0020
0000
0000
0000
0001
0000
0031
1000
0001
0000
0000
0000
0000
0000
0000
0000
;

//--------------- dance-single - Pruz ----------------
#NOTEDATA:;
#STEPSTYPE:dance-single;
#DESCRIPTION:Pruz;
#DIFFICULTY:Challenge;
#METER:14;
#RADARVALUES:0.686055,0.753529,0.585985,0.07409,0.417598,713,626,87,11,0,0,0,0,0,0.686055,0.753529,0.585985,0.07409,0.417598,713,626,87,11,0,0,0,0,0;
#CHARTNAME:;
#CHARTSTYLE:;
#CREDIT:Pruz;
#NOTES:
0000
0000
0000
0000
,
0000
0000
0000
0000
,
1001
0000
0001
0000
0010
0000
0001
0100
,
0010
1000
0001
0000
1000
0010
0100
0001
,
1000
0010
1000
0000
0001
0010
0001
1000
,
0010
0000
0100
0000
0001
0000
0000
0000
1000
0000
0000
0010
1000
0000
0001
0000
,
1001
0000
1000
0000
0010
0000
1000
0100
,
0010
0000
0001
0000
1000
0000
0000
0000
0001
0000
0000
1000
0010
0000
1000
0000
,
0001
0100
0010
1000
0001
0000
1000
0000
,
0200
0000
0020
0330
,
1001
0000
0000
0001
0010
0000
0001
0000
1000
0000
0000
0100
0010
0000
0001
0000
,
1000
0000
0000
0001
0010
0000
0000
1000
0010
0000
0000
0001
1000
0000
0100
0000
,
0010
0000
0000
0001
1000
0000
0000
0010
1000
0000
0000
0001
1000
0000
0010
0000
,
0100
0000
0000
0001
1000
0000
0000
1000
0100
0000
0000
0100
1000
0000
0001
0000
,
1001
0000
0000
1000
0010
0000
1000
0000
0001
0000
0000
0100
0010
0000
1000
0000
,
0001
0000
0000
1000
0010
0000
0000
0001
0010
0000
0000
1000
0001
0000
0100
0000
,
0010
0000
0000
1000
0001
0000
0000
0010
0001
0000
0000
1000
0001
0000
0010
0000
,
0100
0000
0000
1000
0001
0000
0000
0001
0100
0000
0000
0100
0001
0000
1000
0000
,
1001
0000
0000
0001
0010
0000
0100
0000
1000
0000
0000
0001
0100
0000
0010
0000
,
1000
0000
0000
0100
0010
0000
0001
0000
1000
0000
0000
0001
0010
0000
0001
0000
,
1000
0000
0000
0001
0010
0000
0100
0000
1000
0000
0000
0001
0100
0000
0010
0000
,
1000
0000
0000
0100
0010
0000
0001
0000
1000
0000
0000
0001
0010
0000
0001
0000
,
1000
0001
0100
0001
1000
0010
0100
0010
,
1000
0001
0100
0001
1000
0010
0100
0001
,
0020
0000
0200
0330
,
1001
0000
0000
1000
0010
0000
0100
0000
0001
1000
0001
0000
0010
0000
0000
0000
,
1001
0000
0000
1000
0000
0000
0010
0000
0100
0001
0000
0001
1000
0000
0010
0000
,
1000
0000
0100
0000
1000
0000
0001
0000
1000
0000
0000
0100
0000
0000
0010
0000
,
0001
0000
0000
0001
0000
0000
0010
0000
0100
1000
0000
1000
0001
0000
0010
0000
,
0001
0000
0100
0000
0001
0000
1000
0000
0001
0000
0000
0100
0000
0000
0001
0000
,
1001
0000
0000
1000
0000
0000
0100
0000
0010
0001
0000
0001
1000
0000
0100
0000
,
1000
0000
0010
0000
1000
0000
0001
0000
1000
0000
0000
0010
0000
0000
0100
0000
,
0001
0000
0000
0001
0000
0000
0100
0000
0010
1000
0000
1000
0001
0000
0100
0000
,
0001
0000
0010
0000
0001
0000
1000
0000
0001
0000
0000
0010
0000
0000
0001
0000
,
1001
0000
0000
1000
0000
0000
0100
0000
0010
0001
0000
0001
1000
0000
0001
0000
,
0010
0000
1000
0000
0010
0000
0001
0000
1000
0000
0000
0010
0000
0000
0100
0000
,
0001
0000
0000
0001
0000
0000
0100
0000
0010
1000
0000
1000
0001
0000
1000
0000
,
0010
0001
0010
1000
0001
0001
1001
0000
,
1001
0000
0000
1000
0000
0000
0010
0000
0100
0001
0000
0001
1000
0000
0001
0000
,
0100
0000
1000
0000
0100
0000
0001
0000
1000
0000
0100
1000
0001
0000
0010
0000
,
0001
0000
1000
0010
0000
0000
1000
0000
0001
0000
1000
0100
0000
0000
1000
0000
,
0001
0000
0000
1000
0100
0000
0010
0000
0001
1000
0001
0000
0101
0000
0000
0000
,
0002
0000
0010
0000
1000
0000
0103
0100
,
0010
0000
1000
0000
0001
0000
0000
0000
1000
0000
0000
0001
0010
0000
0001
0000
,
2000
0000
0100
0000
0001
0000
3010
0010
,
0100
0000
1000
0000
0100
0000
0000
0000
0001
0000
0000
0100
0010
0000
1000
0000
,
0002
0000
0010
0000
1000
0000
0103
0100
,
0010
0000
1000
0000
0001
0000
0000
0000
1000
0000
0000
0001
0010
0000
0001
0000
,
2000
0000
0100
0000
0001
0000
3010
0010
,
0100
0000
1000
0000
0100
0000
0000
0000
0001
0000
0000
0100
0010
0000
1000
0000
,
1001
0000
0001
0010
0110
0100
1000
0000
,
1001
0000
1000
0000
1100
0000
1000
0000
1001
0000
0000
0001
0010
0000
0100
0000
,
1100
0000
0000
1000
0001
0000
0000
0001
0010
0000
0000
0010
0001
0000
1000
0000
,
1001
0000
0000
1000
0010
0000
0000
0010
0100
0000
0000
0001
1000
0000
0001
0000
,
1001
0000
1000
0010
0110
0100
0001
0000
,
1001
0000
0001
0000
0101
0000
0001
0000
1001
0000
0000
1000
0010
0000
0100
0000
,
0101
0000
0000
0001
1000
0000
0000
1000
0010
0000
0000
0010
1000
0000
0001
0000
,
1001
0000
0000
0001
0010
0000
0000
0010
0100
0000
0000
1000
0001
0000
1000
0000
,
1001
0000
0000
0001
0010
0000
0001
0000
1000
0000
0000
0010
1000
0000
0001
0000
,
0100
0000
0000
0001
1000
0000
0010
0000
0100
0000
0000
0001
1000
0000
0100
0000
,
0010
0000
0000
0001
0010
0000
0001
0000
1000
0000
0000
0010
1000
0000
0001
0000
,
0100
0000
0000
0001
1000
0000
0010
0000
0100
0000
0000
0001
1000
0000
0100
0000
,
1000
0001
0010
0001
1000
0001
0100
0001
,
1000
0100
1000
0001
1000
0010
1000
0001
,
2000
0001
0001
0001
0001
0001
0001
3001
,
1001
0000
0000
1000
0010
0000
0100
0000
0001
1000
0001
0000
0010
0000
0000
0000
,
1001
0000
1010
0000
1001
0000
1010
1000
,
0001
0000
0000
0100
0001
0000
0000
1000
0001
0000
0000
0010
0001
0000
1000
0000
,
1001
0000
0000
0001
0010
0000
0000
0001
1000
0000
0000
0010
1000
0000
0001
0000
,
1001
0000
0000
0000
0011
0000
0000
0000
1001
0000
0000
0100
0001
0000
1000
0000
,
1001
0000
1010
0000
1001
0000
1010
1000
,
0001
0000
0000
0100
0001
0000
0000
1000
0001
0000
0000
0010
0001
0000
1000
0000
,
1001
0000
0000
0001
0010
0000
0000
0001
1000
0000
0000
0010
1000
0000
0001
0000
,
1001
0000
0000
0000
0011
0000
0000
0000
1001
0000
1000
0001
1000
0000
0010
0000
,
1001
0000
0000
1000
0001
0000
0000
0000
0101
0000
0000
0001
1000
0000
0001
0000
,
1000
0000
0100
0000
1000
0000
0000
0000
0001
0000
1000
0001
0100
0000
0001
0000
,
1001
1010
1001
0011
,
1001
0000
0000
0000
1010
0000
0000
0000
1001
0000
0000
0001
0100
0000
0001
0000
,
1001
0000
0000
1000
0001
0000
0000
0000
0101
0000
0000
0001
1000
0000
0001
0000
,
1000
0000
0100
0000
1000
0000
0000
0000
0001
0000
1000
0001
0010
0000
0001
0000
,
1001
1010
1001
0011
,
1001
0000
0000
0000
1010
0000
1010
0000
1001
0000
1000
0001
1000
0000
0001
0000
,
1001
0000
1001
0000
1001
0000
0000
0000
1000
0000
0010
1000
0010
0000
0000
0000
,
0110
0000
0101
1001
0101
0000
1001
0000
,
1100
0000
1000
0001
1000
0000
0000
0000
1001
0000
0001
0010
0001
0000
1001
0000
,
1001
0000
1000
0010
0200
0000
0000
0000
0010
0000
0310
0000
1001
0000
1001
0000
,
1001
0000
0000
0000
0001
0000
0010
0001
0010
0000
0000
0000
0110
0000
0000
0000
,
1100
0000
1001
0000
1100
0000
0000
0000
1001
0000
0000
0000
0101
0000
0001
1000
,
0001
0000
0000
0000
1001
0000
1000
0010
1000
0000
1001
0000
1001
0000
0001
0010
,
0200
0000
0000
0000
0010
0000
0310
0001
1000
0000
0000
0000
0000
0000
0000
0000
;
