#TITLE:怪物;
#SUBTITLE:;
#ARTIST:YOASOBI;
#TITLETRANSLIT:Kaibutsu;
#SUBTITLETRANSLIT:;
#ARTISTTRANSLIT:;
#GENRE:Anime;
#CREDIT:;
#BANNER:Kaibutsu.png;
#BACKGROUND:Kaibutsu-bg.png;
#LYRICSPATH:;
#CDTITLE:;
#MUSIC:Kaibutsu.ogg;
#OFFSET:-0.726000;
#SAMPLESTART:35.623001;
#SAMPLELENGTH:20.080999;
#SELECTABLE:YES;
#BPMS:0.000000=170.000000
;
#STOPS:
;
#BGCHANGES:0.000=Kaibutsu.avi=1.000=1=0=1===CrossFade==,
99999=-nosongbg-=1.000=0=0=0 // don't automatically add -songbackground-
;
#KEYSOUNDS:;
#ATTACKS:;

//---------------dance-single - Pruz----------------
#NOTES:
     dance-single:
     Pruz:
     Beginner:
     2:
     0.143490,0.172985,0.007440,0.022321,0.000000,135.000000,134.000000,1.000000,3.000000,0.000000,0.000000,0.143490,0.172985,0.007440,0.022321,0.000000,135.000000,134.000000,1.000000,3.000000,0.000000,0.000000:
// measure 0
0000
0000
0000
0000
,  // measure 1
1000
0000
1000
0000
,  // measure 2
0001
0000
0000
0000
,  // measure 3
1000
0000
1000
0000
,  // measure 4
0100
0000
0000
0000
,  // measure 5
1000
0000
1000
0000
,  // measure 6
0001
0000
0000
0000
,  // measure 7
0010
0000
0000
0000
,  // measure 8
0100
0000
0000
0000
,  // measure 9
1000
0000
1000
0000
,  // measure 10
0001
0000
0000
0000
,  // measure 11
1000
0000
1000
0000
,  // measure 12
0010
0000
0000
0000
,  // measure 13
1000
0000
1000
0000
,  // measure 14
0001
0000
0000
0000
,  // measure 15
0100
0000
0000
0000
,  // measure 16
0010
0000
0010
0000
,  // measure 17
1000
0000
0000
0000
,  // measure 18
0001
0000
0000
0000
,  // measure 19
1000
0000
0000
0000
,  // measure 20
0100
0000
0000
0000
,  // measure 21
0010
0000
0000
0000
,  // measure 22
0001
0000
0000
0000
,  // measure 23
1000
0000
0000
0000
,  // measure 24
0001
0000
0000
1000
,  // measure 25
0010
0000
0100
0000
,  // measure 26
0100
0000
0000
0001
,  // measure 27
1000
0000
0100
0000
,  // measure 28
0100
0000
0000
1000
,  // measure 29
0010
0000
0100
0000
,  // measure 30
0100
0000
0001
0000
,  // measure 31
1000
0000
1000
0000
,  // measure 32
0010
0000
0000
0000
,  // measure 33
1000
0000
0001
0000
,  // measure 34
0010
0000
0000
0000
,  // measure 35
0100
0000
0100
0000
,  // measure 36
0100
0000
0000
0000
,  // measure 37
2000
0000
3000
0000
,  // measure 38
0002
0000
0003
1000
,  // measure 39
0001
0000
0010
0000
,  // measure 40
0001
0000
0000
0000
,  // measure 41
1000
0000
0010
0000
,  // measure 42
1000
0000
0000
0000
,  // measure 43
0001
0000
0100
0000
,  // measure 44
0001
0000
0000
0000
,  // measure 45
1000
0000
1000
0000
,  // measure 46
0010
0000
0000
0000
,  // measure 47
0001
0000
0001
0000
,  // measure 48
0010
0000
0000
0000
,  // measure 49
1000
0000
1000
0000
,  // measure 50
0001
0000
0001
0000
,  // measure 51
1000
0000
0000
0000
,  // measure 52
0020
0000
0000
0000
,  // measure 53
1030
0000
0000
0000
,  // measure 54
0001
0000
0001
0000
,  // measure 55
0100
0000
0000
0000
,  // measure 56
1000
0000
1000
0000
,  // measure 57
0100
0000
0000
0000
,  // measure 58
0001
0000
0001
0000
,  // measure 59
0010
0000
0000
0000
,  // measure 60
0001
0000
1000
0000
,  // measure 61
0001
0000
0000
0000
,  // measure 62
0100
0000
0000
0000
,  // measure 63
0010
0000
0000
0000
,  // measure 64
1000
0000
0000
0000
,  // measure 65
0001
0000
0000
0000
,  // measure 66
0010
0000
0000
0000
,  // measure 67
0100
0000
0000
0000
,  // measure 68
1000
0000
0001
0000
,  // measure 69
0000
0010
0000
0010
,  // measure 70
0000
0010
0000
0000
,  // measure 71
0000
0100
0000
0100
,  // measure 72
0000
0100
0000
0000
,  // measure 73
0000
1000
0000
1000
,  // measure 74
0000
1000
0000
0000
,  // measure 75
0000
0001
0000
0001
,  // measure 76
0000
0001
0000
0000
,  // measure 77
1000
0000
0010
0000
,  // measure 78
0100
0000
0000
0000
,  // measure 79
0001
0000
0010
0000
,  // measure 80
0100
0000
0000
0000
,  // measure 81
1000
0000
0100
0000
,  // measure 82
0010
0000
0000
0000
,  // measure 83
0001
0000
0100
0000
,  // measure 84
0010
0000
1000
0000
,  // measure 85
0001
0000
0000
0000
,  // measure 86
0010
0000
0000
0000
,  // measure 87
0100
0000
0000
0000
,  // measure 88
1000
0000
0001
0000
,  // measure 89
1000
0000
0000
0000
,  // measure 90
0010
0000
0000
0000
,  // measure 91
0100
0000
0000
0000
,  // measure 92
0001
0000
1000
0000
,  // measure 93
1001
0000
0000
0000
;

//---------------dance-single - Pruz----------------
#NOTES:
     dance-single:
     Pruz:
     Easy:
     5:
     0.231709,0.345969,0.238086,0.089282,0.000000,218.000000,186.000000,32.000000,12.000000,0.000000,0.000000,0.231709,0.345969,0.238086,0.089282,0.000000,218.000000,186.000000,32.000000,12.000000,0.000000,0.000000:
0000
0000
0000
0000
,
1000
0000
1000
0000
,
0020
0000
0000
0030
0000
0000
0000
0000
,
1000
0000
1000
0000
,
0002
0000
0000
0003
0000
0000
0000
0000
,
1000
0000
1000
0000
,
0200
0000
0000
0300
0000
0000
0000
0000
,
0010
0000
0000
0000
,
0001
0000
0001
0000
,
1000
0000
0001
0000
,
0010
0000
0000
0000
,
0001
0000
1000
0000
,
0010
0000
0000
0000
,
1000
0000
0001
0000
,
0100
0000
0000
0000
,
0010
0000
0000
0000
,
1000
0000
0001
0000
,
0010
0000
0000
0000
,
0100
0000
0000
0000
,
0010
0000
0000
0000
,
0001
0000
0000
0000
,
1000
0000
0001
0000
,
0010
0000
0100
0000
,
1000
0000
0001
0000
,
1000
1000
1000
0002
,
0013
0000
0100
0000
,
1000
0000
0001
0000
,
1000
0000
0100
0000
,
0010
0000
0001
0000
,
1000
0000
0010
0000
,
1000
0000
0001
0000
,
0100
0000
0010
0000
,
1000
0000
0001
0000
,
1000
0000
0100
0000
,
1000
0000
0001
0000
,
0010
0000
0100
0000
,
1000
0000
0001
0000
,
1000
0000
0010
0000
,
0100
0000
0001
1000
,
0001
0000
0010
0000
,
0100
0000
1000
0001
,
1000
0000
0010
0000
,
0100
0000
0001
1000
,
0001
0000
0010
0000
,
0100
0000
1000
0001
,
1000
0000
1000
0000
,
0100
0000
0000
0000
,
1000
0000
1000
0000
,
0001
0000
0000
0000
,
1000
0000
1000
0000
,
0010
0000
0000
0000
,
1000
0000
0000
0000
,
0001
1000
0001
1000
,
0010
0000
0100
0000
,
0001
0000
1000
0000
,
0001
0000
0010
0000
,
0100
0000
1000
0000
,
0001
0000
0001
0000
,
0010
0000
0001
0000
,
1000
0000
1000
0000
,
0100
0000
1000
0000
,
0001
0000
0000
1000
,
0010
0000
0000
1000
,
0001
0000
0000
0010
,
0001
0000
0000
1000
,
0001
0000
0000
1000
,
0010
0000
0000
1000
,
0001
0000
0000
0010
,
0001
0000
1000
1001
,
0000
0011
0000
1001
,
0000
1100
0000
1001
,
0000
0011
0000
1001
,
0000
1100
0000
1001
,
0000
0101
0000
1001
,
0000
1010
0000
1001
,
0000
0101
0000
1001
,
0000
1010
0000
0000
,
0000
0011
0000
1001
,
0000
1100
0000
1001
,
0000
0011
0000
1001
,
0000
1100
0000
1001
,
0000
0101
0000
1001
,
0000
1010
0000
1001
,
0000
0101
0000
1001
,
0000
1010
1000
0001
,
1000
0100
0020
0030
,
0001
0100
0020
0030
,
1000
0100
0020
0030
,
0001
0100
0020
0030
,
1000
0001
2000
3000
,
0100
0010
0200
0300
,
1000
0001
0020
0030
,
0001
1000
0020
0030
,
0110
0000
0000
0000
;

//---------------dance-single - Pruz----------------
#NOTES:
     dance-single:
     Pruz:
     Challenge:
     13:
     0.698316,0.622745,0.089282,1.971653,0.133924,657.000000,645.000000,12.000000,265.000000,0.000000,0.000000,0.698316,0.622745,0.089282,1.971653,0.133924,657.000000,645.000000,12.000000,265.000000,0.000000,0.000000:
0000
0000
0000
0000
,
2000
3002
0023
0032
1003
0200
0320
0032
,
1003
0200
0302
0203
0300
0020
0030
0002
,
1003
0002
0203
0302
1003
0200
0320
0032
,
1003
0020
0032
0023
0030
0200
0320
2030
,
3001
0020
0230
2300
3001
2000
3020
2030
,
3001
0200
0320
2030
3000
0002
2003
3200
,
2300
3002
0023
0230
0300
2000
3020
0230
,
0301
0000
2000
0000
0002
3003
0000
0000
,
0002
2003
3020
2030
3001
0200
0320
2030
,
3001
0200
2300
3200
0300
0020
0030
2000
,
3001
2000
3200
2300
3001
0200
0320
2030
,
3001
0020
2030
3020
0030
0200
0320
0032
,
1003
0020
0230
0302
1003
0002
0023
0032
,
1003
0200
0320
0032
0003
2000
3002
0203
,
0302
2003
3020
0230
0300
0002
0023
0230
,
1300
0001
2000
3002
,
0023
0030
0010
0200
0300
0200
1300
0002
,
0003
0000
1000
1000
0000
0002
0103
0000
,
0020
0030
0010
2000
3000
2000
3001
0020
,
0130
0000
0000
0000
1000
0000
1000
0000
0002
0000
1003
0000
0002
0000
0013
0001
,
1000
0000
0001
1000
0010
0100
0001
1000
,
0001
0010
0100
1000
0000
0001
0010
0001
,
1000
0000
0001
0000
1000
0010
0000
0010
,
0001
0100
1000
0002
,
2003
3010
0000
0010
0200
0300
0001
1000
,
0100
1000
0001
1000
0010
0000
0110
0000
,
0200
0301
2000
3001
0200
0300
0020
1030
,
0002
1003
0010
1000
0002
0013
0200
1300
,
0002
0003
0001
1000
0020
0030
0010
1000
,
0002
0003
0002
1003
0200
0300
0200
1300
,
0002
0013
0200
1300
0002
0003
2000
3001
,
0020
0000
0031
0000
1000
0000
0100
0000
0020
0000
0031
0000
1000
0001
1000
0001
,
0200
0310
0000
0010
2000
3001
0000
0001
,
2000
3010
0100
0001
2000
3001
0010
0100
,
2000
3001
0200
0310
2000
3001
1000
0010
,
0200
0301
1000
0000
0002
1003
0020
1030
,
0002
0003
1000
0100
0020
0030
0001
0100
,
0020
0000
0030
0000
1000
0000
0001
0000
0020
0000
0030
0000
0001
1000
0001
0000
,
1002
0000
0003
0000
1000
0000
0100
0000
0010
0000
0000
0001
0000
0000
0010
0000
,
0200
0000
1300
0000
0001
0000
0010
0000
0001
0000
1000
0000
0001
0100
0010
0000
,
0210
0000
0300
0000
0001
0000
1000
0000
0010
0000
0000
0100
0000
0000
0010
0000
,
2000
0000
3001
0000
0100
0000
0010
0000
1000
0000
0001
0000
0010
0100
1000
0000
,
0200
0000
0300
0020
0000
0030
0002
0000
2003
0000
3001
0000
0100
0000
0000
0000
,
0020
0000
0030
2000
0000
3000
0020
0000
0230
0000
0301
0000
1000
0000
0000
0000
,
0002
2003
3200
2300
3001
0020
0230
2300
,
3001
0000
0200
0302
0003
2000
3000
0001
,
2000
3002
0203
0302
1003
0020
0230
0302
,
2003
3200
0300
2000
3002
0023
0230
2300
,
3002
0103
1000
0000
0002
0103
1000
0000
,
0002
0023
0032
2003
3100
0020
0032
2003
,
3002
0203
0302
2003
3000
0002
0023
0230
,
0300
0000
2000
0000
3002
0000
2003
0000
3002
0000
2003
0000
3002
0003
0002
0003
,
0002
0003
0000
0000
1000
0000
0020
0000
0230
0000
0302
0000
1003
0000
0002
0000
,
0013
0000
0100
2000
3002
0023
0032
2003
,
3002
0203
0320
1030
0002
0203
0301
2000
,
3001
0020
0030
0200
2300
3002
2003
3200
,
2300
3010
0002
0003
2000
3020
0031
2000
,
3001
2000
3100
2000
3002
0023
0230
2300
,
3000
0002
0023
0130
2000
3002
0103
0010
,
2000
0000
3002
0000
2003
0000
3002
0000
2003
3000
2000
3000
2000
3000
0000
0000
,
0001
0000
0000
0100
0001
0000
1000
0000
0100
0000
0010
0000
0100
0000
1000
0000
,
0001
0000
0000
0100
0001
0000
0010
0000
0100
0000
1000
0000
0001
0000
1000
0000
,
1000
0000
0000
0100
1000
0000
0001
0000
0100
0000
0010
0000
0100
0000
0001
0000
,
1000
0000
0000
0100
1000
0000
0010
0000
0200
0000
0301
0000
1000
0000
0001
0100
,
0002
0000
0003
0010
0001
0000
1000
0000
0010
0000
0100
0000
0010
0000
1000
0000
,
0001
0000
0000
0010
0001
0000
0100
0000
0010
0000
1000
0000
0001
0000
1000
0000
,
1000
0000
0000
0010
1000
0000
0001
0000
0010
0000
0100
0000
1000
0000
0001
0000
,
1000
0000
0000
0010
1000
0000
0001
0000
2000
0000
0000
0000
3100
0000
0000
0000
,
2000
3001
0010
0100
1000
0000
0001
1000
,
0001
0100
0010
1000
0001
0000
1000
0010
,
2000
3001
0100
0010
1000
0000
0001
0010
,
0001
1000
0100
0010
0001
0000
1000
0001
,
0020
0031
0001
1000
0100
0000
1000
0001
,
0010
0100
1000
0001
1000
0000
0001
0100
,
0020
1030
0001
1000
0010
0000
1000
0001
,
0100
0000
0010
0000
1000
0000
0001
0000
0010
0100
0010
0000
0001
0000
1000
0000
,
0020
1030
0002
0103
0001
0000
1000
0002
,
1003
0200
0310
0001
1000
0000
0001
0010
,
0002
1003
0200
1300
0001
0000
1000
0020
,
1030
0002
0103
0001
1000
0000
0001
1000
,
0020
1030
0002
0013
0001
0000
1000
0001
,
0200
0301
2000
3100
1000
0000
0001
0010
,
0200
1300
0002
1003
0010
1000
0001
0010
,
0002
0103
0020
1030
0001
0000
1000
0010
,
0100
0000
0000
0101
0000
0000
0100
0000
0010
0000
1000
0000
0001
0000
1000
0000
,
0010
0000
0000
0110
0000
0000
0010
0000
1000
0000
0001
0000
0010
0000
0001
0000
,
1000
0000
0000
1100
0000
0000
1000
0000
0100
0000
0001
0000
0100
0000
1000
0000
,
0001
0000
0000
0101
0000
0000
0001
0000
1000
0000
0010
0000
1000
0000
0001
0000
,
0010
0000
0000
0110
0000
0000
0010
0000
0001
0000
1000
0000
0100
0000
1000
0000
,
0001
0000
0000
0011
0000
0000
0001
0000
1000
0000
0010
0000
0100
0000
0001
0000
,
1000
0000
0000
1010
0000
0000
1000
0000
0010
0000
0001
0000
0010
0000
1000
0000
,
0001
0000
0000
0011
0000
0000
0002
0000
0023
0000
1030
0000
0100
0000
0001
0000
,
1001
0000
0000
0000
;
