#VERSION:0.83;
#TITLE:Invincible;
#SUBTITLE:;
#ARTIST:OK Go;
#TITLETRANSLIT:;
#SUBTITLETRANSLIT:;
#ARTISTTRANSLIT:;
#GENRE:Rock;
#CREDIT:;
#MUSIC:Invincible.ogg;
#BANNER:Invincible.png;
#BACKGROUND:Invincible-bg.png;
#CDTITLE:;
#SAMPLESTART:37.437;
#SAMPLELENGTH:16.423;
#SELECTABLE:YES;
#OFFSET:0.047;
#BPMS:0.000=192.213
,194.000=190.000
,208.000=192.000
,216.000=95.000
,218.000=91.300
,220.000=92.500
,226.000=93.800
,248.000=94.000
,256.000=96.000
,260.000=199.700
,269.000=197.000
,271.000=191.000
,279.000=197.000
,283.000=185.000
,286.000=195.000
,288.000=193.000
,296.000=192.000
;
#STOPS:;
#SPEEDS:0.000=1.000=0.000=0;
#SCROLLS:0.000=1.000;
#TICKCOUNTS:0.000=4;
#TIMESIGNATURES:0.000=4=4;
#LABELS:0.000=Song Start;
#COMBOS:0.000=1;
#ORIGIN:;
#PREVIEWVID:;
#JACKET:Invincible-jacket.png;
#CDIMAGE:;
#DISCIMAGE:;
#BGCHANGES:0.000=Invincible.avi=1.000=0=0=1===CrossFade_Faster==,
99999.000=-nosongbg-=1.000=0=0=0=StretchNoLoop====
;
#FGCHANGES:;

//--------------- dance-single - Pruz ----------------
#NOTEDATA:;
#STEPSTYPE:dance-single;
#DESCRIPTION:Pruz;
#DIFFICULTY:Beginner;
#METER:3;
#RADARVALUES:0.141491,0.247905,0.148229,0.498588,0.003369,147,125,22,74,0,0,0,0,0,0.141491,0.247905,0.148229,0.498588,0.003369,147,125,22,74,0,0,0,0,0;
#CHARTNAME:Pruz;
#CHARTSTYLE:;
#CREDIT:Pruz;
#NOTES:
0000
0000
0000
0000
,
0000
0000
0000
0000
,
0000
0000
0000
0000
,
0000
0000
0000
0000
,
0000
0000
0000
0000
,
0000
0000
0000
0000
,
0000
0000
0000
0000
,
0000
0000
0000
0000
,
1001
0000
0000
0000
,
0001
0000
0000
0000
,
1001
0000
0000
0000
,
1000
0000
0010
0000
,
1000
0000
1000
0000
,
0001
0000
0001
0000
,
0100
0000
0100
0000
,
0010
0000
0010
0000
,
1000
0000
0000
0000
,
0100
0000
0000
0000
,
0010
0000
0000
0000
,
0001
0000
0000
0000
,
1000
0000
0000
0000
,
0001
0000
0000
0000
,
1000
0000
0100
0000
,
0010
0000
0001
0000
,
1000
0000
0000
0000
,
0010
0000
0000
0000
,
0100
0000
0000
0000
,
0001
0000
0000
0000
,
1000
0000
0000
0000
,
0001
0000
0000
0000
,
1000
0000
0100
0000
,
0010
0000
0001
0000
,
0010
0000
0010
0000
,
0100
0000
0100
0000
,
1000
0000
1000
0000
,
0001
0000
1000
0000
,
2002
0000
3003
0000
,
0000
0000
0000
0000
,
0002
0003
0002
0000
,
1003
0000
1000
0000
,
2002
0000
3003
0000
,
0000
0000
0000
0000
,
2000
3000
2000
0000
,
3001
0000
0001
0000
,
2002
0000
3003
0000
,
0000
0000
0000
0000
,
0002
0003
0002
0003
,
1000
0000
1000
0000
,
2002
0000
3003
0000
,
0000
0000
0000
0000
,
2002
0000
3003
0000
,
0000
0000
0000
0000
,
2002
0000
3003
0000
,
0000
0000
0000
0000
,
0100
0000
0000
0000
,
0000
0000
0000
0000
0000
0000
0020
0030
,
0020
0000
0000
0000
,
0000
0000
0030
0000
0002
0003
2000
3000
,
0020
0000
0000
0000
,
0030
0000
0000
0000
0000
0000
0200
0300
,
0200
0000
0000
0300
,
0002
0000
0000
0003
0002
0003
2000
3000
,
0020
0000
0030
0020
0230
0000
0000
0000
,
0000
0000
0300
0000
,
0001
0000
0010
0000
,
0100
0000
0000
0000
,
1000
0000
0000
0000
,
0001
0000
1000
0000
0000
0000
1020
0030
,
0000
2000
3000
0000
,
0001
1000
0000
0100
,
0000
2000
3000
0000
,
2002
0000
3003
0000
,
0000
0000
0000
0000
,
0002
0003
0002
0003
,
1000
0000
1000
0000
,
2002
0000
3003
0000
,
0000
0000
0000
0000
,
2000
3000
2000
3000
,
0001
0000
1000
0000
,
2002
0000
3003
0000
,
0000
0000
0000
0000
,
0002
0003
0002
0003
,
1000
0000
1000
0000
,
2002
0000
3003
0000
,
0110
0000
0000
0000
,
0220
0000
0330
0000
,
1001
0000
0000
0000
,
2002
0000
0000
0000
,
0000
0000
3003
0000
,
2002
0000
0000
0000
,
3003
2000
3002
1003
,
2002
0000
0000
0000
,
0000
0000
3003
0000
,
2002
0000
0000
0000
,
3003
0002
2003
3001
,
2002
0000
0000
0000
,
0000
0000
3003
0000
,
2002
0000
0000
0000
,
3003
0000
0000
0000
,
0002
0000
0003
0000
,
0020
0030
0200
0300
,
2000
0000
3000
0000
,
0200
0300
0020
0030
,
0002
0000
0003
0000
,
1000
0000
0000
0000
0000
0000
0000
0002
,
0000
0003
0000
0000
0000
0000
0000
0000
;

//--------------- dance-single - Pruz ----------------
#NOTEDATA:;
#STEPSTYPE:dance-single;
#DESCRIPTION:Pruz;
#DIFFICULTY:Easy;
#METER:8;
#RADARVALUES:0.312821,0.495809,0.148229,0.619867,0.010107,325,303,22,92,0,0,0,0,0,0.312821,0.495809,0.148229,0.619867,0.010107,325,303,22,92,0,0,0,0,0;
#CHARTNAME:Pruz;
#CHARTSTYLE:;
#CREDIT:Pruz;
#NOTES:
0000
0000
0000
0000
,
0000
0000
0000
0000
,
0000
0000
0000
0000
,
0000
0000
0000
0000
,
0000
0000
0000
0000
,
0000
0000
0000
0000
,
0000
0000
0000
0000
,
0000
0000
0000
0000
,
1100
0000
0100
0020
,
0030
0002
0000
1003
,
1010
0000
0010
0200
,
0300
0002
2003
3002
,
0023
0030
0200
0300
,
2000
3000
0200
0300
,
0020
0030
0002
0003
,
2000
3000
0010
0000
,
0100
0001
0100
0000
,
0010
1000
0001
0000
,
1000
0100
1000
0000
,
0001
0010
0100
1000
,
0002
0023
0031
0000
,
0200
0320
0130
0000
,
0002
2003
3010
0100
,
0001
1000
0100
0010
,
0001
0010
0100
0000
,
0010
0001
0010
0000
,
0001
1000
0010
0000
,
0100
0001
0100
0010
,
2000
3002
0013
0000
,
0200
0320
0031
0000
,
2000
3020
0230
0302
,
0203
0320
2030
3001
,
0011
0010
0110
0100
,
1100
0100
0101
0100
,
0110
0010
0011
0001
,
1001
1000
0010
0001
,
0101
0100
0020
0030
,
0001
1000
0010
0100
,
0001
0001
2000
3000
,
0100
0001
0010
0100
,
0001
0001
2000
3000
,
0010
0001
0100
0100
,
0010
0001
2000
3000
,
0020
0230
0302
1003
,
0010
0010
0200
0300
,
0001
1000
0100
0001
,
0010
0010
0200
0300
,
0001
0010
1000
0100
,
0010
0010
0100
0100
,
0002
2003
3020
2030
,
3001
0001
0100
0100
,
0002
2003
3020
1030
,
1001
0000
0100
0100
,
0020
0030
0001
0100
,
0110
0000
0000
0000
,
0000
0000
0000
0000
0000
0000
0020
0030
,
2000
0000
0000
0000
,
0000
0000
3000
0000
0200
0300
0200
0300
,
0020
0000
0000
0000
,
0030
0000
0000
0000
0000
0000
0002
0003
,
2000
0000
0000
3000
,
0020
0030
0200
0302
,
2003
0000
0000
3200
0320
0000
0000
0000
,
0030
0000
0000
0000
,
0001
0001
1000
1000
0010
0010
0100
0100
,
0002
0003
2000
3000
,
0020
0030
2000
3000
,
0002
0013
0000
0002
,
0003
2000
0000
3000
,
0020
0130
0000
0002
,
0003
2000
0000
3001
,
0011
0010
0200
0300
,
1000
0001
0100
0010
,
1000
1000
0002
0003
,
0010
1000
0100
0010
,
1010
1000
0002
0003
,
0100
1000
0010
0010
,
0100
2000
3001
0000
,
0100
0020
2030
3002
,
0103
0100
0020
0030
,
1000
0001
0010
1000
,
0100
0100
0020
0030
,
1000
0100
0001
0010
,
0100
0100
0010
0010
,
1000
0001
0100
0001
,
1000
1000
0010
0010
,
1000
0001
0100
0001
,
2000
0000
3100
0010
,
0002
0000
0013
0000
,
0100
1000
0001
0000
,
0100
0020
2030
3020
,
0230
0000
0301
1000
,
0020
0000
1030
0100
,
0020
0000
0031
0000
,
1000
0001
0100
0010
,
2000
0000
3100
0010
,
0002
0000
2003
0000
,
3001
0100
0010
0100
,
0002
0000
1003
0100
,
0110
0000
0001
1000
,
1010
0010
0110
0100
,
0101
0001
1001
1000
,
1100
0100
0010
0001
,
1001
0000
0100
0100
,
0010
0000
0000
0000
1001
0000
0000
0200
,
0000
0300
0000
0000
0000
0000
0000
0000
;

//--------------- dance-single - Pruz ----------------
#NOTEDATA:;
#STEPSTYPE:dance-single;
#DESCRIPTION:Pruz;
#DIFFICULTY:Medium;
#METER:10;
#RADARVALUES:0.362872,0.495809,0.269507,0.518801,0.010107,377,337,40,77,0,0,0,0,0,0.362872,0.495809,0.269507,0.518801,0.010107,377,337,40,77,0,0,0,0,0;
#CHARTNAME:Pruz;
#CHARTSTYLE:;
#CREDIT:Pruz;
#NOTES:
0000
0000
0000
0000
,
0000
0000
0000
0000
,
0000
0000
0000
0000
,
0000
0000
0000
0000
,
0000
0000
0000
0000
,
0000
0000
0000
0000
,
0000
0000
0000
0000
,
0000
0000
0000
0000
,
0011
0011
0000
2000
,
3000
0020
0000
1030
,
1100
1100
0000
2000
,
3000
0002
0000
0013
,
0002
2003
3020
2030
,
3002
0203
0302
0023
,
0230
2300
3200
0320
,
0032
0203
0310
1000
,
1001
0000
1000
0000
,
0010
0100
0001
0000
,
0010
0100
1000
0000
,
0200
0310
0002
1003
,
0010
0010
0100
0000
,
0001
0001
0010
0000
,
0100
0010
0001
1000
,
0010
0010
0100
0001
,
0100
0100
0010
0000
,
1000
0001
0010
0000
,
0001
1000
0100
0000
,
2000
3010
0200
0301
,
1000
1000
0010
0000
,
1000
1000
0001
0000
,
0020
0032
2003
3020
,
2030
3002
0023
0031
,
1000
1000
0001
0001
,
0100
0100
0010
0010
,
1000
1000
0100
0100
,
0001
0001
0100
0100
,
1100
1000
0020
0130
,
0001
0010
0100
0010
,
0011
0001
0101
0100
,
0010
1000
0001
0010
,
0110
0100
1100
1000
,
0001
0010
0100
1000
,
1010
0010
0200
0301
,
0011
0010
0110
0100
,
1100
1000
1001
0001
,
0100
1000
0100
0010
,
2000
3002
2003
0000
,
3100
0010
0001
0010
,
0110
0100
1100
1000
,
0001
0100
1000
0010
,
0011
0001
0101
0100
,
0001
0010
1000
0100
,
0110
0000
0010
0000
1010
0000
1000
0100
,
0010
0000
0001
0000
2000
0000
0000
3000
0002
0000
0000
0000
0013
0000
0000
0000
,
0110
0000
0000
0000
,
0000
0000
0000
0000
0000
0000
0200
0300
,
0200
0000
0000
0000
,
0000
0000
0300
0000
0020
0030
0002
0003
,
2000
0000
0000
0000
,
3000
0000
0000
0000
0000
0000
0020
0030
,
0020
0000
0000
0030
,
2000
0000
3002
0203
,
0320
0000
0000
2030
3200
0000
0000
0000
,
0300
0000
0000
0000
,
0020
0032
0023
0230
2300
3200
0320
0032
,
0023
0030
0200
0300
,
2000
3000
0002
0003
,
0200
0310
0000
2000
,
3000
0002
0000
0003
,
0200
0310
0000
2000
,
3000
0002
0000
1003
,
1010
1000
0200
0310
,
0001
0100
0010
0100
,
0101
0001
0011
0010
,
0100
1000
0001
0100
,
0110
0010
1010
1000
,
0001
0100
0010
1000
,
1100
0100
0010
0001
,
0101
0100
0110
0010
,
1010
1000
1001
0001
,
0010
1000
0010
0100
,
2000
3002
2003
0000
,
3010
0100
0001
0100
,
0110
0010
1010
1000
,
0001
0010
1000
0100
,
0101
0001
0011
0010
,
0001
0100
1000
0010
,
0001
0001
1000
1000
,
0010
0001
0100
0010
,
0100
0100
0010
0010
,
0001
0010
1000
0100
,
0010
0010
0100
0100
,
0001
0010
1000
0100
,
0010
0010
0100
0100
,
0010
1000
0100
0010
,
0001
0001
1000
1000
,
0010
0001
0100
0100
,
0010
0010
0100
0100
,
1000
0001
0010
1000
,
1100
0100
0020
1030
,
0100
0001
0010
1000
,
1100
1000
0020
0031
,
0100
0010
0001
1000
,
1020
0030
0100
0001
,
1002
0000
0003
0000
0100
0000
0020
2000
,
0000
3030
0000
0000
0000
0000
0000
0000
;

//--------------- dance-single - Pruz ----------------
#NOTEDATA:;
#STEPSTYPE:dance-single;
#DESCRIPTION:Pruz;
#DIFFICULTY:Hard;
#METER:11;
#RADARVALUES:0.393673,0.531224,0.357097,0.673768,0.010107,409,356,53,100,0,0,0,0,0,0.393673,0.531224,0.357097,0.673768,0.010107,409,356,53,100,0,0,0,0,0;
#CHARTNAME:Pruz;
#CHARTSTYLE:;
#CREDIT:Pruz;
#NOTES:
0000
0000
0000
0000
,
0000
0000
0000
0000
,
0000
0000
0000
0000
,
0000
0000
0000
0000
,
0000
0000
0000
0000
,
0000
0000
0000
0000
,
0000
0000
0000
0000
,
0000
0000
0000
0000
,
0011
0011
0001
0200
,
0310
2000
3001
1000
,
1100
1100
0100
0020
,
0031
0200
0310
1000
,
0002
0203
2300
3020
,
0032
0203
2300
3020
,
0032
0023
2030
3200
,
0302
0023
2030
3100
,
0001
0000
1000
0000
,
0010
0100
0001
0000
,
1000
0000
0100
0000
,
0010
0001
0100
0010
,
2000
3002
0013
0000
,
0002
2003
3100
0000
,
2000
3020
0031
0010
,
1000
0100
1000
0001
,
0010
0001
1000
0000
,
0010
1000
0001
0000
,
0100
0001
1000
0000
,
0100
1000
0010
0100
,
0002
0023
0130
0000
,
2000
3020
0130
0000
,
0001
0001
0010
0010
,
0100
1000
0001
0100
,
0110
0010
1010
1000
,
1001
0001
0011
0010
,
0110
0100
1100
1000
,
1001
0001
0200
0310
,
2000
0000
3010
0100
0002
0000
0103
0010
,
1000
0001
0010
0100
,
2000
3001
0101
0000
,
0100
0010
2000
3010
,
0200
0000
0301
0010
0200
0000
1300
0010
,
0100
0000
0001
0100
0010
0000
1000
0100
,
0010
0011
1001
0000
,
0001
0000
0100
0010
2000
0000
3010
0100
,
0002
1003
1100
0000
,
0100
0010
0001
1000
,
1010
1000
1100
0000
,
0100
0010
0002
1003
,
0002
0103
0110
0010
,
1000
0100
0010
0001
,
2000
3010
0110
0100
,
0001
0100
0010
1000
,
0002
0013
1010
1000
,
1100
0100
0110
0100
,
1001
0000
0000
0000
,
0000
0000
0000
0000
0000
0000
0002
0003
,
0002
0000
0000
0000
,
0000
0000
0003
0000
0200
0300
0020
0030
,
2000
0000
0000
0000
,
3000
0000
0000
0000
0000
0000
0020
0030
,
0020
0000
0000
0030
,
0200
0000
0302
0203
,
0320
0000
0000
2030
3002
0000
0000
0000
,
0003
0000
0000
0000
,
0200
2300
3020
0032
0203
0320
0230
0320
,
2030
3200
0302
0023
,
0230
2300
3020
0032
,
0203
0310
0000
0200
,
0300
2000
0000
3001
,
0200
0310
0000
2000
,
3000
0002
0013
1000
,
1002
0000
0103
0010
2000
0000
3010
0100
,
0001
1000
0100
0010
,
0001
1000
1010
0000
,
0010
0100
0002
0103
,
0020
0000
1030
0100
0020
0000
0031
0100
,
0010
0000
1000
0010
0100
0000
0001
0010
,
0100
1100
1001
0000
,
1000
0000
0010
0100
0002
0000
0103
0010
,
2000
3001
0011
0000
,
0010
0100
1000
0001
,
0101
0001
0011
0000
,
0010
0100
2000
3001
,
2000
3010
0110
0200
,
0301
0010
0110
0200
,
1300
0001
0100
0110
,
0010
1000
0002
1003
,
1100
0100
0110
0010
,
0001
1000
0010
0001
,
0100
0110
0010
1010
,
0010
0200
2300
3001
,
0011
0010
0110
0100
,
1100
1000
1001
0101
,
1001
1000
0100
0001
,
0011
0000
0010
1000
0200
0000
1300
0000
,
1010
0010
0110
0100
,
0002
2003
3200
0301
,
0010
0110
0100
1100
,
0100
0010
1000
0001
,
0101
0100
0002
0013
,
1000
0100
0001
0010
,
0110
0100
2000
3010
,
0001
0100
1000
0010
,
0110
0000
1001
0110
,
1002
0000
0003
0000
0011
0000
0200
2000
,
0000
3300
0000
0000
0000
0000
0000
0000
;

//--------------- dance-single - Pruz ----------------
#NOTEDATA:;
#STEPSTYPE:dance-single;
#DESCRIPTION:Pruz;
#DIFFICULTY:Challenge;
#METER:13;
#RADARVALUES:0.524577,0.779129,0.626604,1.078029,0.010107,545,452,93,160,0,0,0,0,0,0.524577,0.779129,0.626604,1.078029,0.010107,545,452,93,160,0,0,0,0,0;
#CHARTNAME:Pruz;
#CHARTSTYLE:;
#CREDIT:Pruz;
#NOTES:
0000
0000
0000
0000
,
0000
0000
0000
0000
,
0000
0000
0000
0000
,
0000
0000
0000
0000
,
0000
0000
0000
0000
,
0000
0000
0000
0000
,
0000
0000
0000
0000
,
0000
0000
0000
0000
,
0011
0000
0011
0000
0001
0000
2000
3020
,
0031
0000
0020
2030
3001
0000
1000
0000
,
1010
0000
1010
0000
1000
0000
0002
0023
,
1030
0000
0020
0032
1003
0000
0010
0000
,
0100
0100
0001
0001
,
1000
1000
0010
0010
,
1000
1000
0001
0001
,
0100
0000
0100
0000
0010
1000
0001
0000
,
1001
1000
1100
0000
,
0110
0010
0011
0000
,
0101
0001
1001
0000
,
1010
1000
1001
0001
,
1000
0010
0001
0000
0020
0000
1030
0000
,
0100
1000
0001
0000
0020
0000
0130
0000
,
1100
0000
1000
0001
0000
0010
0100
0000
,
1100
0000
1000
0001
0000
0100
0010
0000
,
1010
1000
1001
0000
,
0011
0001
0101
0000
,
0110
0010
1010
0000
,
1001
1000
1100
0110
,
0010
0001
0200
0000
0301
0000
1000
0000
,
0010
1000
0002
0000
0103
0010
1000
0000
,
0010
0000
0001
0010
1000
0000
0001
0010
,
0000
0100
0000
1000
0001
0000
0010
0000
,
0200
2300
3002
0023
,
0230
2300
3002
0203
,
2300
3200
0302
0203
,
0320
2030
3002
0013
,
0022
0033
0001
0000
1002
0000
0000
0000
,
1003
1100
1000
0010
,
0022
0033
0202
0303
0210
0000
0000
0000
,
1300
0000
0010
0100
0002
0000
0103
0000
,
2010
0000
3001
0000
2002
3003
0001
0000
,
0010
0100
0110
0100
,
1000
0001
0021
0031
,
1000
0010
0110
0010
,
1010
0000
1001
0000
0022
0033
0001
0000
,
0100
0010
1010
1000
,
2002
3003
0022
0033
0210
0000
0000
0000
,
1300
0000
0100
0000
0220
0330
0010
0000
,
0021
0000
0032
0203
2300
0000
3100
0000
,
0010
1000
0100
0010
,
0001
0000
2000
3020
0032
0000
0013
0000
,
1000
0100
0010
0001
,
1000
0000
0010
0200
0302
0000
0103
0010
,
1000
0100
0010
0000
0002
0000
1003
0000
,
1001
0000
0000
0000
,
0000
0000
0000
0000
0000
0000
1002
1003
,
2010
3010
1000
0100
0010
0010
0001
0100
,
1000
1000
0010
0100
0201
0301
0021
0031
,
2010
3001
1000
1000
0010
0001
0100
0100
,
0010
0010
0001
0001
1000
0010
0021
0031
,
0201
0301
0100
0100
1000
0010
0001
0001
,
0201
0310
0001
0001
0102
0103
1020
1030
,
2001
3001
0010
0010
0120
0130
0010
0010
,
1000
0001
1000
1000
0100
0001
0010
0010
,
0200
0320
1030
1000
0020
0032
0103
0100
,
0020
0032
0023
0230
2300
3200
2300
3002
,
0203
0320
2030
3020
2030
3002
0023
0030
,
2002
3003
2020
3030
0000
0000
0002
0000
,
0003
0200
0000
0310
,
2020
3030
0202
0303
0000
0000
2000
0000
,
3000
0000
0100
0010
0002
0000
0103
0000
,
0202
0303
0001
0000
1002
0000
0000
0000
,
1003
1010
1000
0100
,
0202
0303
0022
0033
0120
0000
0000
0000
,
1030
0000
0100
0010
0002
0000
0013
0000
,
2100
0000
3001
0000
2002
3003
0001
0000
,
0100
0010
0110
0010
,
1000
0001
0201
0301
,
1000
0100
0110
0100
,
1100
0000
1001
0000
0202
0303
0001
0000
,
0010
0100
1100
1000
,
2002
3003
0202
0303
0120
0000
0000
0000
,
1030
0000
0010
0000
0220
0330
0100
0000
,
0201
0000
0302
0023
2030
0000
3020
0000
,
0230
0000
0301
0010
1000
0000
0020
0000
,
0230
0000
1300
0001
1000
0000
0020
0030
,
0002
0203
0320
0032
2003
3200
0320
2030
,
3002
0003
0012
0000
0013
0000
0100
1000
,
0000
0100
0010
0000
0001
0000
1000
0000
,
0002
0003
0102
0000
0103
0000
0110
0010
,
0000
1000
0001
0000
1000
0001
0010
0000
,
0021
0000
0031
0000
0100
0000
0010
0100
,
0000
0001
0100
0000
0010
0000
1000
0000
,
0100
0101
0011
1010
,
1000
0100
0010
0000
0001
0010
0100
0000
,
2000
3000
2010
0000
3010
0000
0100
0001
,
0000
0100
0010
0000
1000
0000
0001
0000
,
1000
1100
0100
0110
,
0020
0031
2000
3010
,
0021
0000
0031
0100
2000
0000
3100
0000
,
0010
1000
0100
0010
,
0012
0000
0013
1000
0200
0000
0310
0000
,
1000
0001
0010
0001
,
0102
0000
0103
1000
0020
0000
0130
0010
,
0001
0100
0010
1000
0002
0000
1003
2002
,
0000
3003
0000
0000
0000
0000
0000
0000
;
