#TITLE:Infinitesimal;
#SUBTITLE:;
#ARTIST:Mother Mother;
#TITLETRANSLIT:;
#SUBTITLETRANSLIT:;
#ARTISTTRANSLIT:;
#GENRE:Alternative/Indie;
#CREDIT:;
#MUSIC:Infinitesimal.ogg;
#BANNER:Infinitesimal.png;
#BACKGROUND:Infinitesimal-bg.png;
#CDTITLE:;
#SAMPLESTART:34.217;
#SAMPLELENGTH:14.712;
#SELECTABLE:YES;
#OFFSET:0.860;
#BPMS:0.000=130.000;
#STOPS:;
#BGCHANGES:;
#FGCHANGES:;

//--------------- dance-single - Pruz ----------------
#NOTES:
     dance-single:
     Pruz:
     Beginner:
     3:
     0,0,0,0,0:
0000
0000
0000
0000
,
0000
0000
0000
0000
,
0000
0000
0000
0000
,
2000
0000
0000
0000
0000
3000
0000
0000
,
0200
0000
0000
0000
0000
0300
0000
0000
,
0020
0000
0000
0030
,
0002
0000
0000
0000
0000
0003
0000
0000
,
2000
0000
0000
0000
0000
3000
0000
0000
,
0020
0000
0000
0000
0000
0030
0000
0000
,
0200
0000
0000
0300
,
0002
0000
0000
1003
,
1000
0000
0010
0000
,
0100
0000
0001
0000
,
1000
0001
0100
0000
,
0001
0000
0001
0000
,
1000
0010
1000
0000
,
0001
1000
0100
0000
,
1000
0010
0010
0000
,
0100
0000
0001
1000
,
0010
0000
0100
0000
,
0002
0003
2000
3000
,
0010
0000
0100
0000
,
0002
0003
2000
3000
,
0100
0000
0010
0000
,
0002
0003
0002
0003
,
1000
0000
0010
0000
,
2000
3000
2000
3000
,
0001
0000
1000
0000
,
0010
0000
0000
0000
,
0100
0000
0001
0000
,
0100
0000
0010
0000
,
1000
0000
0010
0000
,
0100
0000
0001
0000
,
1000
0001
0100
0000
,
0001
0000
0001
0000
,
1000
0010
1000
0000
,
0001
1000
0100
0000
,
1000
0010
0010
0000
,
0100
0000
0001
1000
,
0100
0000
0010
0000
,
0002
0003
2000
3000
,
0010
0000
0100
0000
,
0002
0003
2000
3000
,
0010
0000
0100
0000
,
0002
0003
0002
0003
,
1000
0000
0100
0000
,
2000
3000
2000
3000
,
0001
0000
0100
0000
,
0010
0000
1000
0000
,
0001
0000
1000
0000
,
0100
0010
0000
0002
,
0000
0000
0000
0000
,
0000
0003
0000
2000
,
0000
0000
0000
0000
,
0000
3000
0020
0030
,
0200
0000
0000
0300
,
0000
0001
0000
0001
,
0000
1000
0000
1000
,
0000
0100
0000
0010
,
0002
0000
0000
0000
0000
0003
0000
0000
,
0200
0000
0000
0000
0000
0300
0000
0000
,
0020
0000
0000
0000
0000
0030
0000
0000
,
2000
0000
0000
3000
0000
0000
0000
0000
;

//--------------- dance-single - Pruz ----------------
#NOTES:
     dance-single:
     Pruz:
     Easy:
     5:
     0,0,0,0,0:
0000
0000
0000
0000
,
1000
0001
1000
0000
,
0010
1000
0010
0000
,
0100
0001
0100
0001
,
1000
0001
1000
0001
,
0010
0001
0010
0100
,
1000
0001
1000
0001
,
0100
0010
0100
0001
,
1000
0001
1000
0010
,
0100
0010
0100
0001
,
1000
0001
0010
0100
,
1000
0000
1000
0000
,
0100
0010
0001
0000
,
1000
0010
0100
0000
,
0001
0001
1000
0000
,
0010
0100
0100
0000
,
0010
1000
1000
0000
,
0010
0100
0100
0000
,
0001
0001
1000
0010
,
0100
0001
1000
0000
,
0100
0100
0010
0100
,
1000
1000
0001
0000
,
0100
0010
1000
0010
,
0100
0100
0001
0000
,
1000
1000
0100
0010
,
0001
0001
1000
0000
,
0001
0001
0100
0010
,
0000
1000
0000
1000
,
0000
0001
0010
0100
,
0000
1000
0000
1000
,
0000
0100
0010
0001
,
1000
0000
1000
0000
,
0100
0010
0001
0000
,
1000
0010
0100
0000
,
0001
0001
1000
0000
,
0010
0100
0100
0000
,
0010
1000
1000
0000
,
0010
0100
0100
0000
,
0001
0001
1000
0010
,
1000
0001
1000
0000
,
0100
0100
0010
0100
,
1000
1000
0001
0000
,
0100
0010
1000
0010
,
0100
0100
0001
0000
,
1000
1000
0100
0010
,
0001
0001
1000
0000
,
0001
0001
0100
0010
,
1000
0000
0001
0000
,
1000
0000
0100
0000
,
1000
0000
0001
0000
,
0100
0100
0010
2000
,
0000
0001
0000
0001
,
3100
0010
0001
0010
,
0200
1000
0000
1000
,
0310
0001
1000
0001
,
0020
0100
0000
0100
,
0031
0100
0010
0100
,
0002
1000
0000
1000
,
0103
0010
1000
1000
,
0001
1000
0001
0000
,
0010
0001
0010
0000
,
0100
1000
0100
0000
,
1000
0000
0002
0003
0000
0000
0000
0000
;

//--------------- dance-single - Pruz ----------------
#NOTES:
     dance-single:
     Pruz:
     Medium:
     8:
     0,0,0,0,0:
0000
0000
0000
0000
,
1000
0000
0001
0000
0010
0100
0000
0000
,
1000
0000
0001
0000
0100
0010
0000
0000
,
1000
0000
0001
0000
0010
0100
0000
0000
,
1000
0000
0001
0000
0100
0010
0000
0000
,
1000
0001
0010
0001
,
1000
0000
0001
0000
0100
0010
0000
0000
,
1000
0000
0001
0000
0010
0100
0000
0000
,
1000
0000
0001
0000
0100
0010
0000
0000
,
1000
0001
0010
0001
,
1000
0000
0001
0000
0100
0000
0010
1000
,
0001
0010
0100
0000
1000
0100
0010
0000
,
0001
1000
0001
0000
0010
0000
0001
0100
,
0010
1000
0001
0010
,
0001
1000
0100
1000
0001
0000
0100
0010
,
1000
0000
0001
1000
0001
0000
0010
0100
,
0000
0010
0001
1000
0001
0000
0100
0010
,
1000
0001
1001
1000
,
0100
0010
0001
0010
0100
0000
1001
0000
,
1000
0001
0010
0100
,
1000
0001
0100
0001
1000
0000
1001
0000
,
1000
0001
0010
0001
,
1000
0001
0100
0001
1000
0000
1001
0000
,
1000
0100
0010
0100
,
1000
0001
0010
0001
1000
0000
1001
0000
,
1000
0000
0010
0100
0001
0000
0001
0100
,
0000
0010
1000
0001
1000
0000
1001
0000
,
1000
0000
0100
0000
0010
0001
0010
0000
,
0100
1000
1000
1000
,
0001
0000
0100
0010
1000
0000
0010
0000
,
0100
0001
1000
0000
0100
1000
0001
0000
,
1000
1000
0001
0000
0001
0001
1000
0000
,
1000
0010
0100
0000
0001
0000
1000
0100
,
0010
0100
1000
0001
,
1000
0001
0010
0001
1000
0000
0001
0001
,
0100
0000
0001
1000
0010
0000
1000
0001
,
0000
1000
0100
1000
0001
0000
1000
0100
,
0010
0001
1001
1000
,
0100
0010
0001
0010
0100
0000
1001
0000
,
1000
0001
0010
0100
,
1000
0001
0100
0001
1000
0000
1001
0000
,
1000
0001
0100
0001
,
1000
0001
0010
0001
1000
0000
1001
0000
,
1000
0100
0010
0100
,
1000
0001
0100
0001
1000
0000
1001
0000
,
1000
0000
0010
0100
0001
0000
0001
0100
,
0000
0010
1000
0001
1000
0000
1001
0000
,
1000
0000
0100
0000
0010
0001
0010
0000
,
0100
0000
1000
0000
0001
1000
0001
0000
,
0100
0000
0010
1000
0010
0000
0100
0000
,
0001
1000
0001
0010
0000
0100
1000
0000
,
0001
0000
0100
0000
0010
1000
0010
0000
,
0100
0001
0001
0001
,
1000
0000
0100
0010
0001
0000
0010
0000
,
0100
1000
0001
0000
0100
0001
1000
0000
,
0001
0000
0010
0000
0100
1000
0100
0000
,
0010
0001
0001
0001
,
1000
0000
0010
0100
0001
0000
0100
0000
,
0010
1000
0001
0000
0010
0001
1000
0000
,
0001
0000
1000
0000
0010
0100
0000
0000
,
0001
0000
1000
0000
0100
0010
0000
0000
,
0001
0000
1000
0000
0010
0100
0000
0000
,
0001
0000
1000
0200
0300
0000
0000
0000
;

//--------------- dance-single - Pruz ----------------
#NOTES:
     dance-single:
     Pruz:
     Hard:
     9:
     0,0,0,0,0:
0000
0000
0000
0000
,
1000
0000
0100
0000
0010
0001
1000
0000
,
0001
0000
0100
0000
0010
1000
0001
0000
,
1000
0000
0100
0000
0010
0001
1000
0000
,
0001
0000
0100
0000
0010
1000
0001
0000
,
1000
0000
0100
0000
0010
0001
1000
0000
,
0001
0000
0010
0000
0100
1000
0001
0000
,
1000
0000
0100
0000
0010
0001
1000
0000
,
0001
0000
0100
0000
0010
1000
0001
0000
,
1000
0000
0100
0000
0010
0001
1000
0000
,
0001
0000
0100
0000
0010
1000
0001
0000
,
1000
1000
0100
0000
0010
0010
0100
0000
,
1000
0001
0010
0000
0100
1000
0001
0000
,
1000
1000
0100
1000
,
0001
0010
0100
0000
1000
0100
0010
0001
,
1000
0000
0001
0010
0001
0000
1000
0001
,
0000
1000
0100
1000
0100
0000
1000
0100
,
0010
0000
0001
0000
0101
0000
0000
0100
,
0010
0100
1000
0100
0001
0000
1001
0000
,
0001
0000
0010
0001
1000
0001
1000
0100
,
0010
0010
0001
0001
1000
0001
1000
0000
,
0100
0000
1000
0001
0100
0000
0001
1000
,
0010
0010
1000
1000
0001
1000
0001
0100
,
0001
0000
0010
0001
1000
0001
1000
0100
,
0010
0010
0001
0001
1000
0001
1000
0000
,
0100
0000
1000
0001
0100
0000
0001
1000
,
0010
0010
1000
1000
0001
1000
0001
0100
,
0010
1000
0001
1000
,
0100
0010
0001
0000
0001
0000
0001
0000
,
0010
0000
0100
1000
0100
0010
0001
0000
,
1000
0000
0010
0000
1000
0001
1000
0000
,
0001
0001
0100
0000
0010
0010
0100
0000
,
0001
1000
0010
0000
0100
0001
1000
0000
,
0001
0001
0100
0001
,
1000
0010
0100
0000
0001
0100
0010
1000
,
0001
0000
1000
0010
1000
0000
0001
1000
,
0000
0001
0100
0001
0100
0000
0001
0100
,
0010
0000
1000
0000
1100
0000
0000
0100
,
0010
0100
0001
0100
1000
0000
1001
0000
,
1000
0000
0010
1000
0001
1000
0001
0100
,
0010
0010
1000
1000
0001
1000
0001
0000
,
0100
0000
0001
1000
0100
0000
1000
0001
,
0010
0010
0001
0001
1000
0001
1000
0100
,
1000
0000
0010
1000
0001
1000
0001
0100
,
0010
0010
1000
1000
0001
1000
0001
0000
,
0100
0000
0001
1000
0100
0000
1000
0001
,
0010
0010
0001
0001
1000
0001
1000
0100
,
0010
0001
1000
0001
,
0100
0010
1000
0001
,
1000
0100
0010
0001
,
1000
0001
1000
0010
0000
1000
0001
0000
,
1000
0100
0010
0001
,
1000
0010
0100
0001
,
1000
0001
0010
0100
,
1000
0001
1000
0100
,
0010
0001
1000
0001
,
0100
0010
1000
1000
,
0001
0010
0100
1000
,
0001
1000
0001
0001
,
1000
0000
0100
0000
0010
0001
1000
0000
,
0001
0000
0100
0000
0010
1000
0001
0000
,
1000
0000
0100
0000
0010
0001
1000
0000
,
0001
0000
1000
0200
0300
0000
0000
0000
;

//--------------- dance-single - Pruz ----------------
#NOTES:
     dance-single:
     Pruz:
     Challenge:
     12:
     0,0,0,0,0:
0000
0000
0000
0000
,
1000
0000
0001
0000
1000
0020
0230
0300
,
0001
0000
1000
0000
0001
0020
0230
0300
,
1000
1000
0001
0001
1000
0020
0230
0301
,
1000
1000
0001
0001
1000
0200
0320
0031
,
1000
1000
0010
0010
1000
0001
0200
0301
,
1000
1000
0100
0100
1000
0002
0023
0031
,
1000
1000
0100
0100
1000
0002
0023
0130
,
1000
1000
0001
0001
0010
0002
0203
0310
,
1000
1000
0100
0100
1000
0001
0200
0310
,
1000
1000
0001
0001
0100
0001
0010
0100
,
1000
1000
0001
0000
0100
0100
0001
0000
,
1000
0010
0100
0001
1000
1000
0001
0001
,
0010
0001
0100
0000
0010
1000
0100
0000
,
1000
1000
0001
0001
0010
0100
1000
0100
,
0010
0000
0011
1001
0011
0000
0001
0100
,
0000
0010
1010
0110
1010
0000
1000
0100
,
0010
0001
1000
0000
0110
0000
1000
0100
,
0010
0100
0001
0100
1000
0000
1001
0000
,
1000
1000
0001
0001
0010
0100
1000
0100
,
0010
0010
0001
0001
1000
0001
0100
0001
,
1000
1000
0100
0100
0010
0100
1000
0100
,
0010
0010
0001
0001
1000
0001
0100
0001
,
1000
1000
0001
0001
0010
0100
1000
0100
,
0010
0010
0001
0001
1000
0001
0100
0001
,
1000
1000
0100
0100
0010
0100
1000
0100
,
0010
0010
0001
0001
1000
0001
0100
0001
,
1000
0100
0001
0010
0100
0001
0100
0010
,
1000
0010
0001
0100
0001
0010
1000
0000
,
0001
0100
1000
0010
0100
1000
0100
0010
,
0001
0010
1000
0100
1000
0010
0001
0000
,
1000
1000
0001
0000
0100
0100
0001
0000
,
1000
0010
0100
0001
1000
1000
0001
0001
,
0010
0001
0100
0000
0010
1000
0100
0000
,
1000
1000
0001
0001
0010
0100
1000
0100
,
0010
0000
0011
1001
0011
0000
0001
0100
,
0000
0010
1010
0110
1010
0000
1000
0100
,
0010
0001
1000
0000
0110
0000
0001
0100
,
0010
0100
1000
0100
0001
0000
1001
0000
,
0001
0001
1000
1000
0100
0010
0001
0010
,
0100
0100
1000
1000
0001
1000
0010
1000
,
0001
0001
0010
0010
0100
0010
0001
0010
,
0100
0100
1000
1000
0001
1000
0010
1000
,
0001
0001
1000
1000
0100
0010
0001
0010
,
0100
0100
1000
1000
0001
1000
0010
1000
,
0001
0001
0010
0010
0100
0010
0001
0010
,
0100
0100
1000
1000
0001
1000
0010
1000
,
0001
0001
0100
0100
1000
1000
0010
0010
,
0001
0001
0010
0010
1000
1000
0100
0100
,
0001
0001
0100
0100
1000
1000
0010
0100
,
0010
0001
0010
0100
0000
1000
0001
0010
,
0100
1000
0100
0010
0001
1000
0001
0010
,
1000
0010
0001
0010
1000
0100
0010
1000
,
0100
0001
0100
0010
1000
0001
1000
0010
,
0001
0010
1000
0010
0001
0100
0010
0001
,
0010
1000
0010
0100
1000
0001
1000
0100
,
0001
0100
1000
0100
0001
0010
0100
0001
,
0010
0001
0010
0100
1000
0001
1000
0100
,
0001
0100
1000
0100
0001
0010
0100
0000
,
1000
0000
0001
0000
1000
0020
0230
0300
,
0001
0000
1000
0000
0001
0020
0230
0300
,
1000
0000
0001
0000
1000
0020
0230
0300
,
0001
0000
1000
0200
0300
0000
0000
0000
;
