#TITLE:けものになりたい!;
#SUBTITLE:;
#ARTIST:超学生;
#TITLETRANSLIT:Kemono ni Naritai;
#SUBTITLETRANSLIT:;
#ARTISTTRANSLIT:Chogakusei ft. PinocchioP;
#GENRE:J-Rock;
#CREDIT:;
#MUSIC:I wanna be a KEMONO.ogg;
#BANNER:I wanna be a KEMONO!!!.png;
#BACKGROUND:I wanna be a KEMONO!!!-bg.png;
#CDTITLE:;
#SAMPLESTART:51.623;
#SAMPLELENGTH:20.585;
#SELECTABLE:YES;
#OFFSET:-0.024;
#BPMS:0.000=186.000;
#STOPS:;
#ORIGIN:;
#PREVIEWVID:;
#JACKET:I wanna be a KEMONO!!!-jacket.png;
#CDIMAGE:;
#DISCIMAGE:;
#BGCHANGES:0.000=I wanna be a KEMONO!!!.avi=1.000=0=0=0=StretchNoLoop====,
99999.000=-nosongbg-=1.000=0=0=0=StretchNoLoop====
;
#FGCHANGES:;

//--------------- dance-single - Pruz ----------------
#NOTES:
     dance-single:
     Pruz:
     Beginner:
     4:
     0.126187,0.225922,0.022649,0.045298,0,117,114,3,6,0,0,0,0,0,0.126187,0.225922,0.022649,0.045298,0,117,114,3,6,0,0,0,0,0:
0000
0000
0000
0000
,
0000
0000
0000
0000
,
0010
0000
0000
0000
,
0000
0000
0000
0000
,
0010
0000
0000
0000
,
0000
0000
0000
0000
,
0010
0000
0000
0000
,
1000
0000
0000
0000
,
0001
0000
1000
0000
,
0010
0000
0000
0000
,
1000
0000
0000
0000
,
1000
0000
0000
0000
,
0001
0000
0000
0000
,
0001
0000
0000
0000
,
0100
0000
0000
0000
,
0100
0000
0000
0000
,
0010
0000
0000
0000
,
0010
0000
0000
0000
,
1000
0000
0000
0000
,
0000
0000
0000
0000
,
1000
0000
0000
0000
,
0000
0000
0000
0000
,
0010
0000
0000
0000
,
0100
0000
0000
0000
,
0001
0000
0000
0000
,
1000
0000
0000
0000
,
0000
0010
0010
0000
,
1000
1000
0000
0001
,
0001
0000
0100
0100
,
0000
0001
0001
0000
,
1000
1000
0000
0000
,
0010
0010
0010
0000
,
0100
0000
0000
0000
,
0100
0000
0000
0000
,
0001
0000
0000
0000
,
0001
0000
0000
0000
,
0000
1000
0000
1000
,
0000
0000
0000
0000
,
0100
0000
0000
0000
,
0000
0000
0000
0000
,
1000
0000
0000
0000
,
1000
0000
0000
0000
,
0100
0000
0000
0000
,
0100
0000
0000
0000
,
0010
0000
0000
0000
,
0010
0000
0000
0000
,
0001
0000
1000
0000
,
0001
0000
0001
0000
,
1000
0000
0000
0000
,
1000
0000
0000
0000
,
0010
0000
0000
0000
,
0010
0000
0000
0000
,
0100
0000
0000
0000
,
0100
0000
0000
0000
,
0001
0000
1000
0000
,
0001
0000
0001
0000
,
1000
0000
0000
0000
,
1000
0000
0000
0000
,
0100
0000
0000
0000
,
0100
0000
0000
0000
,
0010
0000
0000
0000
,
0010
0000
0000
0000
,
0001
0000
0000
0000
,
0001
0000
0000
0000
,
2000
0000
0000
0000
,
0000
0000
3000
0000
,
0002
0000
0000
0000
,
0000
0003
0000
0000
,
2000
0000
0000
0000
,
0000
0000
3000
0000
,
0002
0000
0000
0000
,
0003
0000
0000
0000
,
1000
0000
0000
0000
,
1000
0000
0001
0000
,
0100
0000
0000
0000
,
0100
0000
0001
0000
,
1000
0000
0000
0000
,
1000
0000
0001
0000
,
0010
0000
0010
0000
,
0000
0000
0000
0000
,
0001
0000
1000
0000
,
0010
0000
0000
0000
,
1000
0000
0001
0000
,
0010
0000
0000
0000
,
0001
0000
0000
0000
,
1000
0000
0100
0000
,
0010
0000
0001
0000
,
1000
0000
0000
0000
,
0001
0000
0000
0000
,
0001
0000
0000
0000
,
1000
0000
0000
0000
,
1000
0000
0000
0000
,
0100
0000
0000
0000
,
0100
0000
0000
0000
,
0010
0000
0010
0000
,
0001
0000
0001
0000
,
1000
0000
1000
0000
,
0100
0000
0000
0000
,
2002
0000
0000
3003
,
0000
0000
1001
1001
;

//--------------- dance-single - Pruz ----------------
#NOTES:
     dance-single:
     Pruz:
     Easy:
     8:
     0.402287,0.527152,0.437878,0.037748,0,373,315,58,5,0,0,0,0,0,0.402287,0.527152,0.437878,0.037748,0,373,315,58,5,0,0,0,0,0:
0000
0000
0000
0000
,
0000
0000
0000
0000
,
1000
0001
0010
0100
,
1000
0001
0011
0000
,
0001
1000
0100
0010
,
0001
1000
1100
0000
,
1000
1000
0001
0001
,
0100
0010
1000
0000
,
1001
0000
0110
0000
,
1000
0100
0010
0000
,
0011
1001
1000
0100
,
0010
0010
0011
1001
,
0101
1001
0001
0100
,
0010
0010
1010
1001
,
1100
1001
1000
0100
,
0010
0010
0011
1001
,
1100
0100
0010
0010
,
0001
1000
0001
0000
,
0100
0001
1000
0001
,
0010
0100
1000
0000
,
0001
1000
0010
1000
,
0001
0100
0010
0000
,
1000
1000
0001
0000
,
0010
0010
0100
0000
,
1000
0001
0010
0200
,
0000
0000
0000
0000
,
1300
0000
0001
1000
,
0000
0010
1000
0000
,
0001
1000
0000
0100
,
1000
0000
0100
0010
,
0000
0001
0010
0000
,
0100
0010
0000
0001
,
1001
0000
0000
0000
,
0110
0000
0000
0000
,
1001
0000
0000
0000
,
0110
0000
0000
0010
,
0001
1001
1000
1010
,
0010
0100
0001
1000
,
1001
0000
0000
0000
,
1000
0100
0010
0000
,
0001
1000
0010
0100
,
0001
1000
1010
0000
,
1000
0001
0100
0010
,
1000
0001
0101
0000
,
0001
0001
1000
1000
,
0100
0010
0001
0000
,
1001
0000
0110
0000
,
0001
0100
0010
0000
,
1010
1001
0001
0100
,
0010
0010
1010
1001
,
1100
1001
1000
0100
,
0010
0010
0011
1001
,
0101
1001
0001
0100
,
0010
0010
1010
1001
,
0101
0100
0010
0010
,
1000
0001
1000
0000
,
1000
0100
0010
0010
,
0001
0100
0010
0010
,
1000
0100
0010
0010
,
0001
0100
0010
0010
,
1000
0001
0100
0100
,
0001
1000
0100
0100
,
1000
0001
0010
0010
,
0001
1000
0010
0010
,
0100
0000
0100
0000
,
0001
0100
0010
0000
,
1000
0000
1000
0000
,
0100
0010
0000
0000
,
0001
0000
0001
0000
,
0100
0010
1000
0000
,
0100
0000
0010
0000
,
0001
0000
0000
0000
,
1000
0001
0010
0001
,
1000
0100
0010
0000
,
0001
1000
0001
1000
,
0010
0100
0001
0000
,
1000
0010
1000
0001
,
1000
0100
0010
0000
,
0011
0000
1010
0000
,
1000
0100
0010
0001
,
1000
1000
0010
0010
,
0100
0001
1000
1001
,
0001
0010
0100
1000
,
0001
0001
1001
0000
,
1000
1000
0010
0010
,
0100
0001
1000
0000
,
1100
0000
0101
0000
,
0001
1000
0001
0000
,
0010
0100
1000
1000
,
0001
1000
1010
1010
,
0001
0100
0010
0010
,
1000
0001
0011
0011
,
0001
1000
0100
0010
,
0001
0001
0101
0101
,
1001
1000
0010
0001
,
0010
1000
0001
0010
,
1000
0010
0001
1000
,
0001
0000
0000
0000
,
2002
0000
0000
3003
0000
0000
2002
0000
,
0000
3003
0000
0000
0110
0000
1001
0000
;

//--------------- dance-single - Pruz ----------------
#NOTES:
     dance-single:
     Pruz:
     Medium:
     12:
     0.583478,0.60246,0.339733,0.037748,0,541,496,45,5,0,0,0,0,0,0.583478,0.60246,0.339733,0.037748,0,541,496,45,5,0,0,0,0,0:
0000
0000
0000
0000
,
0000
0000
0000
0000
,
1000
0000
0001
0010
0100
0000
1000
0001
,
0010
0001
1000
0001
0100
0000
1001
0000
,
1000
0000
0100
0010
0001
0000
1000
0001
,
0010
0001
1000
0100
0010
0000
1001
0000
,
1000
0000
0010
1000
0001
0000
0100
0001
,
1000
0001
0010
0000
0100
0000
1000
0001
,
0010
0000
0001
1000
0100
0000
1000
0001
,
0010
0100
1000
0001
1000
0000
0000
0000
,
0010
0000
1000
0000
0001
1000
0001
1000
,
0100
0010
0011
1001
,
1000
0000
0010
1000
0001
1000
0100
0000
,
0010
0001
1001
0110
,
1000
0000
0100
0010
0001
1000
0001
0000
,
0100
0010
1010
1001
,
1000
0000
0100
0010
0001
0000
0010
0100
,
1000
0001
1000
0010
0100
0000
0000
0000
,
0001
0000
1000
0100
0010
0000
0001
1000
,
0010
1000
0001
0100
0010
0000
1010
0000
,
1000
0000
0001
0010
0100
0000
1000
0001
,
0010
0001
1000
0100
0010
0000
0011
0000
,
0001
0000
1000
0001
0010
0100
0000
0000
,
1000
0000
0001
0100
0010
1000
0000
0000
,
0001
0000
1000
0100
0010
0000
0001
1000
,
0000
0010
1000
0001
0100
0010
1000
0001
,
1000
0100
0010
0001
,
1000
0000
0001
0010
0100
1000
0001
0000
,
0100
0001
1000
0000
0100
1000
0001
0000
,
0010
0100
1000
0001
,
0100
0000
0001
1000
0010
0000
0100
0000
,
0001
1000
0001
0010
,
0100
0000
1000
0001
0010
0000
0001
1000
,
0010
0100
0000
0101
0000
0000
1000
0000
,
0100
0000
0010
0001
0000
1000
0001
0010
,
0100
0000
1000
0001
0000
0000
0100
0000
,
0010
1010
1000
1001
,
0001
0011
0000
0110
0000
1100
1000
0001
,
0010
0000
0000
0000
,
0100
1000
0001
1000
0010
0000
1001
0000
,
0001
0000
1000
0010
0100
0000
0001
1000
,
0010
1000
0001
0100
0010
0000
1001
0000
,
1000
0000
0100
0010
0001
0000
1000
0001
,
0100
0001
1000
0100
0010
0000
1001
0000
,
0001
0000
0010
0100
1000
0000
0100
0010
,
0001
1000
0001
0000
0010
0000
0100
1000
,
0001
0000
0100
0001
1000
0000
0100
0010
,
0001
0010
0100
1000
0002
0000
2003
0000
,
3010
0000
0100
0000
0010
1000
0010
0100
,
0001
1000
1010
1001
,
0001
0000
0010
0001
1000
0001
0100
0000
,
0010
1000
1001
0110
,
0001
0000
1000
0001
0100
0010
1000
0000
,
0001
0010
0110
1001
,
1000
0000
0010
0100
0001
0000
1000
0001
,
0010
0001
1000
0100
0010
0000
0000
0000
,
0001
0000
1000
0001
0100
0000
0010
0000
,
1000
0000
0001
1000
0100
0000
0010
0000
,
0001
0000
1000
0010
0100
0000
0001
0000
,
1000
0000
0001
0010
0100
0000
1000
0000
,
0001
0000
0100
0010
1000
0000
0001
0000
,
1000
0000
0100
0010
0001
0000
1000
0000
,
0001
0000
0100
0010
1000
0000
0001
0000
,
1000
0100
0010
0001
,
1000
1000
0001
0001
,
0010
0100
1000
0000
,
0001
1000
0010
1000
,
0001
0100
0010
0000
,
1000
1000
0001
0001
,
0010
0100
1000
0000
,
0001
0100
0001
1000
,
0200
0000
0300
0000
,
1000
0000
0001
0010
0100
0000
1000
0001
,
0010
0001
1000
0001
0100
0000
1001
0000
,
1000
0000
0100
0010
0001
0000
1000
0001
,
0010
0001
1000
0100
0010
0000
1001
0000
,
1000
0000
0010
1000
0001
0000
0100
0001
,
1000
0001
0010
0000
0100
0000
1000
0001
,
0010
0000
0001
1000
0100
0000
1000
0001
,
0010
0100
1000
0001
2000
0000
3002
0000
,
0013
0000
0001
0000
1000
0001
1000
0001
,
0100
0010
1010
1001
,
0001
0000
0010
0001
1000
0001
0100
0000
,
0010
1000
1001
0110
,
0001
0000
0100
0010
1000
0001
1000
0000
,
0100
0010
0011
1001
,
0001
0000
0100
0010
1000
0000
0010
0100
,
0001
1000
0001
0010
0100
0000
0000
0000
,
1000
0000
0001
0010
0100
0000
1000
0000
,
0001
0100
0110
1001
,
1000
0000
0010
0100
0001
0000
1000
0000
,
0001
0010
0110
1001
,
1000
0000
0010
0100
0001
0000
0100
0000
,
0010
1000
1001
0110
,
0001
0000
0010
0100
1000
0000
0010
0100
,
0001
0000
0100
0010
1000
0000
0100
0010
,
0001
0000
1000
0100
0010
0000
0001
0100
,
0010
0000
0000
0000
,
2002
3003
0000
0022
0033
0000
2002
3003
,
0000
2020
3030
0000
1001
0000
1001
0000
;

//--------------- dance-single - Pruz ----------------
#NOTES:
     dance-single:
     Pruz:
     Hard:
     15:
     0.778689,0.904822,0.505825,0.309534,0.041523,722,655,67,41,0,0,0,0,0,0.778689,0.904822,0.505825,0.309534,0.041523,722,655,67,41,0,0,0,0,0:
0000
0000
0000
0000
,
0000
0000
0000
0000
,
1000
0001
1000
0100
1000
0001
1000
0010
,
0100
0010
0001
0010
1000
0000
1001
0000
,
0001
1000
0001
0010
0001
1000
0001
0100
,
0010
0100
1000
0100
0001
0000
1001
0000
,
1000
0100
0001
1000
0010
0001
1000
0001
,
1000
0010
0001
0000
1001
0000
1000
0100
,
0001
0000
1000
0010
0100
0000
0001
0100
,
0010
1000
0001
0000
0010
0001
1000
0000
1001
0000
0000
0000
0000
0000
0000
0000
,
1100
0000
1001
0000
0001
0010
0100
1000
,
0001
0100
0001
1000
1001
0000
0011
0000
,
1001
0000
1000
0100
0001
0100
1000
0001
,
0010
0001
1000
0001
0101
0000
1001
0000
,
0001
0100
1000
0100
0010
0100
0001
1000
,
0001
0100
0010
1000
1001
0000
0110
0000
,
0101
0001
0100
0010
1010
1000
0001
0010
,
0110
0110
0110
0110
0220
0000
0330
0000
,
1000
0010
0100
0001
1000
0001
0010
0100
,
1000
0100
0010
0001
1000
0000
0110
0000
,
0001
0100
0010
1000
0001
1000
0100
0010
,
0001
0010
0100
1000
0001
0100
0100
0100
,
0010
0001
0010
1000
0010
0100
0101
0001
,
1000
0100
0010
0100
1000
0001
0101
0100
,
0010
1000
0010
0100
0001
1000
0001
0010
,
1000
0010
0001
0010
1000
0010
0010
0010
,
0002
2003
3200
0320
,
0032
2003
3002
0203
0320
0000
2030
0000
,
3020
0230
0302
0000
2003
3002
0203
0000
,
0320
2030
3002
2003
,
3200
0000
0320
0000
0032
0000
2003
3002
,
0203
0000
0302
0000
2003
0000
3200
0310
,
0011
0000
1000
0001
0000
0100
0001
1000
,
0010
0100
0000
0101
0000
0001
1000
0001
,
0011
0000
1000
0001
0000
0100
0001
1000
,
0010
0100
0000
0101
0000
0001
1000
0001
,
0100
0010
2020
3030
1000
0001
0022
0033
,
0010
0002
1003
0020
1030
0002
0203
0320
,
2030
3000
0000
0000
0000
0000
0000
0000
,
0001
0002
1003
2000
3010
0000
0110
0000
,
0001
1000
0001
0100
0001
1000
0001
0010
,
0100
0010
1000
0010
0001
0000
1001
0000
,
1000
0001
1000
0010
1000
0001
1000
0100
,
0010
0100
0001
0100
1000
0000
1001
0000
,
0001
0100
1000
0001
0010
1000
0001
1000
,
0001
0010
1000
0000
1001
0000
0001
0100
,
1000
0000
0001
0010
0100
0000
1000
0100
,
0010
0001
1000
0000
0010
1000
0001
0000
1001
0000
0000
0000
0110
0000
0000
0000
,
1000
0001
1000
0010
1000
0001
1000
0100
,
1000
0010
0100
0010
1000
0000
1001
0000
,
1000
0001
0100
0001
1000
0001
0010
0001
,
1000
0100
0010
0100
1000
0000
1001
0000
,
1000
0100
0001
1000
0010
0001
1000
0001
,
1000
0010
0001
0000
1001
0000
1000
0100
,
0001
0000
1000
0010
0100
0000
0001
0100
,
0010
1000
0001
0000
0010
0001
1000
0000
1001
0000
0000
0000
0010
0000
0000
0000
,
0011
0000
1001
0000
1000
0100
0010
0001
,
1000
0010
1000
0001
1000
0000
1100
0000
,
1001
0000
0001
0010
0100
1000
0001
0100
,
0001
1000
0001
0000
0011
0000
1001
0000
,
1000
0010
0001
0010
0100
0010
1000
0001
,
1000
0010
0100
0001
1001
0000
0110
0000
,
1000
0100
0010
0001
1000
0010
1000
0001
,
0010
1000
0010
0100
0010
0001
0010
0100
,
1000
0001
1000
0001
0100
0010
0100
0010
,
1000
0010
0100
0001
1000
0001
0000
0010
,
0100
0000
1000
0001
0000
1000
0010
0100
,
0001
0100
0010
1000
0000
0001
1000
0000
,
0100
1000
0100
0010
0001
1000
0001
0100
,
0010
1000
0001
1000
0000
0000
0100
0000
,
0110
0000
0010
0001
0010
0100
1000
0001
,
1000
0000
0000
0001
0100
0001
1000
0000
,
1001
0001
1000
0100
1000
0001
1000
0010
,
1000
0100
0010
0100
1000
0000
1001
0000
,
1000
0001
0010
0001
1000
0001
0100
0001
,
1000
0010
0100
0010
1000
0000
1001
0000
,
1000
0100
0001
1000
0010
0001
1000
0001
,
1000
0010
0001
0000
1001
0000
1000
0100
,
0001
0000
1000
0010
0100
0000
0001
0100
,
0010
1000
0001
0000
0010
0001
1000
0000
0001
0000
1000
0001
0100
0000
0000
0000
,
0001
1000
0001
0010
0001
1000
0001
0100
,
0001
0010
0100
0010
0001
0000
1001
0000
,
0001
1000
0100
1000
0001
1000
0010
1000
,
0001
0100
0010
0100
0001
0000
1001
0000
,
0001
0100
1000
0001
0010
1000
0001
1000
,
0001
0010
1000
0000
1001
0000
0001
0100
,
1000
0000
0001
0010
0100
0000
1000
0100
,
0010
0001
0100
0000
0010
1000
0100
0000
0220
0000
0000
0000
0330
0000
0000
0000
,
0001
0100
0010
1000
0001
1000
0100
1000
,
0001
0010
1000
0010
0100
0000
1001
0000
,
0001
0100
0010
1000
0001
1000
0100
0010
,
0011
0001
1001
1000
1010
0000
0110
0000
,
0001
0100
0010
1000
0001
1000
0100
0010
,
0001
1000
0100
1000
1001
0000
0110
0000
,
0001
0100
0010
1000
0001
1000
0100
0010
,
0001
1000
0100
0010
0001
1000
0010
0100
,
0001
1000
0010
1000
0001
0100
0010
1000
,
0001
0000
0000
1000
0100
1000
0001
0010
,
0220
0330
0000
0022
0033
0000
2002
3003
,
0000
2020
3030
0000
1000
0100
0010
0001
;

//--------------- dance-single - Pruz ----------------
#NOTES:
     dance-single:
     Pruz:
     Challenge:
     16:
     0.990079,0.980224,0.78516,0.317084,0.366157,918,814,104,42,0,0,0,0,0,0.990079,0.980224,0.78516,0.317084,0.366157,918,814,104,42,0,0,0,0,0:
0000
0000
0000
0000
,
0000
0000
0000
0000
,
1001
0000
0001
0010
0001
0000
1000
0000
0001
0000
0100
0000
0010
0000
1000
0000
,
0001
0000
1000
0010
1000
0000
0001
0000
0010
0000
0100
1000
0001
0000
0000
0000
,
1001
0000
1000
0010
1000
0000
0001
0000
1000
0000
0100
0000
1000
0000
0001
0000
,
0100
0010
1000
0001
1000
0100
0010
0000
,
1001
0000
1000
0010
1000
0000
0001
0000
0100
0000
0010
0000
1000
0000
0001
0000
,
1001
0000
0001
0010
0001
0000
1000
0000
0001
0000
0100
0000
0010
0000
1000
0000
,
1001
0000
1000
0010
1000
0000
0001
0000
1001
0000
0001
0010
0001
0000
1000
0000
,
0001
1000
0001
1000
0001
0000
1000
0000
0010
0000
0000
0000
0000
0000
0000
0000
,
1001
0000
1000
0100
1000
0000
0001
0000
0010
0000
0100
0000
1000
0000
0001
0000
,
1000
0000
0001
0100
0001
0000
1000
0000
0010
0000
0100
0000
0001
0000
1000
0000
,
1001
0000
1000
0100
1000
0000
0001
0000
0010
0000
0100
0000
1000
0000
1001
0000
,
0001
0011
0010
0110
0100
1100
1000
1001
,
0001
0000
0100
0001
0100
0000
0010
0000
1000
0000
0001
0000
1000
0000
0100
0000
,
0010
0000
0001
1000
0001
0000
0100
0000
0110
0000
0000
0000
1010
0000
0000
0000
,
1001
0000
0001
1000
0001
0000
1000
0000
0100
0000
0010
0100
0010
0000
0001
0000
,
1000
0010
0100
0001
1000
0000
0110
0000
,
1001
0000
0001
0010
0001
0000
1000
0000
0001
0000
0100
0000
0010
0000
1000
0000
,
0001
0000
1000
0010
1000
0000
0001
0000
0010
0000
0000
0000
1001
0000
0000
0000
,
1100
0000
1000
0001
1000
0000
0001
0000
0010
0000
0100
0000
1000
0000
1001
0000
,
0001
1001
1000
1010
0010
0110
0110
0110
,
0110
0000
0100
0010
0100
0000
0001
0000
1000
0000
0001
0000
0011
0000
0010
0000
,
0001
0000
1000
0001
1000
0000
0001
0000
0100
0000
0010
0000
1010
0000
1000
0000
,
0001
0000
0010
0001
0010
0000
0100
0000
1000
0000
0001
1000
0001
0000
1001
0000
,
1000
1001
0001
0011
0010
0110
0110
0110
,
0200
2300
3200
0320
,
0032
0000
2003
3002
0023
0230
2300
0000
,
3002
2003
3020
0000
2030
3002
0203
0000
,
0320
0000
2030
3002
2003
0000
3200
0000
,
0320
0032
2003
0000
3002
0000
0203
0320
,
2030
3020
0230
0000
0302
2003
3002
1003
,
1001
0000
1000
0100
1000
0001
0010
0100
,
1000
0001
0000
0101
0000
0100
0001
1000
,
1001
0001
0010
0100
1000
0001
0100
0001
,
1000
0010
0000
0110
0000
0100
0001
1000
,
0010
1000
2002
3003
0001
1000
2002
3003
,
1000
2100
3100
0210
0310
0011
1001
1001
,
0220
0330
0000
0000
0000
0000
0000
0000
,
1000
0002
1003
0002
1003
0000
0110
0000
,
1001
0000
1000
0010
1000
0000
0001
0000
1000
0000
0100
0000
0010
0000
0001
0000
,
1000
0000
0001
0010
0001
0000
1000
0000
0010
0000
1000
0001
1000
0000
0000
0000
,
1001
0000
0001
0100
0001
0000
1000
0000
0100
0000
0010
0000
0001
0000
1001
0000
,
1000
1010
1000
1001
1001
1001
0110
0000
,
1001
0000
1000
0100
1000
0000
0001
0000
0100
0000
0010
0000
1000
0000
0001
0000
,
1001
0000
1000
0100
1000
0000
0001
0000
0100
0000
0010
0000
1000
0000
0001
0000
,
1001
0000
1000
0100
1000
0000
0001
0000
1001
0000
0001
0100
0001
0000
1000
0000
,
0010
1000
0001
0000
0010
0001
1000
0000
0100
0000
0000
0000
0110
0000
0000
0000
,
1001
0000
1000
0001
0100
0000
0010
0000
1000
0000
0001
1000
0100
0000
0010
0000
,
0001
0000
0100
0010
1000
0000
0001
0000
0100
0000
0010
0000
1000
0000
0001
0000
,
1000
0000
0100
0010
0001
0000
1000
0000
0001
0000
0100
0010
1000
0000
0001
0000
,
1000
1100
0100
0110
0010
0011
1001
1010
,
1001
0000
1000
0100
0010
0000
0001
0000
1000
0000
0001
0100
0010
0000
1000
0000
,
0001
0000
0010
0100
0010
0000
0001
0000
1000
0000
0001
0000
0100
0000
0000
0000
,
1001
0000
1000
0100
1000
0000
0100
0000
0010
0000
0001
0010
0001
0000
1000
0000
,
0001
0000
0100
0010
1000
0000
0010
0100
0001
0000
0000
0000
1000
0000
0001
0000
,
1000
0000
0100
1000
0100
0000
0010
0000
0001
0000
1000
0000
0001
0000
0100
0000
,
0001
0000
1000
0010
1000
0000
0001
0000
1000
0000
0010
0000
0100
0000
0001
0000
,
1000
0000
0001
0010
0001
0000
1000
0000
0100
0000
0010
0000
0001
0000
1000
0000
,
0001
0000
0100
0001
0100
0000
0010
0000
1000
0000
0001
0000
1000
0000
0100
0000
,
0010
0000
0001
1000
0001
0000
1000
0000
0010
0000
0100
0000
0001
0000
1000
0000
,
0001
0000
0010
0100
0010
0000
0001
0000
1000
0000
0010
0000
0100
0000
0001
0000
,
1000
0000
0100
0010
0100
0000
1000
0000
0001
0000
0010
0000
0100
0000
1000
0000
,
0001
0000
0100
0010
1000
0000
0001
0000
1000
0001
1000
0001
0010
0000
0100
0000
,
1000
0000
0100
1000
0100
0000
1000
0000
0100
0000
1000
0000
0100
0000
1000
0000
,
0001
0000
1000
0001
1000
0000
0001
0000
1000
0000
0010
0000
1000
0000
0001
0000
,
0100
0000
0001
0100
0001
0000
0100
0000
0001
0000
0100
0000
0001
0000
0100
0000
,
0010
0000
0100
0010
0100
0000
0001
0000
0100
0000
0010
0000
0100
0010
0100
0000
,
0010
0000
1000
0010
1000
0000
0010
0000
1000
0000
0010
0000
1000
0000
0010
0000
,
1000
0000
0001
1000
0001
0000
0100
0000
0001
0000
1000
0000
0001
0000
1000
0000
,
0010
0000
0100
0001
0100
0000
0010
0000
1000
0000
0001
0000
0010
0000
0001
0000
,
2000
0000
0000
0100
3001
0001
0001
0000
,
1001
0000
0001
0010
0001
0000
1000
0000
0001
0000
0100
0000
0010
0000
1000
0000
,
0001
0000
1000
0010
1000
0000
0001
0000
0010
0000
0100
1000
0001
0000
0000
0000
,
1001
0000
1000
0010
1000
0000
0001
0000
1000
0000
0100
0000
1000
0000
0001
0000
,
0100
0010
1000
0001
1000
0100
0010
0000
,
1001
0000
1000
0010
1000
0000
0001
0000
0100
0000
0010
0000
1000
0000
0001
0000
,
1001
0000
0001
0010
0001
0000
1000
0000
0001
0000
0100
0000
0010
0000
1000
0000
,
1001
0000
1000
0010
1000
0000
0001
0000
1001
0000
0001
0010
0001
0000
1000
0000
,
0001
1000
0001
1000
0001
0000
1000
0000
0010
0000
1000
0000
0001
0000
0000
0000
,
1001
0000
1000
0001
0100
0000
0010
0000
1000
0000
0001
1000
0100
0000
0010
0000
,
0001
0000
0100
0010
1000
0000
0001
0000
0100
0000
0010
0000
1000
0000
0001
0000
,
1000
0000
0100
0010
0001
0000
1000
0000
0001
0000
0100
0010
1000
0000
0001
0000
,
1000
1100
0100
0110
0010
0011
1001
1010
,
1001
0000
1000
0100
0010
0000
0001
0000
1000
0000
0001
0100
0010
0000
1000
0000
,
0001
0000
0010
0100
0010
0000
0001
0000
1000
0000
0001
0000
0100
0000
0000
0000
,
1001
0000
1000
0100
1000
0000
0100
0000
0010
0000
0001
0010
0001
0000
1000
0000
,
0001
0000
0100
0010
1000
0000
0010
0100
0001
0000
0000
0000
1000
0000
0001
0000
,
1001
0000
0001
0100
0001
0000
1000
0000
0010
0000
0100
0000
0001
0000
1000
0000
,
0001
0000
1000
0100
1000
0000
0001
0000
0010
0000
0100
0000
1000
0000
0001
0000
,
1001
0000
0001
0100
0001
0000
1000
0000
0010
0000
0100
0000
0001
0000
1001
0000
,
1000
1010
0010
0110
0100
0101
0001
1001
,
1000
0000
0100
1000
0100
0000
0010
0000
0001
0000
1000
0000
0001
0000
0100
0000
,
0010
0000
1000
0001
1000
0000
0100
0000
0110
0000
0000
0000
0011
0000
0000
0000
,
1001
0000
1000
0001
1000
0000
0001
0000
0100
0000
0010
0100
0010
0000
1000
0000
,
1001
0000
0001
1000
0001
0000
1000
0000
0100
0000
0010
0100
0010
0000
0001
0000
,
1001
0000
1000
0001
1000
0000
0001
0000
0100
0000
0010
0100
0010
0000
1000
0000
,
1001
0000
0000
0100
0001
1000
0010
0100
,
0202
0303
0000
2020
3030
0000
0220
0330
,
0000
2002
3003
0000
1100
0110
0011
1001
;
