#VERSION:0.83;
#TITLE:ピノキオピー;
#SUBTITLE:;
#ARTIST:神っぽいな feat. 初音ミク;
#TITLETRANSLIT:God-ish;
#SUBTITLETRANSLIT:;
#ARTISTTRANSLIT:PinnochioP feat. Hatsune Miku;
#GENRE:Vocaloid;
#ORIGIN:;
#CREDIT:;
#BANNER:God-ish.png;
#BACKGROUND:God-ish-bg.png;
#PREVIEWVID:;
#JACKET:God-ish-jacket.png;
#CDIMAGE:;
#DISCIMAGE:;
#LYRICSPATH:;
#CDTITLE:;
#MUSIC:God-ish.ogg;
#OFFSET:-0.059000;
#SAMPLESTART:20.323000;
#SAMPLELENGTH:13.468000;
#SELECTABLE:YES;
#BPMS:0.000=142.000;
#STOPS:;
#DELAYS:;
#WARPS:;
#TIMESIGNATURES:0.000=4=4;
#TICKCOUNTS:0.000=4;
#COMBOS:0.000=1;
#SPEEDS:0.000=1.000=0.000=0;
#SCROLLS:0.000=1.000;
#FAKES:;
#LABELS:0.000=Song Start;
#BGCHANGES:0.000=God-ish.avi=1.000=0=0=0=StretchNoLoop====,
99999=-nosongbg-=1.000=0=0=0 // don't automatically add -songbackground-
;
#KEYSOUNDS:;
#ATTACKS:
;

//---------------dance-single - Pruz----------------
#NOTEDATA:;
#CHARTNAME:Pruz;
#STEPSTYPE:dance-single;
#DESCRIPTION:Pruz;
#CHARTSTYLE:;
#DIFFICULTY:Beginner;
#METER:1;
#RADARVALUES:0.072930,0.115337,0.028362,0.056723,0.000000,54.000000,51.000000,3.000000,6.000000,0.000000,0.000000,0.000000,0.000000,0.000000,0.072930,0.115337,0.028362,0.056723,0.000000,54.000000,51.000000,3.000000,6.000000,0.000000,0.000000,0.000000,0.000000,0.000000;
#CREDIT:Pruz;
#NOTES:
0000
0000
0000
0000
,
0000
0000
0000
0000
,
0000
0000
0000
0000
,
0000
0000
0000
0000
,
0000
0000
1000
0000
,
0000
0000
0000
0000
,
0000
0000
1000
0000
,
0000
0000
0000
0000
,
1000
0000
0000
0000
,
1000
0000
0000
0000
,
1000
0000
0000
0000
,
0001
0000
0000
0000
,
1000
0000
0000
0000
,
1000
0000
0000
0000
,
1000
0000
0000
0000
,
0000
0000
0000
0000
,
0001
0000
0000
0000
,
0001
0000
0000
0000
,
0001
0000
0000
0000
,
1001
0000
0000
0000
,
1000
0000
0000
0000
,
0100
0000
0000
0000
,
0010
0000
0000
0000
,
0002
0000
0000
0003
,
1000
0000
0000
0000
,
0010
0000
0000
0000
,
0100
0000
0000
0000
,
0002
0000
0000
0003
,
2002
0000
0000
0000
,
3003
0000
0000
0000
,
1000
0000
0000
0000
,
1000
0000
0000
0000
,
0100
0000
0000
0000
,
0010
0000
0000
0000
,
0001
0000
0000
0000
,
0001
0000
0000
0000
,
1000
0000
0000
0000
,
2000
0000
0000
3000
,
0001
0000
0000
0000
,
0001
0000
0000
0000
,
0010
0000
0000
0000
,
0100
0000
0000
0000
,
1000
0000
0000
0000
,
1000
0000
0000
0000
,
0001
0000
0000
0000
,
0002
0000
0000
0003
,
1000
0000
0000
0000
,
1000
0000
0000
0000
,
1000
0000
0000
0000
,
0000
0000
0000
0000
,
0001
0000
0000
0000
,
0001
0000
0000
0000
,
0001
0000
0000
0000
,
1001
0000
0000
0000
,
0000
0000
1000
0000
,
0000
0000
0000
0000
,
0000
0000
1000
0000
,
0000
0000
0000
0000
,
1000
0000
0000
0000
,
1000
0000
0000
0000
,
1000
0000
0000
0000
,
0001
0000
0000
0000
;

//---------------dance-single - Pruz----------------
#NOTEDATA:;
#CHARTNAME:Pruz;
#STEPSTYPE:dance-single;
#DESCRIPTION:Pruz;
#CHARTSTYLE:;
#DIFFICULTY:Easy;
#METER:4;
#RADARVALUES:0.151262,0.259508,0.000000,0.122900,0.000000,112.000000,112.000000,0.000000,13.000000,0.000000,0.000000,0.000000,0.000000,0.000000,0.151262,0.259508,0.000000,0.122900,0.000000,112.000000,112.000000,0.000000,13.000000,0.000000,0.000000,0.000000,0.000000,0.000000;
#CREDIT:Pruz;
#NOTES:
0000
0000
0000
0000
,
0000
0000
0000
0000
,
0000
0000
0000
0000
,
0000
0000
0000
0000
,
1000
0000
0001
0000
,
2000
0000
3000
0000
,
0001
0000
1000
0000
,
0002
0000
0003
0000
,
1000
0000
0001
0000
,
2000
0000
3000
0000
,
0001
0000
1000
0000
,
0010
0000
0000
0000
,
1000
0000
0000
0000
0000
0000
0000
0001
,
0000
0000
0000
0000
0000
0000
0000
1000
,
0000
0000
0000
0000
0000
0000
0000
0001
,
0000
0010
0000
0010
0000
0010
0000
0010
,
0001
0000
0000
0000
0000
0000
0000
1000
,
0000
0000
0000
0000
0000
0000
0000
0001
,
0000
0000
0000
0000
0000
0000
0000
1000
,
0100
0000
0000
0000
,
1000
0000
0000
0000
,
0001
0000
0000
0000
,
1000
0000
1000
0000
,
0020
0000
0000
0030
,
1000
0000
0000
0000
,
0001
0000
0000
0000
,
1000
0000
1000
0000
,
0002
0000
0203
0000
,
0320
0000
0000
0000
,
0030
0000
0000
0000
,
0100
0001
1000
0000
,
0010
0100
0001
0000
,
1000
0000
0000
0100
,
0010
0000
0001
1000
,
0100
1000
0001
0000
,
0010
0100
1000
0000
,
0001
0000
0000
0100
,
0010
0010
0020
0030
,
1000
0001
1000
1000
,
0010
0100
0010
0010
,
1000
0010
0100
0000
,
0001
0010
0100
0000
,
1000
0001
1000
1000
,
0010
0100
0010
0010
,
1000
0010
0100
0000
,
0001
0000
0010
0000
0200
0000
0000
0300
,
1000
0000
0000
0000
0000
0000
0000
0001
,
0000
0000
0000
0000
0000
0000
0000
1000
,
0000
0000
0000
0000
0000
0000
0000
0001
,
0000
0010
0000
0010
0000
0010
0000
0010
,
0001
0000
0000
0000
0000
0000
0000
1000
,
0000
0000
0000
0000
0000
0000
0000
0001
,
0000
0000
0000
0000
0000
0000
0000
1000
,
0200
0000
0000
0300
,
1000
0000
0001
0000
,
2000
0000
3000
0000
,
0001
0000
1000
0000
,
0002
0000
0003
0000
,
1000
0000
0001
0000
,
2000
0000
3000
0000
,
0001
0000
1000
0000
,
0010
0000
0000
0000
;

//---------------dance-single - Pruz----------------
#NOTEDATA:;
#CHARTNAME:Pruz;
#STEPSTYPE:dance-single;
#DESCRIPTION:Pruz;
#CHARTSTYLE:;
#DIFFICULTY:Medium;
#METER:8;
#RADARVALUES:0.379505,0.467020,0.103992,0.094539,0.018908,281.000000,270.000000,11.000000,10.000000,0.000000,0.000000,0.000000,0.000000,0.000000,0.379505,0.467020,0.103992,0.094539,0.018908,281.000000,270.000000,11.000000,10.000000,0.000000,0.000000,0.000000,0.000000,0.000000;
#CREDIT:Pruz;
#NOTES:
0000
0000
0000
0000
,
0000
0000
0000
0000
,
0000
0000
0000
0000
,
0000
0000
0000
0000
,
1000
0001
0100
0001
,
1000
1000
0010
0100
,
0001
1000
0100
1000
,
0001
0001
0010
0100
,
1000
0001
0100
0001
,
1000
1000
0010
0100
,
0001
1000
0100
1000
,
0001
0000
0000
1000
0000
0000
0001
0000
0000
0000
0100
0000
0100
0000
0000
0000
,
0010
1000
0100
0010
,
0100
1000
0010
0100
,
1000
0100
0010
1000
,
0001
0100
0001
1000
,
0100
0010
0001
0100
,
0010
0100
0001
0010
,
0100
0000
0001
0000
0100
0000
0010
0001
,
2000
0000
0000
3001
0000
0000
2000
0000
0000
0000
3010
0000
0100
0000
0000
0000
,
0101
0000
0000
0110
0000
0000
1000
0000
,
1100
0000
0000
0110
0000
0000
0001
0000
,
0101
0000
0100
0000
0010
1000
0001
1000
,
0020
0130
0002
1003
,
1100
0000
0000
0110
0000
0000
0001
0000
,
0101
0000
0000
0110
0000
0000
1000
0000
,
1100
0000
0100
0000
0010
0001
1000
0001
,
0020
0130
2000
3001
,
0020
0000
0000
0000
,
0030
0000
0000
1001
,
1000
0010
0100
0010
1000
0000
0001
0000
,
0010
0100
0010
0001
1000
0000
0010
0000
,
0100
0001
0100
0010
1000
0000
0001
0000
,
1000
0100
0010
0001
1000
1000
0001
0000
,
1000
0010
0100
0010
1000
0000
0001
0000
,
0100
0010
0100
0001
1000
0000
0100
0000
,
0010
0001
0010
0100
1000
0000
0001
0000
,
0010
0000
0010
0000
0020
0000
0030
0001
,
1000
0001
0100
0001
1000
0010
0100
0000
,
0001
1000
0100
1000
0001
0010
0100
0000
,
1000
0100
0001
0100
1000
0000
0001
0000
,
1000
0010
0001
0010
1000
0000
0001
1000
,
0001
1000
0100
1000
0001
0010
0100
0000
,
1000
0001
0100
0001
1000
0010
0100
0000
,
0001
0100
1000
0100
0001
0000
1000
0000
,
0001
0010
1000
0010
0001
1000
0001
0001
,
0100
0001
0010
0100
,
0010
0001
0100
0010
,
0001
0010
0100
0001
,
1000
0010
1000
0001
,
0010
0100
1000
0010
,
0100
0010
1000
0100
,
0010
0000
1000
0000
0010
0000
0100
1000
,
0002
0000
0000
1003
0000
0000
0002
0000
0000
0000
0103
0000
0010
0000
0000
0000
,
1000
0001
0100
0001
,
1000
1000
0010
0100
,
0001
1000
0100
1000
,
0001
0001
0010
0100
,
1000
0001
0100
0001
,
1000
1000
0010
0100
,
0001
1000
0100
1000
,
0001
0000
0000
1000
0000
0000
0001
0000
0000
0000
0100
0000
0100
0000
0000
0000
;

//---------------dance-single - Pruz----------------
#NOTEDATA:;
#CHARTNAME:Pruz;
#STEPSTYPE:dance-single;
#DESCRIPTION:Pruz;
#CHARTSTYLE:;
#DIFFICULTY:Hard;
#METER:13;
#RADARVALUES:0.586139,0.642153,0.255254,0.075631,0.420696,434.000000,407.000000,27.000000,8.000000,0.000000,0.000000,0.000000,0.000000,0.000000,0.586139,0.642153,0.255254,0.075631,0.420696,434.000000,407.000000,27.000000,8.000000,0.000000,0.000000,0.000000,0.000000,0.000000;
#CREDIT:Pruz;
#NOTES:
// measure 0
0000
0000
0000
0000
,  // measure 1
0000
0000
0000
0000
,  // measure 2
0000
0000
0000
0000
,  // measure 3
0000
0000
0000
0000
,  // measure 4
1000
0000
0000
0100
0000
0000
0001
0000
0100
0000
0000
0000
0010
0000
0000
0000
,  // measure 5
0001
0000
0000
0100
0000
0000
1000
0000
0000
0100
0000
0000
0010
0000
0000
0000
,  // measure 6
1000
0000
0000
0100
0000
0000
0001
0000
0000
0100
0000
0000
1000
0000
0000
0000
,  // measure 7
0001
0000
0000
0100
0000
0000
1000
0000
0000
0100
0000
0000
0010
0000
0000
0000
,  // measure 8
1000
0000
0000
0001
0000
0000
0100
0000
0000
0010
0000
0000
1000
0000
0000
0000
,  // measure 9
0001
0000
0000
1000
0000
0000
0100
0000
0000
0010
0000
0000
0001
0000
0000
0000
,  // measure 10
1000
0000
0000
0010
0000
0000
0001
0000
0000
0010
0000
0000
1000
0000
0000
0000
,  // measure 11
0001
0000
0000
0010
0000
0000
1000
0000
0000
0000
0010
0000
0010
0000
0000
0000
,  // measure 12
0100
0000
1000
0000
0100
1000
0000
0100
0000
0010
0000
0001
1000
0000
1010
0000
,  // measure 13
0010
0000
0100
0000
0001
0100
0000
0001
0000
0100
0000
0001
1000
0000
1100
0000
,  // measure 14
0100
0000
0010
0000
0001
0010
0000
0001
0000
0010
0000
0001
1000
0000
1100
0000
,  // measure 15
0100
0010
0001
0010
1000
0010
0001
0010
,  // measure 16
0100
0000
1000
0000
0100
1000
0000
0100
0000
0010
0000
0001
1000
0000
1010
0000
,  // measure 17
0010
0000
0100
0000
0001
0100
0000
0001
0000
0100
0000
0001
1000
0000
1100
0000
,  // measure 18
0100
0000
0010
0000
0001
0010
0000
0001
0000
0010
0000
0001
1000
0000
1100
0000
,  // measure 19
0200
0000
0000
0310
0000
0000
0200
0000
0000
0000
1300
0001
1000
0000
0000
0000
,  // measure 20
1100
0100
0010
0011
0001
1000
0100
0000
,  // measure 21
0110
0010
0001
1001
1000
0100
0010
0001
,  // measure 22
0101
0100
0110
0010
1010
1000
0001
0100
,  // measure 23
0020
0000
0000
0000
1000
0000
0000
0000
0130
0000
0100
0000
0100
0001
0100
0000
,  // measure 24
0101
0100
0010
1010
1000
0001
0100
0000
,  // measure 25
0110
0010
1000
1001
0001
0100
0010
1000
,  // measure 26
1100
0100
0110
0010
0011
0001
1000
0100
,  // measure 27
0020
0000
0001
0000
0130
0100
1000
0100
,  // measure 28
0020
0000
0000
0000
,  // measure 29
0030
0000
0000
0011
,  // measure 30
1000
0001
0100
0001
1000
0100
0010
0001
,  // measure 31
1000
0000
0001
0000
0100
0000
0001
0000
1000
0000
0100
0010
0001
0000
1000
0000
,  // measure 32
0001
0100
0001
1000
0010
0100
0001
1000
,  // measure 33
0001
0010
0001
1000
0001
0100
0001
1000
,  // measure 34
0001
1000
0100
1000
0001
0100
0010
1000
,  // measure 35
0001
0000
1000
0000
0100
0000
1000
0000
0001
0000
0100
0010
1000
0000
0001
0000
,  // measure 36
1000
0100
1000
0001
0010
0100
1000
0001
,  // measure 37
0010
0000
0000
0000
0010
0000
0000
0000
0020
0000
0000
0000
0130
1000
0100
0010
,  // measure 38
0001
1000
0001
0100
0001
1000
0010
0100
,  // measure 39
0001
1000
0100
1000
0001
0010
0100
0000
,  // measure 40
1000
0100
0001
0100
0010
0001
1000
0001
,  // measure 41
0100
0000
0010
0000
0001
0000
0010
0000
1000
0000
0000
0000
0001
0100
0010
1000
,  // measure 42
0001
1000
0100
1000
0001
0010
0100
1000
,  // measure 43
0001
1000
0100
1000
0001
0010
0100
0000
,  // measure 44
1000
0100
0001
0100
0010
0001
1000
0001
,  // measure 45
0100
0000
0010
0000
0001
0000
0010
0000
1000
0001
1000
0001
0100
0000
0010
0000
,  // measure 46
0100
0000
0001
0000
0100
0001
0000
0100
0000
0010
0000
1000
0001
0000
0011
0000
,  // measure 47
0010
0000
0100
0000
1000
0100
0000
1000
0000
0100
0000
1000
0001
0000
0101
0000
,  // measure 48
0100
0000
0010
0000
1000
0010
0000
1000
0000
0010
0000
1000
0001
0000
0101
0000
,  // measure 49
0100
0010
1000
0010
0001
0010
1000
0010
,  // measure 50
0100
0000
0001
0000
0100
0001
0000
0100
0000
0010
0000
1000
0001
0000
0101
0000
,  // measure 51
0100
0000
0010
0000
1000
0010
0000
1000
0000
0010
0000
1000
0001
0000
0011
0000
,  // measure 52
0010
0000
0100
0000
1000
0100
0000
1000
0000
0100
0000
1000
0001
0000
0101
0000
,  // measure 53
0200
0000
0000
0310
0000
0000
0200
0000
0000
0000
0301
1000
0001
0000
0000
0000
,  // measure 54
1000
0000
0000
0100
0000
0000
0001
0000
0100
0000
0000
0000
0010
0000
0000
0000
,  // measure 55
0001
0000
0000
0100
0000
0000
1000
0000
0000
0100
0000
0000
0010
0000
0000
0000
,  // measure 56
1000
0000
0000
0100
0000
0000
0001
0000
0000
0100
0000
0000
1000
0000
0000
0000
,  // measure 57
0001
0000
0000
0100
0000
0000
1000
0000
0000
0100
0000
0000
0010
0000
0000
0000
,  // measure 58
1000
0000
0000
0001
0000
0000
0100
0000
0000
0010
0000
0000
1000
0000
0000
0000
,  // measure 59
0001
0000
0000
1000
0000
0000
0100
0000
0000
0010
0000
0000
0001
0000
0000
0000
,  // measure 60
1000
0000
0000
0010
0000
0000
0001
0000
0000
0010
0000
0000
1000
0000
0000
0000
,  // measure 61
0001
0000
0000
0010
0000
0000
1000
0000
0000
0000
0010
0000
0010
0000
0000
0000
;

//---------------dance-single - Pruz----------------
#NOTEDATA:;
#CHARTNAME:Pruz;
#STEPSTYPE:dance-single;
#DESCRIPTION:Pruz;
#CHARTSTYLE:;
#DIFFICULTY:Challenge;
#METER:15;
#RADARVALUES:0.761710,0.817285,0.340339,0.047269,0.727947,564.000000,528.000000,36.000000,5.000000,0.000000,0.000000,0.000000,0.000000,0.000000,0.761710,0.817285,0.340339,0.047269,0.727947,564.000000,528.000000,36.000000,5.000000,0.000000,0.000000,0.000000,0.000000,0.000000;
#CREDIT:Pruz;
#NOTES:
0000
0000
0000
0000
,
0000
0000
0000
0000
,
0000
0000
0000
0000
,
0000
0000
0000
0000
,
1000
0000
0100
0010
0000
0001
0010
0000
0100
0000
1000
0000
0001
0000
1000
0000
,
0010
0000
0100
0001
0000
0100
0010
0000
1000
0000
0001
0000
1000
0000
0010
0000
,
0100
0000
0001
1000
0000
1000
0010
0000
0100
0000
0001
1000
0000
1000
0100
0000
,
0010
0000
0001
1000
0000
0001
0010
0000
0100
0000
1000
0000
0001
0000
0100
0000
,
0001
0000
0100
0010
0000
1000
0010
0000
0100
0000
0001
0000
1000
0000
0001
0000
,
0010
0000
0100
1000
0000
0100
0010
0000
0001
0000
1000
0000
0001
0000
0010
0000
,
0100
0000
1000
0001
0000
0001
0010
0000
0100
0000
1000
0001
0000
0001
0100
0000
,
0010
0000
1000
0001
0000
1000
0010
0000
0000
0000
0110
0000
0110
0000
0000
0000
,
0101
0000
0001
0000
0100
0010
0000
1000
0000
0001
0000
1000
0010
0000
0110
0000
,
0100
0000
0001
0000
1000
0010
0000
0100
0000
0001
0000
1000
0100
0000
0110
0000
,
0010
0000
0001
0000
1000
0100
0000
0010
0000
0001
0000
1000
0010
0000
0110
0000
,
0100
0000
0001
0000
1000
0000
0001
0000
0010
0000
0001
1000
0001
0000
0100
0000
,
0101
0000
0001
0000
0100
0010
0000
1000
0000
0001
0000
1000
0010
0000
0110
0000
,
0100
0000
0001
0000
1000
0010
0000
0100
0000
0001
0000
1000
0100
0000
0110
0000
,
0010
0000
0001
0000
1000
0100
0000
0010
0000
0001
0000
1000
0010
0000
0110
0000
,
0200
0000
0000
0310
0000
0000
0200
0000
0000
0000
0301
1000
0001
0000
0000
0000
,
1000
0000
0100
0010
0001
0000
1000
0000
0001
0010
0100
0000
1000
0001
1000
0000
,
0010
0000
0100
0001
1000
0000
0100
0000
0010
0001
1000
0000
0001
0000
0100
0000
,
0110
0010
1010
1000
0001
0100
1000
0100
,
0110
0000
0000
0010
1000
0000
0001
1000
0100
0000
0110
0000
0010
0001
0010
0100
,
1000
0000
0100
0010
0001
0000
1000
0000
0001
0010
0100
0000
1000
0001
1000
0000
,
0010
0000
0100
0001
1000
0000
0100
0000
0010
0001
1000
0000
0001
0000
0100
0000
,
0110
0010
1010
1000
0001
0100
1000
0100
,
0110
0000
0000
0010
1000
0000
0001
1000
0100
0000
0110
0000
0010
0001
1000
0100
,
0020
0000
0000
0000
,
0030
0000
0000
0000
0000
0000
0011
1000
,
0001
0000
0100
0000
0010
0000
1000
0000
0001
0000
1000
0001
1000
0000
0100
0000
,
0010
0000
0001
0000
0010
0000
0100
0000
1000
0000
0001
1000
0001
0000
0100
0000
,
0010
1000
0001
1000
0100
0010
0001
1000
,
0001
0000
0100
0001
0100
0000
0010
0000
1000
0001
1000
0001
0010
0100
1000
0001
,
1000
0000
0100
0000
0010
0000
0001
0000
1000
0000
0001
1000
0001
0000
0100
0000
,
0010
0000
1000
0000
0010
0000
0100
0000
0001
0000
1000
0001
1000
0000
0100
0000
,
0010
0001
1000
0001
0100
0010
1000
0001
,
0101
0000
0000
0000
0110
0000
0000
0000
1010
0000
0000
0000
1000
0001
1000
0001
,
0100
0000
0010
1000
0001
1000
0000
0100
0010
0001
1000
0000
1100
0000
0100
0010
,
0001
0000
1000
0001
1000
0100
0000
0010
0001
1000
0001
0000
0011
0000
0001
1000
,
0001
0000
0100
0000
0010
0000
1000
0000
0001
0000
1000
0010
0100
0001
1000
0000
,
0100
0000
0001
0000
0100
0000
0010
0001
1000
0100
1000
0001
0010
0100
1000
0001
,
0100
0000
0010
1000
0001
1000
0000
0100
0010
0001
1000
0000
1100
0000
0100
0010
,
0001
0000
1000
0001
1000
0100
0000
0010
0001
1000
0001
0000
0011
0000
0001
1000
,
0001
0000
0100
0000
0010
0000
1000
0000
0001
0000
1000
0010
0100
0001
1000
0000
,
0100
0000
0001
0000
0100
0000
0010
0000
0001
1000
0001
1000
0010
0000
0100
0000
,
0101
0000
0001
0000
0100
0010
0000
1000
0000
0001
0000
1000
0010
0000
0110
0000
,
0100
0000
0001
0000
1000
0010
0000
0100
0000
0001
0000
1000
0100
0000
0110
0000
,
0010
0000
0001
0000
1000
0100
0000
0010
0000
0001
0000
1000
0010
0000
0110
0000
,
0100
0000
0001
0000
1000
0000
0001
0000
0010
0000
0001
1000
0001
0000
0100
0000
,
0101
0000
0001
0000
0100
0010
0000
1000
0000
0001
0000
1000
0010
0000
0110
0000
,
0100
0000
0001
0000
1000
0010
0000
0100
0000
0001
0000
1000
0100
0000
0110
0000
,
0010
0000
0001
0000
1000
0100
0000
0010
0000
0001
0000
1000
0010
0000
0110
0000
,
0200
0000
0000
0310
0000
0000
0200
0000
0000
0000
0301
1000
0001
0000
0000
0000
,
1000
0000
0100
0010
0000
0001
0010
0000
0100
0000
1000
0000
0001
0000
1000
0000
,
0010
0000
0100
0001
0000
0100
0010
0000
1000
0000
0001
0000
1000
0000
0010
0000
,
0100
0000
0001
1000
0000
1000
0010
0000
0100
0000
0001
1000
0000
1000
0100
0000
,
0010
0000
0001
1000
0000
0001
0010
0000
0100
0000
1000
0000
0001
0000
0100
0000
,
0001
0000
0100
0010
0000
1000
0010
0000
0100
0000
0001
0000
1000
0000
0001
0000
,
0010
0000
0100
1000
0000
0100
0010
0000
0001
0000
1000
0000
0001
0000
0010
0000
,
0100
0000
1000
0001
0000
0001
0010
0000
0100
0000
1000
0001
0000
0001
0100
0000
,
0010
0000
1000
0001
0000
1000
0010
0000
0000
0000
0110
0000
0110
0000
0000
0000
;
