#TITLE:靴の花火;
#SUBTITLE:;
#ARTIST:ヨルシカ;
#TITLETRANSLIT:Kutsu no Hanabi;
#SUBTITLETRANSLIT:;
#ARTISTTRANSLIT:Yorushika;
#GENRE:J-Rock;
#CREDIT:;
#MUSIC:Fireworks Beneath My Shoes.ogg;
#BANNER:Fireworks Beneath My Shoes.png;
#BACKGROUND:Fireworks Beneath My Shoes-bg.png;
#CDTITLE:;
#SAMPLESTART:71.520;
#SAMPLELENGTH:16.404;
#SELECTABLE:YES;
#OFFSET:-0.091;
#BPMS:0.000=120.015;
#STOPS:;
#ORIGIN:;
#TAGS:;
#PREVIEWVID:;
#JACKET:Fireworks Beneath My Shoes-jacket.png;
#CDIMAGE:;
#DISCIMAGE:;
#BGCHANGES:0.000=Fireworks Beneath My Shoes.avi=1.000=0=0=1,
99999.000=-nosongbg-=1.000=0=0=0=StretchNoLoop====
;
#FGCHANGES:;

//--------------- dance-single - Pruz ----------------
#NOTES:
     dance-single:
     Pruz:
     Beginner:
     2:
     0,0,0,0,0:
0000
0000
0000
0000
,
0000
0000
0000
0000
,
0000
0000
0000
0000
,
0000
0000
0000
0000
,
2000
3000
2000
3000
,
0000
0000
0000
0020
,
2030
3000
2000
3000
,
0000
0000
0000
0002
,
2003
3000
2000
3000
,
0000
0000
0000
0020
,
2030
3000
2000
3000
,
0000
0000
0000
0002
,
2003
3000
2000
3000
,
0010
0000
0000
0002
,
0023
0030
0020
0030
,
1000
0000
0000
0200
,
2300
3000
2000
3000
,
0010
0000
0000
0002
,
0023
0030
0020
0030
,
1000
0000
0000
0200
,
2300
3000
2000
3000
,
0000
0000
0000
0020
,
0230
0300
0200
0300
,
0000
0000
0000
0002
,
2003
3000
2000
3000
,
0000
0000
0000
0200
,
0320
0030
0020
0030
,
0000
0000
0000
0002
,
2003
0000
3000
0000
,
0001
0000
0000
0000
,
0020
0000
0000
0030
,
0200
0300
0000
0000
,
2000
0000
3000
0000
,
0001
0000
0000
0000
,
0200
0000
0000
0300
,
0002
0000
0000
0003
,
2000
0000
0000
3000
,
0020
0000
0000
0030
,
0200
0000
0000
0300
,
0002
0000
0000
0003
,
2000
0000
0000
3000
,
0002
0000
0000
0003
,
0020
0000
0000
0030
,
1000
0000
0020
0030
,
0002
0000
0000
0003
,
0020
0000
0000
0030
,
0200
0000
0000
0300
,
2000
0000
0000
3000
,
0002
0000
0000
0003
,
2000
0000
0000
3000
,
0020
0000
0000
0030
,
0001
0000
0020
0030
,
0002
0003
0002
0003
,
0010
0000
0000
1000
,
0020
0030
0020
0030
,
0001
0000
0000
2000
,
3002
0003
0002
0003
,
0100
0000
0000
2000
,
3200
0300
0200
0300
,
0001
0000
0000
2000
,
3000
0000
0000
0000
;

//--------------- dance-single - Pruz ----------------
#NOTES:
     dance-single:
     Pruz:
     Easy:
     3:
     0,0,0,0,0:
0000
0000
0000
0000
,
0000
0000
0000
0000
,
0000
0000
0000
0000
,
0000
0000
0000
0000
,
2000
3001
0020
0031
,
0000
0000
1000
1000
,
0020
1030
0002
0013
,
0000
0000
0001
0001
,
2000
3001
0200
0301
,
0000
0000
1000
1000
,
0200
1300
0002
0103
,
0000
0000
0000
0002
,
2003
3010
0000
0010
,
0001
0010
0000
2000
,
3002
0013
0000
0010
,
1000
0010
0000
0020
,
0032
0103
0000
0100
,
1000
0100
0000
0002
,
2003
3100
0000
0100
,
0001
0100
0000
0200
,
2300
3001
0000
0001
,
0010
0100
0000
0020
,
0032
1003
0000
1000
,
0010
0100
0000
0200
,
0302
1003
0000
1000
,
0010
0100
0000
0020
,
2030
3001
0000
0001
,
0010
0100
0000
2000
,
3002
0000
0103
0000
,
0002
0000
1003
0001
,
2000
0000
3100
1000
,
0001
0000
0100
0100
,
0002
0000
0013
0000
,
0002
0000
1003
0001
,
2000
0000
3010
1000
,
0002
0000
0000
0003
0000
0000
2000
0000
,
3010
0000
0010
0000
,
0002
0003
0010
1000
,
0001
0000
0001
0000
,
0020
0030
0001
0001
,
1000
0000
0010
0000
,
0002
0003
0001
0010
,
1000
0000
1000
0010
,
0001
0000
0100
1000
,
0010
0000
0010
0000
,
0002
0003
0100
1000
,
0001
0000
0001
0000
,
0020
0030
1000
0100
,
0001
0000
0001
0000
,
0100
0000
1000
0100
,
0001
0000
0001
1000
,
0020
0030
0010
1000
,
0002
0013
0000
0010
,
1000
0010
0000
0002
,
2003
3010
0000
0010
,
0001
0010
0000
2000
,
3002
0013
0000
0010
,
1000
0010
0000
0002
,
2003
3010
0000
0010
,
0001
0010
0000
2000
,
3000
0000
0000
0000
;

//--------------- dance-single - Pruz ----------------
#NOTES:
     dance-single:
     Pruz:
     Medium:
     6:
     0,0,0,0,0:
0000
0000
0000
0000
,
0000
0000
0000
0000
,
0000
0000
0000
0000
,
0000
0000
0000
0000
,
2000
3001
0020
0130
,
2000
0000
3001
0000
1000
0000
1000
0010
,
0200
0301
0200
0310
,
2000
0000
3001
0010
0001
0000
0001
0000
,
2000
3001
0200
0310
,
2000
0000
3001
0000
1000
0000
1000
0010
,
0200
0301
0200
0310
,
2000
0000
3001
0100
0001
0000
0001
0000
,
1000
0100
0000
0010
0000
0100
1000
0001
,
0000
1000
0100
0000
0001
0100
2000
0000
,
3001
0100
0000
0010
0000
0010
1000
0001
,
0000
0001
0010
0000
0010
0001
2000
0000
,
3001
0100
0000
0010
0000
0100
0001
1000
,
0000
0001
0100
0000
1000
0100
0002
0000
,
1003
0100
0000
0010
0000
0010
0001
1000
,
0000
1000
0010
0000
0010
1000
0002
0000
,
1003
0001
0010
0000
0001
1000
0100
0010
,
0000
0001
1000
0000
0010
0000
2000
0000
,
3001
1000
0010
0000
1000
0001
0010
0100
,
0000
1000
0001
0000
1000
0000
0020
0000
,
1030
0001
0010
0000
0001
1000
0010
0100
,
0000
0001
1000
0000
0001
0000
0020
0000
,
0031
0100
0010
0000
1000
0100
0010
0001
,
0000
1000
0010
0000
1000
0001
1000
0000
,
1002
0000
0013
0100
1000
0000
0001
0000
,
0200
0000
1300
0100
,
0001
0000
1000
0010
0000
0010
1000
0000
,
0001
0000
0010
0000
0100
1000
1000
0000
,
1002
0000
1003
0010
1000
0000
0001
0000
,
0100
0000
0000
0100
0100
0000
0001
0000
,
1000
0000
0010
0000
0100
0001
1000
0000
,
0002
0000
0000
0003
0000
1000
1000
0000
,
0020
0000
1030
0001
0000
0010
0100
1000
,
0000
0001
1000
0200
0000
0310
0001
0000
,
2000
0000
3001
0010
0000
0100
1000
0001
,
0000
0100
0001
2000
0000
3010
0100
0000
,
0002
0000
1003
0010
0000
1000
0001
0010
,
0000
0100
1000
0001
0010
0000
0001
1000
,
0200
0000
1300
0001
0000
0100
0001
1000
,
0010
0100
0000
0002
0000
1003
0001
0000
,
0020
0000
0031
1000
0000
0010
0100
0001
,
0000
1000
0001
0200
0000
0310
1000
0000
,
0002
0000
1003
0010
0000
0100
0001
1000
,
0000
0100
1000
0002
0000
0013
0100
0000
,
2000
0000
3001
0010
0000
0001
1000
0010
,
0000
0100
0001
1000
0010
0000
1000
0001
,
0200
0000
0301
1000
0000
0100
1000
0001
,
0010
0100
0000
1000
0001
0000
1000
0000
,
0001
0100
0010
0000
0010
0100
0001
2000
,
0000
3001
0100
0000
1000
0100
0001
0000
,
1000
0100
0010
0000
0010
0001
1000
0001
,
0000
0001
0010
0000
0010
0001
2000
0000
,
3001
0100
0010
0000
0010
0100
0001
1000
,
0000
0001
0100
0000
1000
0100
0002
0000
,
1003
0100
0010
0000
0010
0001
1000
0001
,
0000
0001
0010
0000
0010
0001
1000
1000
;

//--------------- dance-single - Pruz ----------------
#NOTES:
     dance-single:
     Pruz:
     Hard:
     8:
     0,0,0,0,0:
0000
0000
0000
0000
,
0000
0000
0000
0000
,
0000
0000
0000
0000
,
0000
0000
0000
0000
,
2000
3002
0010
0003
1000
0001
0010
0200
,
0000
2300
3002
0023
0100
0030
0001
0000
,
2000
3002
0010
0003
1000
0001
0010
0200
,
0000
0000
1300
0000
0001
0000
0010
0000
1000
0000
0010
0000
0002
0000
0000
0003
,
2000
3002
0010
0003
1000
0001
0010
0200
,
0000
2300
3002
0023
0100
0030
0001
0000
,
2000
3002
0010
0003
1000
0001
0010
0200
,
0000
0000
1300
0000
0001
0000
0100
0000
1000
0000
0100
0000
0002
0000
0000
0003
,
1001
1000
0000
0010
0000
1000
0001
0100
,
0000
0100
0010
0000
1000
0010
0100
0000
,
0001
1000
0001
0010
0000
0100
1000
0001
,
0000
1000
0010
0000
0010
1000
0001
0000
,
0011
0010
0000
0001
0000
1000
0001
0100
,
0000
0100
0010
0000
1000
0010
0100
0000
,
0001
1000
0001
0010
0000
0100
1000
0001
,
0000
1000
0010
0000
0010
1000
0001
0000
,
2001
3002
0010
0003
1000
0001
0010
0200
,
0000
2300
3002
0023
0100
0030
0001
0000
,
2000
3002
0010
0003
1000
0001
0010
0200
,
0000
0000
1300
0000
0001
0000
0010
0000
1000
0000
0010
0000
0002
0000
0000
0003
,
2000
3002
0010
0003
1000
0001
0010
0200
,
0000
2300
3002
0023
0100
0030
0001
0000
,
2000
3002
0010
0003
1000
0001
0010
0200
,
0000
0000
1300
0000
0001
0000
0100
0000
1000
0000
0100
0000
0002
0000
0000
0003
,
2000
0000
3010
0100
0001
0000
1000
0000
,
0001
0000
0000
0001
0000
0000
0001
0000
0010
0000
0000
0000
0100
0000
1000
0000
,
0002
0000
0103
0010
0000
1000
0001
0010
,
0000
1000
0010
0000
0001
1000
0100
0000
,
2000
0000
3010
0100
0001
0000
1000
0000
,
0001
0000
0000
0001
0000
0000
0001
0000
0010
0000
0000
0000
0100
0000
1000
0000
,
0002
0000
0103
0010
0000
1000
0001
0010
,
0100
0000
0000
0010
0000
0000
0002
0000
0000
0000
0003
0000
1000
0000
0001
0000
,
0010
0000
0001
1000
0000
0010
1000
0001
,
0000
0010
0010
0001
0000
1000
0100
0010
,
0001
0000
1000
0010
0000
1000
0001
0010
,
0000
0100
0100
1000
0000
0001
0100
0010
,
1000
0000
0001
0010
0000
0001
1000
0010
,
0000
1000
0001
0100
0010
1000
0001
0010
,
1000
0000
0010
0001
1000
0010
0100
0001
,
1000
0001
0001
0010
0000
0001
1000
0000
,
0010
0000
1000
0001
0000
0010
0001
1000
,
0000
0010
0010
1000
0000
0001
0100
0010
,
1000
0000
0001
0010
0000
0001
1000
0010
,
0000
0100
0100
0001
0000
1000
0100
0010
,
0001
0000
1000
0010
0000
1000
0001
0010
,
0000
0001
1000
0100
0010
0001
1000
0010
,
0001
0000
0010
1000
0001
0010
0100
1000
,
0001
1000
1000
0000
0001
0010
0001
1000
,
1001
1000
0000
0010
0000
1000
0001
0100
,
0000
0100
0010
0000
1000
0010
0100
0000
,
0001
1000
0001
0010
0000
0100
1000
0001
,
0000
1000
0010
0000
0010
1000
0001
0000
,
0011
0010
0000
0001
0000
1000
0001
0100
,
0000
0100
0010
0000
1000
0010
0100
0000
,
0001
1000
0001
0010
0000
0100
1000
0001
,
0000
1000
0010
0000
0010
1000
0001
0001
;

//--------------- dance-single - Pruz ----------------
#NOTES:
     dance-single:
     Pruz:
     Challenge:
     11:
     0.427469,0.419528,0.008243,0,0.045338,363,362,1,0,0,0,0,0,0,0.427469,0.419528,0.008243,0,0.045338,363,362,1,0,0,0,0,0,0:
0000
0000
0000
0000
,
0000
0000
0000
0000
,
0000
0000
0000
0000
,
0000
0000
0000
0000
,
2000
3000
0020
0030
0002
0003
0000
0000
2000
3000
0020
0030
0002
0003
2000
0000
,
0000
0000
3002
0003
0020
0030
0200
0300
0000
0000
0000
0000
2000
0000
0000
3000
,
0002
0003
0200
0300
2000
3000
0000
0000
0002
0003
0200
0300
2000
3000
0002
0000
,
0000
0000
2003
3000
0200
0300
0020
0030
0000
0000
0000
0000
0002
0000
0000
0003
,
2000
3000
0020
0030
0002
0003
0000
0000
2000
3000
0020
0030
0002
0003
2000
0000
,
0000
0000
3002
0003
0200
0300
0020
0030
0000
0000
0000
0000
2000
0000
0000
3000
,
0002
0003
0200
0300
2000
3000
0000
0000
0002
0003
0200
0300
2000
3000
0002
0000
,
0000
0000
2003
3000
0020
0030
0200
0300
0000
0000
0000
0000
0002
0000
0000
0003
,
1001
0001
0000
0010
0001
0000
1000
0001
,
0100
0010
0000
1000
0001
0010
0100
0000
,
1000
0001
0000
0010
0001
0000
1000
0001
,
0010
0100
0000
1000
0010
0100
0001
0000
,
1000
0001
0000
0010
0001
0000
1000
0001
,
0100
0010
0000
1000
0001
0010
0100
0000
,
1000
0001
0000
0010
0001
0000
1000
0001
,
0010
0000
0100
0000
0000
0000
1000
0000
0010
0000
0100
0000
0001
1000
0001
0000
,
0021
0030
0002
0003
2000
3000
0000
0000
0020
0030
2000
3000
0002
0003
0200
0000
,
0000
0000
0302
0003
2000
3000
0020
0030
0000
0000
1000
0000
0200
0000
0000
0300
,
0020
0030
0002
0003
2000
3000
0000
0000
0020
0030
2000
3000
0002
0003
0200
0000
,
0000
0000
0320
0030
2000
3000
0002
0003
0000
0000
2000
0000
3100
0000
0000
0000
,
2000
3000
0002
0003
0020
0030
0000
0000
0002
0003
2000
3000
0200
0300
0020
0000
,
0000
0000
0032
0003
2000
3000
0020
0030
0000
0000
2000
0000
3001
0000
0000
0000
,
0020
0030
0002
0003
2000
3000
0000
0000
0020
0030
2000
3000
0002
0003
0200
0000
,
0000
0000
0320
0030
2000
3000
0002
0003
0100
0000
0010
0000
1000
0001
1000
0000
,
2100
0000
3100
0010
0001
0000
0000
0000
,
0010
0000
0000
0010
0000
0000
0010
0000
0100
0000
0000
1000
0001
1000
0001
0000
,
0012
0000
0013
0001
1000
0001
0010
0000
,
0100
0000
1000
0000
0001
0100
0010
0000
,
2010
0000
3010
0100
0001
0000
0000
0000
,
0010
0000
0000
0010
0000
0000
0010
0000
0100
0000
0000
1000
0001
1000
0001
0000
,
0102
0000
0103
0001
1000
0001
0100
0000
,
0220
0330
0000
2020
3030
0000
2002
3000
0000
0000
0013
0000
0001
1000
0001
0000
,
0020
0000
0130
1000
0001
1000
0100
0010
,
0002
1003
0010
2000
0000
3000
0010
0100
,
0020
0000
0130
0001
1000
0001
0100
0010
,
2000
3001
0010
0002
0000
0003
0010
0100
,
2000
0000
3010
1000
0001
1000
0010
0100
,
0002
1003
0100
2000
3002
1003
0100
0010
,
0200
0000
0310
0001
1000
0001
0010
0100
,
2000
3001
0100
0002
0000
0003
1000
0001
,
0020
0000
0130
1000
0001
1000
0100
0010
,
0002
1003
0010
2000
0000
3000
0010
0100
,
0020
0000
0130
0001
1000
0001
0100
0010
,
2000
3001
0010
0002
0000
0003
0010
0100
,
2000
0000
3010
1000
0001
1000
0010
0100
,
0002
1003
0100
1000
0001
1000
0100
0010
,
0200
0000
0310
0001
1000
0001
0010
0100
,
1000
0002
0103
0001
2000
3001
0100
0010
,
2000
3000
0002
0003
0020
0030
0000
0000
0002
0003
2000
3000
0020
0030
0200
0000
,
0000
0000
0320
0030
2000
3000
0002
0003
0000
0000
2000
3000
0002
0000
0000
0003
,
0020
0030
0002
0003
2000
3000
0000
0000
0020
0030
2000
3000
0002
0003
0200
0000
,
0000
0000
0320
0030
2000
3000
0002
0003
0000
0000
2000
3000
0200
0000
0000
0300
,
2000
3000
0002
0003
0020
0030
0000
0000
0002
0003
2000
3000
0020
0030
0200
0000
,
0000
0000
0320
0030
2000
3000
0002
0003
0000
0000
2000
3000
0002
0000
0000
0003
,
0200
0300
0002
0003
0020
0030
0000
0000
0200
0300
2000
3000
0020
0030
0200
0000
,
0000
0000
0320
0030
2000
3000
0002
0003
0000
0000
2000
3000
0002
1003
0002
0000
,
0003
0000
0000
0000
;
