#TITLE:Fading Star;
#SUBTITLE:;
#ARTIST:ginkiha;
#TITLETRANSLIT:;
#SUBTITLETRANSLIT:;
#ARTISTTRANSLIT:;
#GENRE:Video Game;
#CREDIT:;
#MUSIC:Fading Star.ogg;
#BANNER:Fading Star.png;
#BACKGROUND:Fading Star-bg.png;
#CDTITLE:cdtitle.png;
#SAMPLESTART:45.792;
#SAMPLELENGTH:13.679;
#SELECTABLE:YES;
#OFFSET:0.458;
#BPMS:0.000=140.000;
#STOPS:;
#BGCHANGES:;
#FGCHANGES:;

//--------------- dance-single - Pruz ----------------
#NOTES:
     dance-single:
     Pruz:
     Beginner:
     3:
     0,0,0,0,0:
0000
0000
0000
0000
,
0000
0000
0000
0000
,
0000
0000
0000
0000
,
0000
0000
0000
0000
,
0000
0000
0000
0000
,
0000
0000
0000
0000
,
0000
0000
0000
0000
,
0000
0000
0000
0000
,
0000
0000
0000
0000
,
0000
0000
0000
0000
,
1002
0000
0000
0003
,
2000
0000
0000
3000
,
1002
0000
0000
0003
,
0002
0000
0000
0003
0000
0000
0000
0000
,
1002
0000
0000
0003
,
2000
0000
0000
3000
,
1002
0000
0000
0003
,
0002
0000
0000
0003
,
2000
3000
0010
0010
,
2000
3000
0001
0001
,
0200
0300
0001
0001
,
0020
0030
0001
0001
,
2000
3000
0100
0100
,
2000
3000
0001
0001
,
0020
0030
0001
0001
,
0200
0300
0001
0001
,
2000
0000
0000
3000
,
0002
0000
0000
0003
,
0020
0000
0000
0030
,
0200
0000
0000
0300
,
2000
0000
0000
3000
,
0002
0000
0000
0003
,
0200
0000
0000
0300
,
0020
0000
0000
0030
,
2000
0000
0000
3000
,
0002
0000
0000
1003
,
0020
0230
0302
1003
,
0002
0000
0000
1003
,
0200
0320
0032
1003
,
0002
0000
0000
1003
,
0020
0230
0302
1003
,
0002
0000
0000
1003
,
0020
2030
3002
0023
,
0031
1000
0000
0000
,
2000
3001
0020
0230
,
1300
0001
0000
0000
,
0002
1003
0020
0230
,
0301
1000
0000
0000
,
2000
3001
0200
0320
,
1030
0001
0000
0000
,
0002
1003
0200
0320
,
0032
0000
0000
0003
,
2000
0000
0000
3000
0000
0000
0000
0000
0010
0000
0000
0000
0010
0000
0000
0000
,
2000
0000
0000
3000
0000
0000
0000
0000
0001
0000
0000
0000
0001
0000
0000
0000
,
0200
0000
0000
0300
0000
0000
0000
0000
0001
0000
0000
0000
0001
0000
0000
0000
,
0020
0000
0000
0030
0000
0000
0000
0000
0001
0000
0000
0000
0001
0000
0000
0000
,
2000
0000
0000
3000
0000
0000
0000
0000
0100
0000
0000
0000
0100
0000
0000
0000
,
2000
0000
0000
3000
0000
0000
0000
0000
0001
0000
0000
0000
0001
0000
0000
0000
,
0020
0000
0000
0030
0000
0000
0000
0000
0001
0000
0000
0000
0001
0000
0000
0000
,
0200
0000
0000
0300
0000
0000
0000
0000
0001
0000
0000
0000
0001
0000
0000
0000
,
2000
0000
0000
3100
,
0020
0000
0000
0031
,
2000
0000
0000
3010
,
0200
0000
0000
0301
,
0020
0000
0000
0130
,
2000
0000
0000
3001
,
0200
0000
0000
0310
,
2000
0000
0000
3001
,
1001
0000
0000
0000
;

//--------------- dance-single - Pruz ----------------
#NOTES:
     dance-single:
     Pruz:
     Easy:
     5:
     0,0,0,0,0:
0000
0000
0000
0000
,
0000
0000
0000
0000
,
0000
0000
0000
0000
,
0000
0000
0000
0000
,
0000
0000
0000
0000
,
0000
0000
0000
0000
,
0000
0000
0000
0000
,
0000
0000
0000
0000
,
0000
0000
0000
0000
,
0000
0000
0000
0000
,
1000
0100
0000
0010
,
0001
0000
0000
0010
0000
0000
0100
0000
,
1000
0100
0000
0010
,
0001
0000
0000
1000
0000
0000
0001
0000
,
0001
0001
0001
0000
,
1000
1000
1000
0000
,
0010
0010
0010
0000
,
0200
0000
0000
0300
,
0001
1000
0001
0001
,
0010
0001
0010
0010
,
0100
0010
0100
0100
,
1000
0100
0001
0100
,
1000
0001
1000
1000
,
0010
1000
0010
0010
,
0100
0010
0100
0100
,
0001
0100
1000
0100
,
0001
0000
0000
1000
0000
0000
0001
0000
,
0020
0000
0000
0130
,
2000
3002
0023
0230
,
2300
0000
0000
3001
,
0200
0320
2030
3002
,
0023
0000
0000
0130
,
2000
3002
0203
0320
,
2030
0000
0000
3001
,
0020
0032
2003
3200
,
2300
0000
0000
3001
,
2000
3200
0320
0032
,
2003
0000
0000
3001
,
0200
0320
2030
3002
,
0023
0000
0000
0031
,
2000
3200
0320
0032
,
2003
0000
0000
3010
,
0200
0302
0023
0230
,
1300
0001
0000
1000
,
2000
3010
0200
0302
,
1003
0001
0000
1000
,
2000
3100
0020
0032
,
1003
0010
0000
1000
,
2000
3001
0020
0230
,
1300
0010
0000
1000
,
2000
3001
0200
0310
,
1000
0000
0000
0001
0000
0000
1000
0000
,
0002
0000
0000
0103
0000
0000
0001
0000
,
1000
0000
0000
0100
0000
0000
1000
0000
,
1000
0000
0000
0010
0000
0000
1000
0000
,
0001
0000
0000
0010
0000
0000
0001
0000
,
0001
0000
0000
0100
0000
0000
0001
0000
,
1000
0000
0000
0100
0000
0000
1000
0000
,
1000
0000
0000
0010
0000
0000
1000
0000
,
0001
0000
0000
0010
0000
0000
0001
0000
,
0001
0000
0000
0100
0000
0000
0001
0000
,
1000
0000
0000
0100
0000
0000
1000
0000
,
1000
0000
0000
0010
0000
0000
1000
0000
,
0001
0000
0000
0010
0000
0000
0001
0000
,
0001
0000
0000
0100
0000
0000
0001
0000
,
1000
0000
0000
0100
0000
0000
1000
0000
,
1000
0000
0001
0000
,
2002
0000
0000
3003
,
1001
0000
0000
0000
;

//--------------- dance-single - Pruz ----------------
#NOTES:
     dance-single:
     Pruz:
     Medium:
     10:
     0,0,0,0,0:
0000
0000
0000
0000
,
0000
0000
0000
0000
,
0000
0000
0000
0000
,
0000
0000
0000
0000
,
0000
0000
0000
0000
,
0000
0000
0000
0000
,
0000
0000
0000
0000
,
0000
0000
0000
0000
,
0000
0000
0000
0000
,
0000
0000
0000
0000
,
1002
0000
0000
1000
0000
0000
1003
0001
,
0001
0000
0000
0100
0000
0000
0001
0000
0000
1000
0000
0000
0001
0000
0100
0000
,
0201
0000
0000
0001
0000
0000
0301
0010
,
0010
0000
0000
0010
0000
0000
0010
0000
0000
1000
0000
0000
0001
0000
0000
0000
,
2001
0000
0000
0001
0000
0000
3001
1000
,
1000
0000
0000
0100
0000
0000
1000
0000
0000
0001
0000
0000
1000
0000
0100
0000
,
0200
0000
0000
1000
0000
0000
1300
0010
,
0010
0000
0000
0010
0000
0000
0010
0000
0000
0001
0000
0000
1000
0000
0000
0000
,
1001
0000
0000
0000
0101
0000
0000
0000
1001
0000
0000
1000
0000
0000
0001
0000
,
1001
0000
0000
0000
1100
0000
0000
0000
1001
0000
0000
0001
0000
0000
1000
0000
,
1001
0000
0000
0000
0011
0000
0000
0000
1001
0000
0000
1000
0000
0000
0001
0000
,
1001
0000
0000
0000
1010
0000
0000
0000
1001
0000
0000
0001
0000
0000
1000
0000
,
1002
0000
0000
0000
0013
0000
0000
0000
0200
0000
0000
1300
0000
0000
0001
0000
,
2000
0000
0000
0000
3001
0000
0000
0000
0200
0000
0000
0310
0000
0000
1000
0000
,
0002
0000
0000
0000
0103
0000
0000
0000
0020
0000
0000
1030
0000
0000
0001
0000
,
2000
0000
0000
0000
3001
0000
0000
0000
0020
0000
0000
0130
0000
0000
1000
0000
,
2001
0000
0000
3000
0001
0000
0200
0000
0000
0300
0001
0000
2000
0000
3000
0000
,
1002
0000
0000
0100
0000
0000
1003
0000
,
0001
0000
0000
0010
0000
0000
0100
0000
0000
0000
0000
0000
1000
0000
0000
0000
,
0002
0000
0000
0010
0000
0000
1003
0000
,
0001
0000
0000
0010
0000
0000
0100
0000
0000
0000
0000
0000
1000
0000
0000
0000
,
2001
0000
0000
0100
0000
0000
3001
0000
,
1000
0000
0000
0010
0000
0000
0100
0000
0000
0000
0000
0000
0001
0000
0000
0000
,
2000
0000
0000
0010
0000
0000
3001
0000
,
1000
0000
0000
0010
0000
0000
0100
0000
0000
0000
0000
0000
0001
0000
0000
0000
,
1002
0000
0000
0010
0000
0000
1003
0000
,
0001
0000
0000
0100
0000
0000
0010
0000
0000
0000
0000
0000
1000
0000
0000
0000
,
0002
0000
0000
0100
0000
0000
1003
0000
,
0001
0000
0000
0100
0000
0000
0010
0000
0000
0000
0000
0000
1000
0000
0000
0000
,
2001
0000
0000
0010
0000
0000
3001
0000
,
1000
0000
0000
0100
0000
0000
0010
0000
0000
0000
0000
0000
0001
0000
0000
0000
,
2000
0000
0000
0100
0000
0000
3001
0000
,
1000
0000
0000
0100
0000
0000
0010
0000
0000
0000
0000
0000
0001
0000
0000
0000
,
2001
0000
3010
0000
1000
0000
0001
0100
,
0001
0000
0000
0000
1000
0000
0000
0000
0020
0000
0000
0030
2000
0000
0000
3000
,
1002
0000
0013
0000
0001
0000
1000
0100
,
1000
0000
0000
0000
0001
0000
0000
0000
0020
0000
0000
0030
0002
0000
0000
0003
,
2001
0000
3100
0000
1000
0000
0001
0010
,
0001
0000
1000
0000
0001
0000
0000
0000
0200
0000
0000
0300
0002
0000
0000
0003
,
1002
0000
0103
0000
0001
0000
1000
0010
,
1000
0000
0001
0000
1000
0000
0000
0000
0200
0000
0000
0300
2000
0000
3000
0000
,
1001
0000
0000
0001
0000
0000
0001
0000
,
1002
0000
0000
2003
0000
0000
3002
0000
0000
2003
0000
0000
3001
0000
1000
0000
,
2000
0000
0000
3020
0000
0000
2030
0000
0000
3002
0000
0000
1003
0000
0010
0000
,
1020
0000
0000
2030
0000
0000
3020
0000
0000
2030
0000
0000
3010
0000
0100
0000
,
0100
0000
0000
0100
0000
0000
0100
0000
0000
0001
0000
0000
1000
0000
0000
0000
,
2001
0000
0000
3002
0000
0000
2003
0000
0000
3002
0000
0000
1003
0000
0001
0000
,
0002
0000
0000
0023
0000
0000
0032
0000
0000
2003
0000
0000
3001
0000
0010
0000
,
0021
0000
0000
0032
0000
0000
0023
0000
0000
0032
0000
0000
0013
0000
0100
0000
,
0100
0000
0000
0100
0000
0000
0100
0000
0000
1000
0000
0000
0001
0000
0000
0000
,
1001
0000
0000
1010
0000
0000
1001
0000
0000
0001
0000
0000
0020
0000
0030
0000
,
0002
0000
0000
0203
0000
0000
0320
0000
0000
2030
0000
0000
3001
0000
1000
0000
,
1001
0000
0000
0011
0000
0000
1001
0000
0000
1000
0000
0000
0020
0000
0030
0000
,
2000
0000
0000
3200
0000
0000
0320
0000
0000
0032
0000
0000
1003
0000
0001
0000
,
1002
0000
0000
1003
0010
0000
0000
0000
1000
0000
0000
0000
0001
0000
1000
0000
,
2001
0000
0000
3001
0010
0000
0000
0000
0001
0000
0000
0000
1000
0000
0001
0000
,
1002
0000
0000
0000
0100
0000
0000
0000
0000
1000
0000
0000
1003
0000
0000
0000
,
2001
0000
0000
0000
0100
0000
0000
0000
0000
0001
0000
0000
3001
0000
0000
0000
,
1001
0000
0000
0000
;

//--------------- dance-single - Pruz ----------------
#NOTES:
     dance-single:
     Pruz:
     Hard:
     12:
     0,0,0,0,0:
0000
0000
0000
0000
,
0000
0000
0000
0000
,
0000
0000
0000
0000
,
0000
0000
0000
0000
,
0000
0000
0000
0000
,
0000
0000
0000
0000
,
0000
0000
0000
0000
,
0000
0000
0000
0000
,
0000
0000
0000
0000
,
0000
0000
0000
0000
,
1002
0000
0000
0100
0000
0000
1000
0000
0000
0010
0000
0000
1003
0000
0001
0000
,
2001
0000
0000
0010
0000
0000
0001
0000
0000
0100
0000
0000
3001
0000
1000
0000
,
1002
0000
0000
0100
0000
0000
1000
0000
0000
0010
0000
0000
1003
0000
0001
0000
,
2001
0000
0000
0001
0000
0000
0001
0000
0000
0001
0000
0000
3001
0000
1000
0000
,
1002
0000
0000
0100
0000
0000
1000
0000
0000
0010
0000
0000
1003
0000
0001
0000
,
2001
0000
0000
0010
0000
0000
0001
0000
0000
0100
0000
0000
3001
0000
1000
0000
,
1002
0000
0000
0100
0000
0000
1000
0000
0000
0010
0000
0000
1003
0000
0001
0000
,
2001
0000
0000
0001
0000
0000
0001
0000
0000
0001
0000
0000
3001
0000
1000
0000
,
1001
0000
0000
0000
1100
0000
0000
0000
1001
0000
0000
0001
0000
0000
0100
0000
,
0101
0000
0000
0000
1001
0000
0000
0000
1010
0000
0000
1000
0000
0000
1000
0000
,
1001
0000
0000
0000
0101
0000
0000
0000
1001
0000
0000
1000
0000
0000
0100
0000
,
1100
0000
0000
0000
1001
0000
0000
0000
0011
0000
0000
0001
0000
0000
0001
0000
,
1001
0000
0000
1000
0100
0000
0000
0000
1000
0000
0001
0000
1000
0000
0000
0000
,
1001
0000
0000
0001
0100
0000
0000
0000
0001
0000
0000
0001
0000
0000
0001
0000
,
1001
0000
0000
1000
0100
0000
0000
0000
1000
0000
0001
0000
1000
0000
0000
0000
,
1001
0000
0000
0001
0100
0000
0000
0000
0001
0000
0000
0001
0000
0000
0001
0000
,
1002
0000
0000
1003
0001
0000
0020
0000
0000
0031
1000
0000
0002
0000
0003
0000
,
1002
0000
0000
0000
0010
0000
0000
0000
1000
0000
0000
0000
0103
0000
0001
1000
,
0002
0100
1000
0013
,
0002
0000
0000
0000
1000
0000
0000
0000
0100
0000
0000
0000
1003
0000
0001
0010
,
0002
1000
0100
1003
,
2001
0000
0000
0000
0100
0000
0000
0000
0001
0000
0000
0000
3010
0000
1000
0001
,
2000
0010
0001
3100
,
2000
0000
0000
0000
0001
0000
0000
0000
0010
0000
0000
0000
3001
0000
1000
0100
,
2000
0001
0010
3100
,
1002
0000
0000
0000
0100
0000
0000
0000
1000
0000
0000
0000
0013
0000
0001
1000
,
0002
0010
1000
0103
,
0002
0000
0000
0000
1000
0000
0000
0000
0010
0000
0000
0000
1003
0000
0001
0100
,
0002
1000
0010
1003
,
2001
0000
0000
0000
0010
0000
0000
0000
0001
0000
0000
0000
3100
0000
1000
0001
,
2000
0100
0001
3010
,
2000
0000
0000
0000
0001
0000
0000
0000
0100
0000
0000
0000
3001
0000
1000
0010
,
2000
0001
0100
3010
,
1001
0000
0000
0101
0000
0000
0001
1000
0001
1000
0001
1000
,
0010
0100
0001
1000
0000
0000
0002
0000
0003
2000
0000
3000
,
1001
0000
0000
1100
0000
0000
1000
0001
1000
0001
1000
0001
,
0010
0100
1000
0001
0000
0000
2000
0000
3000
0002
0000
0003
,
1001
0000
0000
0011
0000
0000
0001
1000
0001
1000
0001
1000
,
0100
0010
0001
1000
0000
0000
0002
0000
0003
2000
0000
3000
,
1001
0000
0000
1010
0000
0000
1000
0001
1000
0001
1000
0001
,
0100
0010
1000
0001
0000
0000
2000
0000
3000
0002
0000
0003
,
1000
0000
0000
0001
1000
0000
0010
0000
0000
1000
0001
0000
1000
0000
0000
0000
,
1002
0000
0000
0010
0000
0000
1000
0000
0000
0100
0000
0000
1003
0000
0001
0000
,
2001
0000
0000
0100
0000
0000
0001
0000
0000
0010
0000
0000
3100
0000
0001
0000
,
1002
0000
0000
0010
0000
0000
1000
0000
0000
0100
0000
0000
1003
0000
0001
0000
,
2001
0000
0000
0001
0000
0000
0001
0000
0000
0001
0000
0000
3001
0000
1000
0000
,
1002
0000
0000
0010
0000
0000
1000
0000
0000
0100
0000
0000
1003
0000
0001
0000
,
2001
0000
0000
0100
0000
0000
0001
0000
0000
0010
0000
0000
3100
0000
0001
0000
,
1002
0000
0000
0010
0000
0000
1000
0000
0000
0100
0000
0000
1003
0000
0001
0000
,
2001
0000
0000
0001
0000
0000
0001
0000
0000
0001
0000
0000
3001
0000
1000
0000
,
1002
0000
0000
0100
0000
0000
1000
0000
0000
0010
0000
0000
1003
0000
0001
0000
,
2001
0000
0000
0010
0000
0000
0001
0000
0000
0100
0000
0000
3001
0000
1000
0000
,
1002
0000
0000
0100
0000
0000
1000
0000
0000
0010
0000
0000
1003
0000
0001
0000
,
2001
0000
0000
0010
0000
0000
0100
0000
0000
0010
0000
0000
3001
0000
1000
0000
,
1002
0000
0000
0100
0000
0000
1000
0000
0000
0010
0000
0000
1003
0000
0001
0000
,
2001
0000
0000
0010
0000
0000
0001
0000
0000
0100
0000
0000
3001
0000
1000
0000
,
1002
0000
0000
0100
0000
0000
1000
0000
0000
0010
0000
0000
1003
0000
0001
0000
,
2001
0000
0000
0010
0000
0000
0100
0000
0000
0010
0000
0000
3001
0000
1000
0000
,
1001
0000
0000
0000
;

//--------------- dance-single - Pruz ----------------
#NOTES:
     dance-single:
     Pruz:
     Challenge:
     14:
     0,0,0,0,0:
0000
0000
0000
0000
,
0000
0000
0000
0000
,
0000
0000
0000
0000
,
0000
0000
0000
0000
,
0000
0000
0000
0000
,
0000
0000
0000
0000
,
0000
0000
0000
0000
,
0000
0000
0000
0000
,
0000
0000
0000
0000
,
0000
0000
0000
0000
,
1002
0000
0000
1003
0000
0000
0010
0000
0000
0100
0000
0000
0001
0000
1000
0000
,
2001
0000
0000
3001
0000
0000
0010
0000
0000
0100
0000
0000
1000
0000
0001
0000
,
1002
0000
0000
1003
0000
0000
0010
0000
0000
0100
0000
0000
0001
0000
1000
0000
,
2001
0000
0000
3002
0000
0000
0023
0000
0000
0230
0000
0000
2300
0000
3001
0000
,
1002
0000
1003
0100
0000
0000
1000
0000
0000
0001
0000
0000
0010
0000
0001
0000
,
2001
0000
3001
0100
0002
0000
1003
0000
0020
0100
0030
0100
0020
0000
1030
0000
,
1002
0000
1003
0010
0000
0000
1000
0000
0000
0001
0000
0000
0010
0000
0001
0000
,
2001
0000
3001
0010
0002
0000
1003
0000
0200
0010
0300
0010
0200
0000
1300
0000
,
1001
0000
0000
0000
0011
0000
0000
0000
2000
0000
0000
3200
0000
0000
0310
0000
,
0011
0000
0000
0000
0110
0000
0000
0000
0002
0000
0000
0023
0000
0000
0130
0000
,
1100
0000
0000
0000
1001
0000
0000
0000
0200
0000
0000
0302
0000
0000
1003
0000
,
1010
0000
0000
0000
1001
0000
0000
0000
0020
0000
0000
0032
0000
0000
1003
0000
,
1001
0000
0000
0000
0101
0000
0000
0000
2000
0000
0000
3020
0000
0000
0130
0000
,
0101
0000
0000
0000
0110
0000
0000
0000
0002
0000
0000
0203
0000
0000
0310
0000
,
1010
0000
0000
0000
1001
0000
0000
0000
0020
0000
0000
0032
0000
0000
1003
0000
,
1100
0000
0000
0000
1001
0000
0000
0000
0200
0000
0000
0302
0000
0000
1003
0000
,
2001
0000
0000
3001
0100
0000
0002
0000
0000
1003
0010
0000
2000
0000
3001
0000
,
2001
0000
0000
0100
0000
0000
0001
0000
0000
0010
0000
0000
3001
0000
1000
0001
,
0020
0000
0000
1000
0000
0000
0001
0000
0000
0130
1000
0000
0001
0000
0000
1000
,
0002
0000
0000
0100
0000
0000
1000
0000
0000
0010
0000
0000
1003
0000
0001
1000
,
0020
0000
0000
0001
0000
0000
1000
0000
0000
0130
0001
0000
1000
0000
0000
0001
,
2000
0000
0000
0010
0000
0000
0001
0000
0000
0100
0000
0000
3001
0000
1000
0001
,
0200
0000
0000
1000
0000
0000
0001
0000
0000
0310
1000
0000
0001
0000
0000
1000
,
0002
0000
0000
0010
0000
0000
1000
0000
0000
0100
0000
0000
1003
0000
0001
1000
,
0200
0000
0000
0001
0000
0000
1000
0000
0000
0310
0001
0000
1000
0000
0000
0001
,
0020
0000
0000
1000
0000
0000
0100
0000
0000
0001
0000
0000
0130
0000
1000
0001
,
2000
0000
0000
0010
0000
0000
0100
0000
0000
3001
1000
0000
0100
0000
0000
1000
,
0020
0000
0000
0001
0000
0000
0100
0000
0000
1000
0000
0000
0130
0000
0001
1000
,
0002
0000
0000
0100
0000
0000
0010
0000
0000
1003
0001
0000
0010
0000
0000
0001
,
0200
0000
0000
1000
0000
0000
0010
0000
0000
0001
0000
0000
0310
0000
1000
0001
,
2000
0000
0000
0100
0000
0000
0010
0000
0000
3001
1000
0000
0010
0000
0000
1000
,
0200
0000
0000
0001
0000
0000
0010
0000
0000
1000
0000
0000
0310
0000
0001
1000
,
0002
0000
0000
0010
0000
0000
0100
0000
0000
1003
0001
0000
0010
0000
0000
0001
,
2000
0000
0000
0000
0000
0000
0000
0000
0000
0000
0000
0000
3001
0000
0000
0010
0000
0000
0000
0000
0000
0010
0000
0000
0001
0000
0000
0000
1000
0000
0000
0000
1000
0000
0000
0000
0100
0000
0000
0000
1000
0000
0000
0000
0001
0000
0000
0000
,
1000
1000
1000
0010
0000
0000
1000
0001
0100
0001
0001
0001
,
2000
0000
0000
0000
0000
0000
0000
0000
0000
0000
0000
0000
3001
0000
0000
0100
0000
0000
0000
0000
0000
0100
0000
0000
0001
0000
0000
0000
1000
0000
0000
0000
1000
0000
0000
0000
0010
0000
0000
0000
1000
0000
0000
0000
0001
0000
0000
0000
,
1000
1000
1000
0100
0000
0000
1000
1000
1000
0001
0001
0001
,
0200
0000
0000
0000
0000
0000
0000
0000
0000
0000
0000
0000
0301
0000
0000
1000
0000
0000
0000
0000
0000
1000
0000
0000
0001
0000
0000
0000
0010
0000
0000
0000
0001
0000
0000
0000
1000
0000
0000
0000
1000
0000
0000
0000
1000
0000
0000
0000
,
0001
1000
0001
0010
0000
0000
0100
0100
0100
1000
1000
1000
,
0002
0000
0000
0000
0000
0000
0000
0000
0000
0000
0000
0000
1003
0000
0000
0001
0000
0000
0000
0000
0000
0001
0000
0000
1000
0000
0000
0000
0010
0000
0000
0000
1000
0000
0000
0000
0002
0000
0003
0000
0002
0000
0003
0000
0002
0000
0003
0000
,
1000
0000
0001
0000
1000
0000
0020
0000
0030
0000
0000
0000
0200
0300
0200
0300
0200
0300
0002
0003
0002
0003
0002
0003
,
2000
0000
0000
3010
1000
0000
0002
0000
0000
1003
0100
0000
2000
0000
0000
3000
,
2001
0000
3000
1010
0000
0000
0110
0000
0000
0100
0001
0000
1000
0000
0001
0000
,
0101
0000
0000
1010
0000
0000
1001
0000
0000
1000
0100
0000
0010
0000
0001
0000
,
1001
0000
0000
1010
0000
0000
0110
0000
0000
0100
0001
0000
1000
0000
0001
0000
,
0101
0000
0000
1010
0000
0000
1001
0000
0000
1000
0010
0000
0100
0000
0001
0000
,
2001
0000
3000
1100
0000
0000
1001
0000
0000
0001
0010
0000
0100
0000
1000
0000
,
1001
0000
0000
0101
0000
0000
1001
0000
1000
0100
0000
0100
1000
0000
0001
0000
,
1001
0000
0000
0101
0000
0000
1001
0000
0000
1000
0010
0000
0100
0000
0001
0000
,
1001
0000
0000
1100
0000
0000
1001
0000
0001
0100
0000
0100
0001
0000
1000
0000
,
2001
0000
3000
1100
0000
0000
0110
0000
0000
0010
0001
0000
1000
0000
0001
0000
,
0011
0000
0000
1100
0000
0000
1001
0000
0000
1000
0010
0000
0100
0000
0001
0000
,
1001
0000
0000
1100
0000
0000
0110
0000
0000
0010
0001
0000
1000
0000
0001
0000
,
0011
0000
0000
1100
0000
0000
1001
0000
0000
1000
0100
0000
0010
0000
0001
0000
,
2001
0000
3000
1010
0000
0000
0101
0000
0000
0001
0010
0000
0100
0000
1000
0000
,
1001
0000
0000
0011
0000
0000
1001
0000
1000
0010
0000
0001
0010
0000
1000
0000
,
1001
0000
0000
0011
0000
0000
1100
0000
0000
1000
0010
0000
0100
0000
0001
0000
,
1001
0000
0000
1010
0000
0000
1001
0000
0001
0010
0000
1000
0010
0000
0001
0000
,
1001
0000
0000
0000
;
