#TITLE:Ego;
#SUBTITLE:;
#ARTIST:Willy William;
#TITLETRANSLIT:;
#SUBTITLETRANSLIT:;
#ARTISTTRANSLIT:;
#GENRE:Dance/Electronic;
#CREDIT:;
#BANNER:Ego.png;
#BACKGROUND:Ego-bg.png;
#LYRICSPATH:;
#CDTITLE:;
#MUSIC:Ego.ogg;
#OFFSET:-0.064000;
#SAMPLESTART:57.584999;
#SAMPLELENGTH:15.390000;
#SELECTABLE:YES;
#BPMS:0.000000=99.986000
,163.000000=99.000000
,164.000000=93.000000
,165.000000=97.000000
,167.000000=101.000000
,168.000000=95.500000
,170.000000=94.500000
,171.000000=93.000000
,172.000000=79.000000
,173.000000=87.000000
,174.000000=76.000000
;
#STOPS:
;
#BGCHANGES:0.000=Ego.avi=1.000=0=0=1=====,
99999=-nosongbg-=1.000=0=0=0 // don't automatically add -songbackground-
;
#KEYSOUNDS:;
#ATTACKS:;

//---------------dance-single - Pruz----------------
#NOTES:
     dance-single:
     Pruz:
     Beginner:
     2:
     0.116515,0.162658,0.000000,0.074146,0.000000,88.000000,88.000000,0.000000,8.000000,0.000000,0.000000,0.116515,0.162658,0.000000,0.074146,0.000000,88.000000,88.000000,0.000000,8.000000,0.000000,0.000000:
// measure 0
0000
0000
0000
0000
,  // measure 1
0000
0000
0000
0000
,  // measure 2
0000
0000
0000
0000
,  // measure 3
0000
0000
0000
0000
,  // measure 4
2000
0000
0000
0000
,  // measure 5
3020
0000
0000
0000
,  // measure 6
0230
0000
0000
0000
,  // measure 7
0302
0000
0000
0000
,  // measure 8
1003
0100
0000
0000
,  // measure 9
1000
0000
0000
0000
,  // measure 10
0010
0000
0000
0000
,  // measure 11
1000
0000
0001
0001
,  // measure 12
0001
0010
0000
0000
,  // measure 13
0001
0000
0000
0000
,  // measure 14
0100
0000
0000
0000
,  // measure 15
0001
0000
1000
1000
,  // measure 16
1000
0001
0000
0001
,  // measure 17
1000
0010
0000
0010
,  // measure 18
1000
0001
0000
0001
,  // measure 19
1000
0100
0010
0010
,  // measure 20
0001
1000
0000
0010
,  // measure 21
1000
0001
0000
0010
,  // measure 22
0001
1000
0000
0100
,  // measure 23
1000
0001
0100
0100
,  // measure 24
0001
0010
0000
0000
,  // measure 25
0001
0000
0000
0000
,  // measure 26
0100
0000
0000
0000
,  // measure 27
0001
0000
1000
1000
,  // measure 28
1000
0100
0000
0000
,  // measure 29
1000
0000
0000
0000
,  // measure 30
0010
0000
0000
0000
,  // measure 31
1000
0000
0001
0001
,  // measure 32
0001
1000
0000
1000
,  // measure 33
0001
0100
0000
0100
,  // measure 34
0001
1000
0000
1000
,  // measure 35
0001
0010
0100
0100
,  // measure 36
1000
0001
0000
0100
,  // measure 37
0001
1000
0000
0100
,  // measure 38
1000
0001
0000
0010
,  // measure 39
0001
1000
0010
0100
,  // measure 40
0002
0000
0000
0000
,  // measure 41
0023
0000
0000
0000
,  // measure 42
0230
0000
0000
0000
,  // measure 43
2300
0000
0000
0000
0000
0000
0000
3000
;

//---------------dance-single - Pruz----------------
#NOTES:
     dance-single:
     Pruz:
     Easy:
     3:
     0.161533,0.161268,0.000000,0.055610,0.000000,122.000000,122.000000,0.000000,6.000000,0.000000,0.000000,0.161533,0.161268,0.000000,0.055610,0.000000,122.000000,122.000000,0.000000,6.000000,0.000000,0.000000:
0000
0000
0000
0000
,
0000
0000
0000
0000
,
0000
0000
0000
0000
,
0000
0000
0000
0000
,
2000
0001
0010
0000
,
3002
1000
0010
0000
,
2003
0010
0001
0000
,
3200
0010
0001
0000
,
1300
0001
0010
0100
,
1000
0000
0001
0010
,
0100
0000
1000
0100
,
0010
0000
0001
0100
,
0001
1000
0010
0100
,
0001
0000
1000
0010
,
0100
0000
0001
0100
,
0010
0000
1000
0100
,
1000
0001
0010
0000
,
0001
1000
0010
0000
,
1000
0001
0100
0000
,
0001
1000
0010
0010
,
1000
0001
0100
0000
,
0001
1000
0100
0000
,
1000
0001
0010
0000
,
0001
0000
1000
0000
0020
0000
0000
0030
,
1000
0001
0100
0010
,
1000
0000
0001
0100
,
0010
0000
1000
0100
,
0010
0000
0001
0100
,
0001
1000
0100
0010
,
0001
0000
1000
0100
,
0010
0000
0001
0100
,
0010
0000
1000
0100
,
1000
0001
0010
0000
,
0001
1000
0010
0000
,
1000
0001
0100
0000
,
0001
1000
0010
0010
,
1000
0001
0100
0000
,
0001
1000
0100
0000
,
1000
0001
0010
0000
,
0001
0000
1000
0000
0020
0000
0000
0030
,
1000
0000
0001
0000
,
0010
0000
0001
0000
,
1000
0000
0010
0000
,
1000
0000
0001
0000
;

//---------------dance-single - Pruz----------------
#NOTES:
     dance-single:
     Pruz:
     Medium:
     6:
     0.264808,0.284652,0.055610,0.037073,0.000000,200.000000,194.000000,6.000000,4.000000,0.000000,0.000000,0.264808,0.284652,0.055610,0.037073,0.000000,200.000000,194.000000,6.000000,4.000000,0.000000,0.000000:
0000
0000
0000
0000
,
0000
0000
0000
0000
,
0000
0000
0000
0000
,
0000
0000
0000
0000
,
2001
0001
0010
3001
,
0200
1000
0010
0301
,
2001
0001
0100
3001
,
0020
0000
1000
0000
0100
0000
0031
1000
,
0001
0000
0100
0000
0001
0000
1000
0010
,
0100
0000
0001
0000
1000
0000
0001
0010
,
0100
0000
1000
0000
0001
0000
1000
0010
,
0100
0000
0001
1000
0100
1000
0010
1000
,
0001
0000
0010
0000
0100
0000
1000
0001
,
0010
0000
0001
0000
0100
0000
0010
1000
,
0001
0000
0010
0000
0001
0000
1000
0001
,
0100
0000
0001
1000
0010
1000
0100
1000
,
0001
0010
0001
1000
,
0010
0100
0001
1000
,
0001
0010
0001
1000
,
0100
0010
0001
0001
,
0101
0100
0001
1000
,
0100
0010
0001
1000
,
0001
0100
0001
1000
,
0010
0100
0001
0001
,
1001
0000
1000
0000
0001
0000
1000
0010
,
0100
0000
0001
0000
1000
0000
0001
0010
,
0100
0000
1000
0000
0001
0000
1000
0010
,
0100
0000
0001
1000
0100
1000
0010
1000
,
0001
0000
0010
0000
0100
0000
1000
0001
,
0010
0000
0001
0000
0100
0000
0010
1000
,
0001
0000
0010
0000
0001
0000
1000
0001
,
0100
0000
0001
1000
0010
1000
0100
1000
,
0001
0010
0001
1000
,
0010
0100
0001
1000
,
0001
0010
0001
1000
,
0100
0010
0001
0001
,
0101
0100
0001
1000
,
0100
0010
0001
1000
,
0001
0100
0001
1000
,
0010
0100
0001
0001
,
1001
0000
1000
0000
0010
0100
0010
1000
,
0001
0000
0001
0000
0010
0100
0010
0001
,
1000
0000
0100
0010
0100
1000
0001
0000
,
0001
0000
0100
0010
0100
0001
1000
0001
;

//---------------dance-single - Pruz----------------
#NOTES:
     dance-single:
     Pruz:
     Hard:
     9:
     0.370731,0.386313,0.407804,0.074146,0.129756,280.000000,236.000000,44.000000,8.000000,0.000000,0.000000,0.370731,0.386313,0.407804,0.074146,0.129756,280.000000,236.000000,44.000000,8.000000,0.000000,0.000000:
0000
0000
0000
0000
,
0000
0000
0000
0000
,
0000
0000
0000
0000
,
0000
0000
0000
0000
,
2000
0000
0000
0000
0000
0000
0000
0000
0001
0000
0000
0000
0000
0000
0000
0000
0010
0000
0000
0000
0000
0010
0000
0000
0000
0000
3001
0000
1000
0000
0001
0000
,
0020
0000
0000
0000
0000
0000
0000
0000
0100
0000
0000
0000
0000
0000
0000
0000
0001
0000
0000
0000
0000
0000
0000
0001
0000
0000
0130
0000
1000
0000
0001
0000
,
2000
0000
0000
0000
0000
0000
0000
0000
0001
0000
0000
0000
0000
0000
0000
0000
0010
0000
0000
0000
0000
0010
0000
0000
0000
0000
3001
0000
1000
0000
0001
0000
,
0020
0000
0000
0000
0000
0000
0000
0000
0100
0000
0000
0000
0000
0000
0000
0000
0001
0000
0000
0000
0000
0000
0000
0001
0000
0000
0130
0000
1000
0000
0001
0000
,
2000
0000
3010
0000
0001
0010
0100
1000
,
0001
0000
1000
0000
0001
0100
0010
1000
,
0001
0000
1000
0000
0001
0010
0100
1000
,
0001
1000
1001
0101
,
1002
0000
0013
0000
1000
0010
0100
0001
,
1000
0000
0001
0000
1000
0100
0010
0001
,
1000
0000
0001
0000
1000
0010
0100
0001
,
1000
0001
1001
1100
,
1001
0000
0000
0001
0010
0000
0001
0000
1000
0000
0000
0000
0100
0000
0000
0000
,
1100
0000
0000
0000
1001
0000
0001
0000
0100
0001
0000
0001
1000
0000
0001
0000
,
1001
0000
0000
1000
0010
0000
1000
0000
0001
0000
0000
0000
0100
0000
0000
0000
,
0101
1001
1010
0110
,
1001
0000
0000
1000
0010
0000
1000
0000
0001
0000
0000
0000
0100
0000
0000
0000
,
0101
0000
0000
0000
1001
0000
1000
0000
0100
1000
0000
1000
0001
0000
1000
0000
,
1001
0000
0000
0001
0010
0000
0001
0000
1000
0000
0000
0000
0100
0000
0000
0000
,
1100
1001
0011
0110
,
2001
0000
3010
0000
0001
0010
0100
1000
,
0001
0000
1000
0000
0001
0100
0010
1000
,
0001
0000
1000
0000
0001
0010
0100
1000
,
0001
1000
1001
0101
,
1002
0000
0013
0000
1000
0010
0100
0001
,
1000
0000
0001
0000
1000
0100
0010
0001
,
1000
0000
0001
0000
1000
0010
0100
0001
,
1000
0001
1001
1100
,
1001
0000
0000
0001
0010
0000
0001
0000
1000
0000
0000
0000
0100
0000
0000
0000
,
1100
0000
0000
0000
1001
0000
0001
0000
0100
0001
0000
0001
1000
0000
0001
0000
,
1001
0000
0000
1000
0010
0000
1000
0000
0001
0000
0000
0000
0100
0000
0000
0000
,
0101
1001
1010
0110
,
1001
0000
0000
1000
0010
0000
1000
0000
0001
0000
0000
0000
0100
0000
0000
0000
,
0101
0000
0000
0000
1001
0000
1000
0000
0100
1000
0000
1000
0001
0000
1000
0000
,
1001
0000
0000
0001
0010
0000
0001
0000
1000
0000
0000
0000
0100
0000
0000
0000
,
1100
1001
0011
0110
,
1001
0000
0001
0100
0010
0000
1000
0100
,
0010
0000
0001
1000
0010
0000
1000
0001
,
0010
0000
0100
1000
0001
0000
0100
0001
,
1000
0000
0010
0100
0001
0000
0010
0100
;

//---------------dance-single - Pruz----------------
#NOTES:
     dance-single:
     Pruz:
     Challenge:
     12:
     0.503135,0.508307,0.166829,0.074146,0.412438,380.000000,362.000000,18.000000,8.000000,0.000000,0.000000,0.503135,0.508307,0.166829,0.074146,0.412438,380.000000,362.000000,18.000000,8.000000,0.000000,0.000000:
0000
0000
0000
0000
,
0000
0000
0000
0000
,
0000
0000
0000
0000
,
0000
0000
0000
0000
,
2000
0000
0000
0000
0000
0000
0000
0000
0010
0000
0000
0000
0000
0000
0000
0000
0001
0000
0000
0000
0000
0100
0000
0000
0000
3000
0001
0000
1000
0000
0001
0000
,
0200
0000
0000
0000
0000
0000
0000
0000
1000
0000
0000
0000
0000
0000
0000
0000
0010
0000
0000
0000
0000
0001
0000
0000
0000
0000
0310
0000
0100
0000
0010
0000
,
0002
0000
0000
0000
0000
0000
0000
0000
0100
0000
0000
0000
0000
0000
0000
0000
1000
0000
0000
0000
0000
0010
0000
0000
0000
0003
1000
0000
0001
0000
1000
0000
,
0020
0000
0000
0000
0000
0000
0000
0000
0001
0000
0000
0000
0000
0000
0000
0000
0100
0000
0000
0000
0000
1000
0000
0000
0000
0000
0130
0000
0010
0000
0100
0000
,
1000
0000
0001
0000
0010
0000
0001
0000
1000
0000
0010
1000
0010
0000
0100
0001
,
1000
0000
0001
0000
0010
0000
0001
0000
1000
0000
0100
1000
0100
0000
0010
0001
,
1000
0000
0001
0000
0100
0000
0001
0000
1000
0000
0010
1000
0010
0000
0100
0001
,
1000
0001
0010
0001
1000
0100
0001
0100
,
1000
0000
0010
0000
0100
0000
0001
0000
1000
0000
0010
1000
0010
0000
0100
0001
,
1000
0000
0001
0000
0010
0000
0100
0000
1000
0000
0100
1000
0100
0000
0010
0001
,
1000
0000
0100
0000
0010
0000
0001
0000
1000
0000
0010
1000
0010
0000
0100
0001
,
1000
0001
0100
0010
1000
0100
0001
0100
,
1000
0000
0000
0001
0010
0000
0100
0000
1000
0001
0000
1000
0010
0000
0100
0000
,
0001
0000
0000
1000
0010
0000
0100
0000
0001
1000
0000
0001
0010
0000
0100
0000
,
1100
0000
1001
0000
1100
0000
1000
0000
0001
0010
0000
0100
1000
0000
0001
0000
,
0100
0000
0000
0001
1000
0000
0100
0000
0110
0000
0001
0000
0110
0000
1000
0000
,
0001
0000
0000
1000
0010
0000
0100
0000
0001
1000
0000
0001
0010
0000
0100
0000
,
1000
0000
0000
0001
0010
0000
0100
0000
1000
0001
0000
1000
0010
0000
0100
0000
,
0101
0000
1001
0000
0101
0000
0001
0000
1000
0010
0000
0100
0001
0000
1000
0000
,
0100
0000
0000
1000
0001
0000
0100
0000
0010
1000
0000
0001
1000
0000
0100
0000
,
1000
0000
0000
0001
0010
0000
0001
0000
1000
0010
0000
0010
1000
0000
0001
1000
,
0001
0000
0000
0010
0001
0000
1000
0000
0001
0000
0100
0010
1000
0000
0100
0010
,
0001
0000
0000
1000
0010
0000
1000
0000
0001
0000
0010
0100
1000
0000
0010
0100
,
0001
0000
0000
0010
0001
0000
1000
0000
0001
0000
0100
0000
1000
0000
0100
0000
,
0001
0000
0000
1000
0010
0000
1000
0000
0001
0010
0000
0010
0001
0000
1000
0001
,
1000
0000
0000
0010
1000
0000
0001
0000
1000
0000
0100
0010
0001
0000
0100
0010
,
1000
0000
0000
0001
0010
0000
0001
0000
1000
0000
0010
0100
0001
0000
0010
0100
,
1000
0000
0000
0010
1000
0000
0001
0000
1000
0000
0100
0000
0001
0000
0100
0000
,
1000
0000
0001
0010
0001
0000
0001
0000
1000
0010
0000
0100
0001
0000
1000
0000
,
0001
0000
1000
0010
1000
0000
1000
0000
0001
1000
0000
0001
0010
0000
0100
0000
,
1100
0000
1001
0000
1100
0000
1000
0000
0001
0010
0000
0100
1000
0000
0001
0000
,
0100
0001
0100
0001
1000
0000
0100
0000
0110
0000
0001
0000
0110
0000
1000
0000
,
0001
0000
1000
0010
1000
0000
1000
0000
0001
0010
0000
0100
1000
0000
0001
0000
,
1000
0000
0001
0010
0001
0000
0001
0000
1000
0001
0000
1000
0010
0000
0100
0000
,
0101
0000
1001
0000
0101
0000
0001
0000
1000
0010
0000
0100
0001
0000
1000
0000
,
0100
1000
0100
1000
0001
0000
0100
0000
0110
0000
1000
0000
0110
0000
0001
0000
,
2000
0010
0100
0001
0010
0100
3001
0001
,
0200
0000
1000
0000
0001
0000
0010
0000
1000
0000
0001
0000
1300
0000
0100
0010
,
0002
0100
0010
1000
0100
0010
1003
1000
,
0020
0001
1000
0100
0001
1000
0031
1000
;
