#TITLE:Dynamite;
#SUBTITLE:;
#ARTIST:Taio Cruz;
#TITLETRANSLIT:;
#SUBTITLETRANSLIT:;
#ARTISTTRANSLIT:;
#GENRE:Dance-Pop;
#CREDIT:;
#MUSIC:Dynamite.ogg;
#BANNER:Dynamite.png;
#BACKGROUND:Dynamite-bg.png;
#LYRICSPATH:Dynamite.lrc;
#CDTITLE:;
#SAMPLESTART:20.030;
#SAMPLELENGTH:15.115;
#SELECTABLE:YES;
#OFFSET:-0.072;
#BPMS:0.000=120.000;
#STOPS:;
#ORIGIN:;
#TAGS:;
#PREVIEWVID:;
#JACKET:Dynamite-jacket.png;
#CDIMAGE:;
#DISCIMAGE:;
#BGCHANGES:0.000=Dynamite.avi=1.000=1=0=0=StretchNoLoop==CrossFade==,
99999.000=-nosongbg-=1.000=0=0=0=StretchNoLoop====
;
#FGCHANGES:;

//--------------- dance-single - Pruz ----------------
#NOTES:
     dance-single:
     Pruz:
     Beginner:
     1:
     0.076803,0.112804,0,0.403214,0,56,56,0,42,0,0,0,0,0,0.076803,0.112804,0,0.403214,0,56,56,0,42,0,0,0,0,0:
0000
0000
0000
0000
,
0000
0000
0000
0000
,
0000
0000
0000
0000
,
0000
0000
0000
0000
,
0000
0000
0000
0000
,
0000
0000
0000
0000
,
2000
0000
0000
3000
0000
0000
0000
0000
,
2000
0000
0000
3000
0000
0000
0000
0000
,
0002
0000
0000
0003
0000
0000
0000
0000
,
0002
0000
0000
0003
0000
0000
0000
0000
,
0020
0000
0000
0000
,
0000
0000
0000
0030
0000
0000
0000
0000
,
0200
0000
0000
0300
0000
0000
0000
0000
,
2000
0000
0000
3000
0000
0000
0000
0000
,
0020
0000
0000
0000
,
0000
0000
0000
0030
0000
0000
0000
0000
,
0200
0000
0000
0300
0000
0000
0000
0000
,
0002
0000
0000
0003
0000
0000
0000
0000
,
2000
3000
0200
0300
,
0010
0000
0001
0000
,
2000
3000
0020
0030
,
0100
0000
0001
0000
,
2000
3000
0200
0300
,
0010
0000
0001
0000
,
2000
3000
0020
0030
,
0200
0000
0000
0300
0000
0000
0000
0000
,
0002
0000
0003
2000
0000
3000
0002
0000
,
0000
0000
0003
0000
,
0020
0000
0030
0200
0000
0300
0020
0000
,
0000
0000
0000
0031
,
2000
0000
0000
0000
0000
3000
0000
0000
,
0020
0000
0000
0030
0000
0000
0000
0000
,
0200
0000
0000
0000
0000
0300
0000
0000
,
0002
0000
0000
0003
0000
0000
0000
0000
,
2000
0000
0000
0000
0000
3000
0000
0000
,
0200
0000
0000
0300
0000
0000
0000
0000
,
0020
0000
0000
0000
0000
0030
0000
0000
,
0002
0000
0000
0003
0000
0000
0000
0000
,
2000
0000
0000
3000
0000
0000
0010
0000
,
0200
0000
0000
0300
0000
0000
0001
0000
,
0020
0000
0000
0030
0000
0000
0100
0000
,
2000
0000
0000
3000
0000
0000
0001
0000
,
2000
0000
0000
3000
0000
0000
0010
0000
,
0200
0000
0000
0300
0000
0000
0001
0000
,
0020
0000
0000
0030
0000
0000
0100
0000
,
2000
0000
0000
3000
0000
0000
0000
0000
,
0002
0000
0000
0000
,
0003
0000
0000
0000
;

//--------------- dance-single - Pruz ----------------
#NOTES:
     dance-single:
     Pruz:
     Easy:
     3:
     0,0,0,0,0,0,0,0,0,0,0,0,0,0,0,0,0,0,0,0,0,0,0,0,0,0,0,0:
0000
0000
0000
0000
,
0000
0000
0000
0000
,
0000
0000
0000
0000
,
0000
0000
0000
0000
,
0000
0000
0000
0000
,
0000
0000
0000
0000
,
1000
0000
0000
0010
0000
0000
0000
0000
,
0100
0000
0000
0001
0000
0000
0000
0000
,
1000
0000
0000
0100
0000
0000
0000
0000
,
0010
0000
0000
0001
0000
0000
0000
0000
,
1000
0000
0000
0001
0000
0000
0000
0000
,
0010
0000
0000
0100
0000
0000
0000
0000
,
2000
0000
0000
3000
0000
0000
0001
0000
,
2000
0000
0000
3000
0000
0000
0000
0000
,
0002
0000
0000
0003
0000
0000
2000
0000
0000
0000
3000
0000
0000
0000
0000
0000
,
0020
0000
0000
0030
0000
0000
0200
0000
0000
0000
0300
0000
0000
0000
0000
0000
,
0002
0000
0000
0003
0000
0000
1000
0000
,
0002
0000
0000
0003
0000
0000
0000
0000
,
1000
0100
0010
0001
,
0000
1000
0000
0001
,
1000
0100
0010
0001
,
0000
1000
0000
0001
,
0100
0100
0010
0010
,
0000
1000
0000
0001
,
0010
0010
0100
0100
,
1000
0000
0001
0000
,
0020
0000
0030
0200
0000
0300
2000
0000
,
0001
0001
3100
0100
,
0020
0000
0030
0200
0000
0300
2000
0000
,
0001
0001
3010
0010
,
2000
0000
0000
3000
0000
0000
0002
0000
0000
0000
0003
0000
0000
0000
0000
0000
,
0020
0000
0000
0030
0000
0000
0200
0000
0000
0000
0300
0000
0000
0000
0000
0000
,
2000
0000
0000
3000
0000
0000
0001
0000
,
2000
0000
0000
3000
0000
0000
0000
0000
,
0002
0003
2000
3000
,
0020
0000
0000
0030
0000
0000
0200
0000
0000
0000
0300
0000
0000
0000
0000
0000
,
0002
0000
0000
0003
0000
0000
1000
0000
,
0002
0000
0000
0003
0000
0000
1000
0000
,
0002
0013
2000
3010
,
0002
0013
2000
3010
,
0002
0000
0000
0013
0000
0000
0000
0000
,
2000
0000
0000
3100
0000
0000
1000
0000
,
0002
0103
2000
3100
,
0002
0103
2000
3100
,
0002
0000
0000
0013
0000
0000
0000
0000
,
2000
0000
0000
3100
0000
0000
1000
0000
,
0002
0000
0000
0000
,
0003
0000
0000
0000
;

//--------------- dance-single - Pruz ----------------
#NOTES:
     dance-single:
     Pruz:
     Medium:
     5:
     0,0,0,0,0,0,0,0,0,0,0,0,0,0,0,0,0,0,0,0,0,0,0,0,0,0,0,0:
0000
0000
0000
0000
,
0000
0000
0000
0000
,
0000
0000
0000
0000
,
0000
0000
0000
0000
,
0000
0000
0000
0000
,
0000
0000
0000
0000
,
1000
0000
0000
0001
0000
0001
0000
0000
,
0010
0000
0000
0100
0000
0100
0000
0000
,
1000
0000
0000
0001
0000
0001
0000
0000
,
0100
0000
0000
0010
0000
0010
0000
0000
,
1000
0000
0001
0000
,
0010
0000
0000
0100
0000
0000
0000
0000
,
2000
0000
0000
3001
0000
0000
0000
0000
,
0200
0000
0000
0310
0000
0000
0000
0000
,
1000
0000
0000
0001
0000
0000
0000
0000
,
0010
0000
0000
0100
0000
0000
0000
0000
,
2000
0000
0000
3001
0000
0000
0000
0000
,
0200
0000
0000
0310
0000
0000
0000
0000
,
1000
1000
0001
0001
,
0010
1000
0010
0001
,
1000
1000
0001
0001
,
0100
1000
0100
0001
,
1000
1000
0100
0100
,
0010
1000
0010
0001
,
0100
0100
0001
0001
,
1000
0100
0000
0100
1000
0000
0001
0000
,
0100
0000
0010
1000
0000
1000
0001
0000
,
0010
0100
1000
0001
,
0100
0000
0010
1000
0000
1000
0001
0000
,
0010
0100
1000
0001
,
0100
0000
0000
0010
0000
0010
0000
0000
,
1000
0000
0000
0001
0000
0001
0000
0000
,
0020
0000
0000
1030
0000
0000
0010
0000
,
0002
0000
0000
1003
0000
0001
0000
0100
,
0010
0000
0000
0100
0000
0100
0000
0000
,
0001
0000
0000
1000
0000
1000
0000
0000
,
0200
0000
0000
0301
0000
0000
0100
0000
,
2000
0000
0000
3001
0000
1000
0001
1000
,
0010
0100
0010
1000
,
0100
0010
0100
1000
,
0010
0001
0100
1000
,
0001
0010
1000
0100
,
0001
0100
1000
0100
,
0001
0100
0010
1000
,
0100
0001
0010
1000
,
0001
0100
1000
0010
,
0002
0000
0000
0000
,
0003
0000
0000
0000
;

//--------------- dance-single - Pruz ----------------
#NOTES:
     dance-single:
     Pruz:
     Hard:
     7:
     0,0,0,0,0:
0000
0000
0000
0000
,
0000
0000
0000
0000
,
0000
0000
0000
0000
,
0000
0000
0000
0000
,
0000
0000
0000
0000
,
0000
0000
0000
0000
,
1000
0000
0000
0100
0000
0000
0010
0000
0000
0000
0001
0000
0000
0000
0000
0000
,
1000
0000
0000
0010
0000
0000
0100
0000
0000
0000
0001
0000
0000
0000
0000
0000
,
1000
0000
0000
0100
0000
0000
0010
0000
0000
0000
0001
0000
0000
0000
1000
0000
,
0001
0000
0000
0100
0000
0000
0010
0000
0000
0000
1000
0000
0000
0000
0001
0000
,
1000
0000
0000
0001
0000
0000
0010
0000
0000
0000
0010
0000
0000
0000
0000
0000
,
0001
0000
0000
1000
0000
0000
0010
0000
0000
0000
0100
0000
0000
0000
0000
0000
,
0002
0000
0000
1003
0000
0100
1000
1000
,
0002
0000
0000
1003
0000
1000
0000
1000
,
0001
0000
0000
0010
0000
0000
0100
0000
0000
0000
1000
0000
0000
0000
0000
0000
,
0001
0000
0000
0100
0000
0000
0010
0000
0000
0000
0010
0000
0000
0000
0000
0000
,
2000
0000
0000
3001
0000
0100
0001
0001
,
2000
0000
0000
3001
0000
0010
0001
0001
,
1000
1010
0001
0011
,
1000
0000
0010
0001
0100
0000
1000
0001
,
0100
0110
1000
1001
,
0001
0000
0010
0100
1000
0000
0010
0100
,
0001
1001
0100
0110
,
0001
0000
1000
0010
0100
0000
0001
0010
,
0100
1001
0010
1001
,
1000
0001
0100
0010
0000
1000
0001
0001
,
0020
0000
0130
2000
0000
3001
0020
0000
,
0130
0000
1000
0000
0001
1000
0010
0010
,
0200
0000
0301
2000
0000
3010
0200
0000
,
0301
0000
1000
0000
0001
1000
0100
0100
,
1000
0000
0000
0001
0000
0000
0100
0000
0000
0000
0010
0000
0000
0000
0000
0000
,
1000
0000
0000
0001
0000
0000
0010
0000
0000
0000
0010
0000
0000
0000
0000
0000
,
0002
0000
0000
1003
0000
0010
1000
1000
,
0002
0000
0000
1003
0000
1000
0000
1000
,
0001
0000
0000
0010
0000
0000
0100
0000
0000
0000
0100
0000
0000
0000
0000
0000
,
1000
0000
0000
0010
0000
0000
0100
0000
0000
0000
0001
0000
0000
0000
0000
0000
,
2000
0000
0000
3001
0000
0010
0001
0001
,
2000
0000
0000
3001
0000
0100
0001
0001
,
1000
0000
0000
0100
0000
0000
1000
0000
0000
0000
0000
0000
1001
0000
0000
0000
,
0001
0000
0000
0100
0000
0000
0001
0000
0000
0000
0000
0000
1001
0000
0000
0000
,
1000
0000
0000
0100
0000
0000
0010
0000
0000
0000
0000
0000
0011
0000
0000
0000
,
0001
0000
0000
0100
0000
0000
0010
0000
0000
0000
0000
0000
1000
0000
0001
0000
,
0010
0110
0100
1100
,
1000
1001
0001
0101
,
0100
0000
0000
0001
0000
0000
0010
0000
0000
0000
0000
0000
0110
0000
0000
0000
,
0100
0000
0000
1000
0000
0000
0010
0000
0000
0000
0000
0000
0210
0000
0300
0000
,
0002
0000
0000
0000
,
0003
0000
0000
0000
;

//--------------- dance-single - Pruz ----------------
#NOTES:
     dance-single:
     Pruz:
     Challenge:
     11:
     0,0,0,0,0:
0000
0000
0000
0000
,
0000
0000
0000
0000
,
0000
0000
0000
0000
,
0000
0000
0000
0000
,
0000
0000
0000
0000
,
0000
0000
0000
0000
,
1000
0000
0000
0100
0000
0000
0010
0000
0000
0000
1000
0000
0000
0000
0000
0000
,
0001
0000
0000
0100
0000
0000
0010
0000
0000
0000
0001
0000
0000
0000
0000
0000
,
1000
0000
0000
0010
0000
0000
0100
0000
0000
0000
0100
0000
0000
0000
1000
0000
,
0001
0000
0000
0100
0000
0000
0010
0000
0000
0000
0010
0000
0000
0000
0001
0000
,
1000
0100
0010
0010
0001
1000
0001
0100
,
0010
0000
0000
0100
0000
0000
1000
0000
0000
0000
0100
0000
0001
0000
1000
0000
,
0010
0000
0000
0100
0000
0000
0001
0000
0000
0000
0001
0000
1000
0000
1000
0000
,
0010
0000
0000
0100
0000
0000
0001
0000
0000
0000
1000
0000
0000
0000
1000
0000
,
0001
0100
0010
0010
1000
0001
1000
0100
,
0010
0000
0000
0100
0000
0000
0001
0000
0000
0000
0100
0000
1000
0000
0001
0000
,
0010
0000
0000
0100
0000
0000
1000
0000
0000
0000
1000
0000
0001
0000
0001
0000
,
0010
0000
0000
0100
0000
0000
1000
0000
0000
0000
0001
0000
1000
0000
1000
0000
,
0010
0110
0001
1001
,
1000
0000
0100
0000
0001
0000
0100
0010
0001
0000
1000
0000
0010
0000
1000
0000
,
0100
0110
1000
1001
,
0001
0000
0100
0000
1000
0000
0100
0010
1000
0000
0001
0000
0010
0000
0001
0000
,
1000
1001
0010
0110
,
0100
0000
0001
0000
1000
0000
0100
0010
0001
0000
1000
0000
0100
0000
1000
0000
,
0001
1001
0100
0110
,
0010
1000
0001
1000
0010
0100
0001
1000
,
0200
0000
0310
0001
1000
0001
0200
0000
,
1300
0100
0001
0001
1000
0100
0010
0010
,
0200
0000
0310
0001
1000
0001
0200
0000
,
1300
0100
0001
0001
1000
0100
0010
0001
,
1000
0010
0100
0100
0001
1000
0001
0100
,
0010
0000
0000
0100
0000
0000
1000
0000
0000
0000
0100
0000
0001
0000
1000
0000
,
0100
0000
0000
0010
0000
0000
0001
0000
0000
0000
0001
0000
1000
0000
1000
0000
,
0010
0000
0000
0100
0000
0000
0001
0000
0000
0000
0001
0000
0000
0000
1000
0000
,
0001
0100
0010
0010
1000
0001
1000
0100
,
0010
0000
0000
0100
0000
0000
0001
0000
0000
0000
0100
0000
1000
0000
0001
0000
,
0010
0000
0000
0100
0000
0000
1000
0000
0000
0000
1000
0000
0001
0000
0001
0000
,
0100
0000
0000
0010
0000
0000
1000
0000
0001
0000
0001
0000
1000
0000
1000
0000
,
0100
0000
0000
1000
0001
0000
0100
0000
0010
0000
1000
0000
0001
0000
1000
0000
,
0100
0000
0000
1000
0001
0000
0100
0000
0010
0000
1000
0000
0001
0000
1000
0000
,
0100
0000
0000
1000
0001
0000
0010
0000
0100
0000
0010
0000
0001
0000
1000
0000
,
0010
0000
0000
1000
0001
0000
1000
0000
0100
0000
0010
0000
0100
0000
1000
0000
,
0010
0000
0000
1000
0001
0000
0010
0000
0100
0000
1000
0000
0001
0000
0100
0000
,
0010
0000
0000
1000
0001
0000
0010
0000
0100
0000
1000
0000
0001
0000
0100
0000
,
0010
0000
0000
1000
0001
0000
0010
0000
0100
0000
0010
0000
0001
0000
1000
0000
,
0100
0000
0000
1000
0001
0000
1000
0000
0010
0000
0100
0000
0010
0000
1000
0000
,
0002
0000
0000
0000
,
0003
0000
0000
0000
;
