#TITLE:Diggy Diggy Hole;
#SUBTITLE:;
#ARTIST:Sparkles* & The Yogscast;
#TITLETRANSLIT:;
#SUBTITLETRANSLIT:;
#ARTISTTRANSLIT:;
#GENRE:Comedy;
#CREDIT:;
#BANNER:Diggy Diggy Hole.png;
#BACKGROUND:Diggy Diggy Hole-bg.png;
#LYRICSPATH:Diggy Diggy Hole.lrc;
#CDTITLE:;
#MUSIC:Diggy Diggy Hole.ogg;
#OFFSET:1.562000;
#SAMPLESTART:68.246002;
#SAMPLELENGTH:15.728000;
#SELECTABLE:YES;
#BPMS:0.000000=91.000000
;
#STOPS:
;
#BGCHANGES:3.667=Diggy Diggy Hole.avi=1.000=1=0=0=StretchNoLoop==CrossFade==,
99999=-nosongbg-=1.000=0=0=0 // don't automatically add -songbackground-
;
#KEYSOUNDS:;
#ATTACKS:;

//---------------dance-single - Pruz----------------
#NOTES:
     dance-single:
     Pruz:
     Beginner:
     3:
     0.099299,0.110357,0.000000,0.027081,0.004514,77.000000,77.000000,0.000000,3.000000,0.000000,0.000000,0.099299,0.110357,0.000000,0.027081,0.004514,77.000000,77.000000,0.000000,3.000000,0.000000,0.000000:
// measure 0
0000
0000
0000
0000
,  // measure 1
0000
0000
0000
0000
,  // measure 2
0000
0000
0000
0000
,  // measure 3
0000
0000
0000
0000
,  // measure 4
0000
0000
0000
0000
,  // measure 5
0000
0000
0000
0000
,  // measure 6
0000
0000
0000
0000
,  // measure 7
1000
0000
0000
1000
,  // measure 8
0000
0000
0001
0000
,  // measure 9
0000
0001
0000
0000
,  // measure 10
0020
0000
0000
0100
,  // measure 11
0000
0000
0000
0000
0000
0030
0000
0000
0001
0000
0000
0000
0000
0000
0000
0000
,  // measure 12
0000
1000
0000
0000
,  // measure 13
0010
0000
0000
0100
0000
0000
0010
0000
,  // measure 14
0000
1000
0000
0000
0001
0000
0000
1000
,  // measure 15
0000
0000
0100
0000
0000
1000
0000
0000
,  // measure 16
0001
0000
0000
1000
0000
0000
0001
0000
,  // measure 17
0000
0100
0000
0000
0010
0000
0000
0100
,  // measure 18
0000
0000
0001
0000
0000
1000
0000
0000
,  // measure 19
0001
0000
0000
0010
,  // measure 20
0000
0010
0000
0000
0100
0000
0000
0100
,  // measure 21
0000
0000
1000
0000
0000
1000
0000
0000
,  // measure 22
0001
0000
0000
0001
0000
0000
0100
0000
,  // measure 23
0000
0100
0000
0000
0010
0000
0000
0010
,  // measure 24
0000
0000
2000
0000
0000
0001
3000
0000
,  // measure 25
0200
0000
0000
0010
0300
0000
0000
0000
,  // measure 26
0000
0000
0000
0000
1000
0000
0000
1000
,  // measure 27
0000
0000
0100
0000
0000
0010
0000
0000
,  // measure 28
0001
0000
0000
0001
0000
0000
0100
0000
,  // measure 29
0000
0010
0000
0000
1000
0000
0000
1000
,  // measure 30
0000
0000
0100
0000
0000
0010
0000
0000
,  // measure 31
0001
0000
0000
0001
0000
0000
0100
0000
,  // measure 32
0000
0010
0000
0000
1000
0000
0000
1000
,  // measure 33
0000
0000
0100
0000
0000
0001
0000
0000
,  // measure 34
0100
0000
0000
0010
0000
0000
0100
0000
,  // measure 35
0000
1000
0000
0000
0001
0000
0000
0001
,  // measure 36
0000
0000
0100
0000
0000
1000
0000
0000
,  // measure 37
0100
0000
0000
0010
0000
0000
0100
0000
,  // measure 38
0000
0001
0000
0000
1000
0000
0000
0000
,  // measure 39
0000
1000
0000
0000
,  // measure 40
0001
0000
0000
0001
;

//---------------dance-single - Pruz----------------
#NOTES:
     dance-single:
     Pruz:
     Easy:
     6:
     0.000000,0.000000,0.000000,0.000000,0.000000,0.000000,0.000000,0.000000,0.000000,0.000000,0.000000,0.000000,0.000000,0.000000,0.000000,0.000000,0.000000,0.000000,0.000000,0.000000,0.000000,0.000000:
0000
0000
0000
0000
,
0000
0000
0000
0000
,
0000
0000
0000
0000
,
0000
0000
0000
0000
,
0000
0000
0000
0000
,
0000
0000
0000
0000
,
0000
0000
0000
0000
,
1000
0000
0000
0100
0000
0000
1000
0000
0000
0000
0000
0000
0001
0000
0000
0000
,
0000
0000
0100
0000
0000
0010
0000
0000
1000
0000
0000
0001
0000
0000
1000
0000
,
0000
0000
0000
0000
0100
0000
0000
0000
0000
0000
0010
0000
0000
0001
0000
0000
,
1000
0000
0000
0010
0000
0000
1000
0000
0000
0000
0000
0000
0001
0000
0000
0000
,
0000
0000
0010
0000
0000
0100
0000
0000
1000
0000
0000
0001
0000
0000
1000
0000
,
0000
0000
0000
0000
0010
0000
0000
0000
0000
0000
0100
0000
0000
0001
0000
0000
,
1000
0000
0000
0000
0000
0000
0100
0000
0000
1000
0000
0000
0001
0000
0000
0000
,
0000
0000
0100
0000
0000
0010
0000
0000
1000
0000
0000
0000
0000
0000
0001
0000
,
0000
1000
0000
0000
0100
0000
0000
0000
0000
0000
0010
0000
0000
0100
0000
0000
,
1000
0000
0000
0000
0000
0000
0010
0000
0000
0100
0000
0000
0001
0000
0000
0000
,
0000
0000
0010
0000
0000
0100
0000
0000
1000
0000
0000
0001
0000
0000
0100
0000
,
0000
0100
0000
0000
0001
0000
0000
1000
0000
0000
0100
0000
0000
0100
0000
0000
,
0010
0000
0000
0002
0000
0000
1003
0000
,
0000
0000
0010
0000
0000
0000
0000
0000
0100
0000
0000
0001
0000
0000
1000
0000
,
0000
1000
0000
0000
0100
0000
0000
0000
0000
0000
0010
0000
0000
0000
0000
0000
,
0001
0000
0000
1000
0000
0000
0010
0000
0000
0010
0000
0000
0100
0000
0000
0000
,
0000
0001
0000
0000
0010
0000
0000
0100
,
0000
0000
1000
0000
0000
1000
0000
0000
,
0001
0000
0000
0100
0000
0000
0010
0000
0000
0010
0000
0000
2000
0000
0000
0000
,
0000
0000
0000
0000
0000
0000
0000
3000
0001
0000
0000
0000
0000
0000
0010
0000
,
0000
0000
0000
0000
1000
0000
0000
0000
0000
0000
0020
0000
0000
0030
0000
0000
,
0100
0000
0000
0100
0000
0000
0020
0000
0000
0030
0000
0000
0100
0000
0000
0100
,
0000
0000
2000
0000
0000
3000
0000
0000
0001
0000
0000
0000
0000
0000
0100
0000
,
0000
0000
0000
0000
1000
0000
0000
0000
0000
0000
0200
0000
0000
0300
0000
0000
,
0010
0000
0000
0010
0000
0000
0200
0000
0000
0300
0000
0000
0010
0000
0000
1000
,
0000
0000
0002
0000
0000
0003
0000
0000
1000
0000
0000
0000
0000
0000
0100
0000
,
0000
0000
0000
0000
0001
0000
0000
0000
0000
0000
0200
0000
0000
0300
0000
0000
,
0010
0000
0000
0010
0000
0000
0200
0000
0000
0300
0000
0000
0010
0000
0000
0001
,
0000
0000
2000
0000
0000
3000
0000
0000
0010
0000
0000
0000
0000
0000
0100
0000
,
0000
0000
0000
0000
0001
0000
0000
0000
0000
0000
2000
0000
0000
3000
0000
0000
,
0100
0000
0000
0100
0000
0000
0020
0000
0000
0030
0000
0000
0100
0000
0000
0100
,
0000
0000
2000
0000
0000
3000
0000
0000
0010
0000
0000
0100
0000
0000
0001
0000
,
0000
0000
0000
0000
1000
0000
0000
0000
0000
0000
0001
0000
0000
0001
0000
0000
,
0010
0000
0000
0100
0000
0000
1000
0000
0000
0000
0000
0000
0010
0000
0000
0000
,
0000
0000
0100
0000
0000
0001
0000
0000
0000
0000
0000
0000
0000
0000
0000
0000
;

//---------------dance-single - Pruz----------------
#NOTES:
     dance-single:
     Pruz:
     Medium:
     7:
     0.000000,0.000000,0.000000,0.000000,0.000000,0.000000,0.000000,0.000000,0.000000,0.000000,0.000000,0.000000,0.000000,0.000000,0.000000,0.000000,0.000000,0.000000,0.000000,0.000000,0.000000,0.000000:
0000
0000
0000
0000
,
0000
0000
0000
0000
,
0000
0000
0000
0000
,
0000
0000
0000
0000
,
0000
0000
0000
0000
,
0000
0000
0000
0000
,
0000
0000
0000
0000
,
1000
0000
0000
0100
0000
0000
0010
0000
0000
0001
0000
0000
0100
0000
0000
0010
,
0000
0000
1000
0000
0000
1000
0000
0000
0001
0000
0000
0100
0000
0000
0010
0000
,
0000
1000
0000
0000
0100
0000
0000
0010
0000
0000
0001
0000
0000
0001
0000
0000
,
1000
0000
0000
0010
0000
0000
0100
0000
0000
0001
0000
0000
1000
0000
0000
0100
,
0000
0000
0010
0000
0000
0001
0000
0000
1000
0000
0000
0010
0000
0000
0100
0000
,
0000
0001
0000
0000
1000
0000
0000
0100
0000
0000
0010
0000
0000
0001
0000
0000
,
1000
0000
0000
0010
0000
0000
1000
0000
0000
1000
0000
0000
0001
0000
0000
0010
,
0000
0000
1000
0000
0010
0001
0000
0000
1000
0000
0000
0010
0000
0000
0100
0000
,
0000
0100
0000
0000
0001
0000
0000
0010
0000
0000
1000
0000
0010
0001
0000
0000
,
0100
0000
0000
0100
0000
0000
0010
0000
0000
0100
0000
0000
0001
0000
0000
1000
,
0000
0000
0001
0000
0000
0001
0000
0000
0010
0000
0000
0100
0000
0000
0010
0000
,
0000
0010
0000
0000
0001
0000
0000
0100
0000
0000
0010
0000
0000
1000
0000
0000
,
0001
0000
0000
0001
0000
0000
1000
0000
0000
1000
0000
0000
0100
0000
0000
1000
,
0000
1000
0002
0000
0000
1003
0000
0000
0100
0000
0000
0010
0000
0000
0001
0000
,
0000
1000
0000
0000
0001
0000
0000
0010
0000
0010
0200
0000
0000
1300
0000
0000
,
0001
0000
0000
0100
0000
0000
0001
0000
0000
1000
0000
0000
0010
0000
0000
1000
,
0000
1000
0002
0000
0000
1003
0000
0000
0010
0000
0000
0100
0000
0000
0001
0000
,
0000
1000
0000
0000
0010
0000
0000
0100
0000
0000
0001
0000
0001
1000
0000
0000
,
0100
0000
0000
0010
0000
0000
0001
0000
0001
1000
0000
0000
0010
0000
0000
0010
,
0000
0000
0100
0000
0000
0100
0000
0000
0001
0000
0000
1000
0000
0000
0100
0000
,
0000
0010
0000
0000
0001
0000
0000
0001
0000
0000
0200
0000
0000
0310
0000
0000
,
0100
0000
0000
0100
0000
0000
0002
0000
0000
1003
0000
0000
0100
0000
0000
0100
,
0000
0000
0020
0000
0000
0031
0000
0000
1000
0000
0000
0001
0000
0000
0010
0000
,
0000
0100
0000
0000
1000
0000
0000
1000
0000
0000
0200
0000
0000
0310
0000
0000
,
0100
0000
0000
0100
0000
0000
2000
0000
0000
3001
0000
0000
0100
0000
0000
0100
,
0000
0000
0020
0000
0000
1030
0000
0000
0001
0000
0000
0010
0000
0000
0100
0000
,
0000
1000
0000
0000
0010
0000
0000
0010
0000
0000
0200
0000
0000
0301
0000
0000
,
1000
0000
0000
1000
0000
0000
0200
0000
0000
0310
0000
0000
0001
0000
0000
0001
,
0000
0000
0200
0000
0000
0310
0000
0000
1000
0000
0000
0001
0000
0000
0100
0000
,
0000
0001
0000
0000
1000
0000
0000
1000
0000
0000
0200
0000
0000
0310
0000
0000
,
0100
0000
0000
0100
0000
0000
2000
0000
0000
3001
0000
0000
0100
0000
0000
0100
,
0000
0000
0020
0000
0000
1030
0000
0000
0100
0000
0000
0010
0000
0000
0100
0000
,
0000
2000
0000
3000
0001
0000
0000
0100
0000
0000
0020
0000
0030
2000
0000
3000
,
0001
0000
0000
1000
0000
0000
0001
0000
0000
0020
0000
0030
0100
0000
0000
1000
,
0000
0000
0020
0000
0030
0200
0000
0300
0000
0000
0000
0000
0000
0000
0000
0000
;

//---------------dance-single - Pruz----------------
#NOTES:
     dance-single:
     Pruz:
     Hard:
     9:
     0.000000,0.000000,0.000000,0.000000,0.000000,0.000000,0.000000,0.000000,0.000000,0.000000,0.000000,0.000000,0.000000,0.000000,0.000000,0.000000,0.000000,0.000000,0.000000,0.000000,0.000000,0.000000:
0000
0000
0000
0000
,
0000
0000
0000
0000
,
0000
0000
0000
0000
,
0000
0000
0000
0000
,
0000
0000
0000
0000
,
0000
0000
0000
0000
,
0000
0000
0000
0000
,
1000
0000
0000
1000
0000
0000
0010
0000
0100
0001
0000
0001
1000
0000
0000
1000
,
0000
0000
0100
0000
0100
0010
0000
0001
1000
0000
0000
1000
0000
0000
0010
0000
,
0100
0001
0000
0001
1000
0000
0000
1000
0000
0000
0100
0000
0100
0010
0000
0001
,
1000
0000
0000
0010
0000
0000
0100
0000
0001
1000
0000
0100
0010
0000
0000
0010
,
0000
0000
0001
0000
1000
0001
0000
0001
0100
0000
0000
0010
0000
0000
1000
0000
,
0001
1000
0000
0100
0010
0000
0000
0001
0000
0000
1000
0000
0010
0100
0000
0001
,
1000
0000
0000
0100
0000
0000
0010
0000
0010
0001
0000
0000
1000
0000
0000
1001
,
0000
0000
0001
0000
0001
1000
0000
0000
0010
0000
0010
0100
0000
0000
0100
0000
,
0100
0001
0000
0000
1000
0000
0000
1001
0000
0000
0001
0000
0001
1000
0000
0000
,
0100
0000
0000
0100
0000
0000
1000
0000
1000
0001
0000
0000
0100
0000
0000
0100
,
0000
0000
0001
0000
1000
0100
0000
0000
0010
0000
0000
0100
0000
0000
1000
0000
,
0001
1000
0000
0000
0010
0000
0100
0001
0000
0001
1000
0000
1000
0100
0000
0000
,
0010
0000
0001
1000
0000
0010
0100
0000
0001
1000
0000
0000
0100
0000
0000
0010
,
0000
0001
1000
0000
0000
0010
0000
0000
0100
0000
0100
0001
0000
0000
1000
0000
,
1000
0100
0000
0000
0010
0000
0000
0001
0000
1000
0001
0000
0000
0100
0000
0000
,
0010
0000
0010
1000
0000
1000
0001
0000
0001
0010
0000
0000
0100
0000
0000
0010
,
0000
0001
1000
0000
0000
0010
0000
0000
0001
0000
0000
0010
0000
1000
0001
0000
,
0000
0010
0000
0000
0100
0000
0100
1000
0000
0000
0001
0000
0001
0100
0000
0000
,
0010
0000
0010
1000
0000
1000
0001
0000
0001
0010
0000
0000
0200
0300
1000
0002
,
0003
0100
0020
0030
1000
0002
0003
0010
0100
0000
0000
1000
0000
0001
0100
0000
,
0000
0010
0000
1000
0100
0000
0000
0100
0000
0100
0020
0000
0000
0031
1000
0001
,
0100
0000
0100
0001
0000
0001
2000
0000
0000
3100
0000
0000
1000
0000
1000
0001
,
0000
0001
0200
0000
0000
0301
1000
0001
1000
0000
0000
0100
0000
0010
0001
0000
,
0000
1000
0000
0010
0100
0000
0000
0001
0000
1000
0200
0000
0300
1000
0001
1000
,
0001
0000
0001
0100
0000
0100
0020
0000
0030
1000
0000
0000
0100
0000
0000
0010
,
0000
0100
2000
0000
3001
0100
0100
0010
1000
0000
0000
0001
0000
1000
0100
0000
,
0000
0010
0000
0001
0100
0000
0000
0100
0000
0100
0020
0000
0000
1030
0001
1000
,
0100
0000
0100
1000
0000
1000
0002
0000
0000
0103
0000
0000
0001
0000
0001
1000
,
0000
1000
0200
0000
0000
1300
0001
1000
0001
0000
0000
0100
0000
0010
1000
0000
,
0000
0001
0000
0010
0100
0000
0000
1000
0000
0001
0200
0000
0300
0001
1000
0001
,
1000
0000
1000
0100
0000
0100
0020
0000
0030
0001
0000
0000
0100
0000
0000
0010
,
0000
0100
0002
0000
1003
0100
0100
0010
0001
0000
0000
0001
0000
0000
0010
0000
,
0100
1000
0000
1000
0001
0000
0000
0001
0000
0000
0100
0000
0100
0010
0000
1000
,
0001
0000
0000
0001
0000
0000
0010
0000
0100
1000
0000
1000
0001
0000
0000
0001
,
0000
0000
0200
0000
0300
0020
0000
0030
0000
0000
0000
0000
0000
0000
0000
0000
;

//---------------dance-single - Pruz----------------
#NOTES:
     dance-single:
     Pruz:
     Challenge:
     13:
     0.000000,0.000000,0.000000,0.000000,0.000000,0.000000,0.000000,0.000000,0.000000,0.000000,0.000000,0.000000,0.000000,0.000000,0.000000,0.000000,0.000000,0.000000,0.000000,0.000000,0.000000,0.000000:
0000
0000
0000
0000
,
0000
0000
0000
0000
,
0000
0000
0000
0000
,
0000
0000
0000
0000
,
0000
0000
0000
0000
,
0000
0000
0000
0000
,
0000
0000
0000
0000
,
1000
0000
0001
0100
0000
0001
1000
0000
0001
0010
0010
0100
1000
0000
0001
0100
,
0000
0001
1000
1000
0100
1000
1000
0001
0100
0000
0001
1000
0000
0001
0100
0000
,
0010
1000
1000
0001
0010
0000
0001
1000
0000
0001
0010
0010
0100
0010
0010
0001
,
1000
0000
0001
0100
0000
0001
1000
0000
0001
0010
0010
0100
1000
0000
0001
0100
,
0000
0001
1000
1000
0010
1000
1000
0001
0010
0000
0100
1000
0000
0001
0010
0000
,
0100
1000
1000
0001
0100
0000
0001
1000
0000
0001
1000
1000
0100
1000
1000
0001
,
0010
0000
0100
0010
0000
0010
0001
0000
0001
1000
1000
0010
0100
0000
0000
0110
,
0000
0000
0100
0000
0100
0001
0000
0000
1000
0000
1000
0100
0000
0100
0010
0000
,
0010
0001
0001
1000
0001
0000
0000
1001
0000
0000
1000
0000
1000
0010
0000
0000
,
1000
0000
1000
0001
0000
0001
0010
0000
0010
0100
0100
0010
0001
0000
0001
1000
,
0000
1000
0010
0000
0100
0001
0000
0000
1000
0000
1000
0100
0000
0100
0010
0000
,
0010
0001
0001
0010
0100
0000
1000
0100
0000
0010
0100
0000
1000
0001
0000
0000
,
0100
0000
0001
1000
0000
1000
0100
0100
0001
0100
0100
1000
0002
0000
0003
0100
,
0000
0100
0020
0000
1030
0001
0001
1000
0010
0000
0100
0001
0000
1000
0100
0000
,
0010
0001
0001
0010
0200
0000
0300
1000
0000
0001
0200
0000
0310
0100
0100
0001
,
1000
0000
0100
0010
0000
0001
1000
0000
0010
0100
0100
0001
2000
0000
3000
0001
,
0000
0100
0020
0000
1030
0001
0001
1000
0020
0000
0030
0100
0000
0001
2000
0000
,
3010
0100
0100
0001
1000
0000
0100
0010
0000
0000
0001
0000
0001
1000
1000
0010
,
0100
0000
0100
0001
0000
0001
1000
0000
1000
0100
0100
0010
0001
0001
1000
0010
,
0010
1000
0001
0001
0010
0001
0001
1000
0200
0000
0300
0010
0001
0001
0200
0000
,
0300
0010
1000
1000
0200
0000
0300
0010
0100
0100
0020
0000
0030
0001
1000
0001
,
0010
0000
0010
0100
0100
1000
0002
0000
0003
0100
0100
0010
1000
0000
1000
0001
,
0010
0010
0200
0000
0300
1000
0001
1000
0200
0000
0300
0010
0001
0001
0200
0000
,
0310
1000
0000
1000
0200
0000
0300
0010
0100
0100
0020
0000
0030
0001
1000
0001
,
0010
0000
0010
0100
0100
1000
0002
0000
0003
0010
0010
0100
2000
0000
3000
0001
,
0100
0100
0020
0000
0030
1000
0001
1000
0200
0000
0300
0010
0001
0001
0200
0000
,
0300
0010
1000
1000
0200
0000
0300
0010
0100
0100
0020
0000
0030
0001
1000
0001
,
0010
0000
0010
0100
0100
1000
0002
0000
0003
0010
0010
0100
2000
0000
3000
0001
,
0100
0100
0020
0000
0030
1000
0001
1000
0020
0000
0030
0100
0001
0001
0020
0000
,
0130
1000
0000
1000
0020
0000
0030
0100
0001
0001
0020
0000
0030
0100
1000
1000
,
0010
0000
0010
0100
0100
0001
2000
0000
3100
1000
1000
0001
0010
0000
0000
0001
,
0001
1000
0010
0000
0100
0001
1000
0001
0010
0000
0100
1000
0000
0001
0010
0000
,
0100
1000
1000
0001
0100
0000
0010
1000
0000
0001
0100
0100
1000
0100
0100
0001
,
1000
0000
0100
0010
0000
0001
1000
0000
0100
0010
0010
0001
1000
0000
0010
0100
,
0000
0001
0100
0100
1000
0100
0100
0001
0000
0000
0000
0000
0000
0000
0000
0000
;
