#TITLE:Colorful Voice;
#SUBTITLE:;
#ARTIST:Night Keepers;
#TITLETRANSLIT:;
#SUBTITLETRANSLIT:;
#ARTISTTRANSLIT:;
#GENRE:Video Game;
#CREDIT:;
#MUSIC:Colorful Voice.ogg;
#BANNER:Colorful Voice bn.png;
#BACKGROUND:Colorful Voice bg.png;
#CDTITLE:Voez icon.png;
#SAMPLESTART:63.918;
#SAMPLELENGTH:15.958;
#SELECTABLE:YES;
#OFFSET:0.040;
#BPMS:0.000=120.000
,168.000=121.600
,180.000=120.000
;
#STOPS:;
#DISPLAYBPM:120.000;
#LASTSECONDHINT:98.631;
#ORIGIN:;
#PREVIEWVID:;
#JACKET:Colorful Voice jk.png;
#CDIMAGE:;
#DISCIMAGE:;
#BGCHANGES:0.000=Colorful Voice.avi=1.000=0=0=0=StretchNoLoop====,
99999.000=-nosongbg-=1.000=0=0=0=StretchNoLoop====
;
#FGCHANGES:;

//--------------- dance-single - Pruz ----------------
#NOTES:
     dance-single:
     Pruz:
     Beginner:
     2:
     0.065284,0.099966,0,0.285616,0,48,48,0,30,0,0,0,0,0,0.065284,0.099966,0,0.285616,0,48,48,0,30,0,0,0,0,0:
0000
0000
0000
0000
,
0000
0000
0000
0000
,
0000
0000
0000
0000
,
0000
0000
0000
0000
,
0000
0000
0000
0000
,
0000
0000
0000
0000
,
0000
0000
0000
0000
,
0000
0000
0000
0000
,
1000
0000
0000
0001
,
1000
0000
0000
0001
,
1000
0000
0000
0001
,
1000
0000
0000
0001
,
1000
0002
0000
0000
,
0023
0000
0000
0000
,
0032
0000
0000
0000
,
2003
0000
0000
3000
,
0100
0000
0100
0000
,
0200
0000
0300
0000
,
0010
0000
0010
0000
,
0020
0000
0030
0000
,
0002
0003
2000
3000
,
0002
0000
0000
0000
0000
0000
0000
0003
,
0200
0000
0000
0000
,
0302
0000
0000
0003
,
0020
0000
0000
0030
0000
0000
0100
0000
,
0020
0000
0000
0030
0000
0000
0001
0000
,
2000
0000
0000
3000
0000
0000
0100
0000
,
0020
0000
0000
0030
0000
0000
0100
0000
,
2000
3000
0002
0003
,
0200
0300
0020
0030
,
2000
0000
0000
3000
,
0002
0000
0000
0003
,
2000
0000
0000
0000
,
0200
0000
0000
0300
0000
0000
3000
0000
,
0002
0000
0000
0000
,
0020
0000
0000
0030
0000
0000
0003
0000
,
2000
0000
0000
0000
,
0200
0000
0000
0300
0000
0000
3000
0000
,
0002
0000
0000
0000
,
0020
0000
0000
0030
0000
0000
1003
0000
,
0002
0000
0000
0000
,
0000
0000
0000
0000
,
0003
0000
0000
0000
;

//--------------- dance-single - Pruz ----------------
#NOTES:
     dance-single:
     Pruz:
     Easy:
     5:
     0.122407,0.159945,0,0.599794,0.057123,90,90,0,63,0,0,0,0,0,0.122407,0.159945,0,0.599794,0.057123,90,90,0,63,0,0,0,0,0:
0000
0000
0000
0000
,
0000
0000
0000
0000
,
0000
0000
0000
0000
,
0000
0000
0000
0000
,
0000
0000
0000
0000
,
0000
0000
0000
0000
,
0000
0000
0000
0000
,
0000
0000
0000
0000
,
2000
0000
0000
3002
0000
0000
0103
0000
,
0020
0000
0000
2030
0000
0000
3001
0000
,
2000
0000
0000
3200
0000
0000
0310
0000
,
0002
0000
0000
2003
0000
0000
3001
0000
,
1000
0100
0000
0000
,
0010
0000
0000
0000
,
0001
0000
0000
0000
,
1000
0000
0000
0000
,
0020
0000
0000
0030
0000
0000
0200
0000
0000
0000
0000
0000
0302
0000
0000
0000
,
0203
0000
0000
0300
0000
0000
0020
0000
0000
0000
0000
0000
2030
0000
0000
0000
,
3002
0000
0000
0003
0000
0000
0020
0000
0000
0000
0000
0000
0032
0000
0000
0000
,
2003
0000
0000
3000
0000
0000
0020
0000
0000
0000
0000
0000
0230
0000
0000
0000
,
0302
0000
0000
0003
0000
0000
0200
0000
0000
0000
0000
0000
0320
0000
0000
0000
,
2030
0000
0000
3000
0000
0000
0002
0000
0000
0000
0000
0000
0023
0000
0000
0000
,
0032
0000
0000
0003
0000
0000
2000
0000
0000
0000
0000
0000
3020
0000
0000
0000
,
0230
0000
0000
0300
0000
0000
0002
0000
0000
0000
0000
0000
2003
0000
0000
0000
,
3002
0000
0000
0003
0000
0000
0020
0000
0000
0000
0000
0000
0230
0000
0000
0000
,
2300
0000
0000
3000
0000
0000
0200
0000
0000
0000
0000
0000
0320
0000
0000
0000
,
0032
0000
0000
0003
0000
0000
2000
0000
0000
0000
0000
0000
3020
0000
0000
0000
,
0230
0000
0000
0300
0000
0000
0002
0000
0000
0000
0000
0000
2003
0000
0000
0000
,
3002
0003
0020
0030
,
0200
0300
2000
3002
,
2003
3000
0020
0030
,
0200
0300
0002
2003
,
3002
0000
0000
0010
0000
0000
0103
0000
,
1000
0000
0010
0100
0000
0000
0001
0000
,
2000
0000
0000
0100
0000
0000
3010
0000
,
0002
0000
0000
0203
0000
0000
0320
0000
,
2030
0000
0000
0100
0000
0000
3010
0000
,
0001
0000
0100
0010
0000
0000
1000
0000
,
0002
0000
0000
0010
0000
0000
0103
0000
,
2000
0000
0000
0010
0000
0000
3100
0000
,
0002
0000
0000
0000
,
0000
0000
0000
0000
,
0003
0000
0000
0000
;

//--------------- dance-single - Pruz ----------------
#NOTES:
     dance-single:
     Pruz:
     Medium:
     9:
     0.261135,0.31989,0.038082,0.409383,0.090445,192,188,4,43,0,0,0,0,0,0.261135,0.31989,0.038082,0.409383,0.090445,192,188,4,43,0,0,0,0,0:
0000
0000
0000
0000
,
0000
0000
0000
0000
,
0000
0000
0000
0000
,
0000
0000
0000
0000
,
0000
0000
0000
0000
,
0000
0000
0000
0000
,
0000
0000
0000
0000
,
0000
0000
0000
0000
,
1000
0000
0100
0010
0000
0001
1000
0000
,
0001
0000
0100
0010
0000
1000
0001
0000
,
1000
0000
0100
1000
0000
0100
0010
0000
,
0001
0000
0010
0100
0000
0010
0001
0000
,
1000
0000
0000
0010
0000
0000
0100
0000
0010
0000
0000
1000
0000
0000
0100
0000
,
0010
0000
0000
0001
0000
0000
0010
0000
0100
0000
0000
0010
0000
0000
0001
0000
,
1000
0000
0000
0010
0000
0000
0100
0000
0001
0000
0000
1000
0000
0000
0001
0000
,
0010
0000
0000
0100
0000
0000
1000
0000
0001
0000
0100
0000
0001
0000
1000
0000
,
0200
0000
0000
0320
0000
0000
0032
0000
0000
0000
1003
0000
0010
0000
1000
0000
,
0002
0000
0000
0023
0000
0000
0230
0000
0000
0000
1300
0000
0100
0000
0010
0000
,
0002
0000
0000
2003
0000
0000
3020
0000
0000
0000
0130
0000
0010
0000
1000
0000
,
0002
0000
0000
0023
0000
0000
0230
0000
0000
0000
1300
0000
0100
0000
0010
0000
,
0001
0000
0000
1000
0000
0000
0010
0000
0000
0000
1000
0000
0001
0000
0000
0000
,
1000
0000
0000
0100
0000
0000
0010
0000
0000
0000
0001
0000
1000
0000
0001
0000
,
0200
0000
0000
0320
0000
0000
2030
0000
3002
0000
0000
2003
0000
0000
3200
0000
,
0320
0031
0010
0100
1000
0001
0100
0010
,
1000
0000
0000
1000
0000
0000
1001
0000
0000
0000
0000
0000
0001
0000
0010
0000
,
0100
0000
0000
0100
0000
0000
1100
0000
1000
0000
0001
0000
0100
0000
0010
0000
,
1000
0000
0000
1000
0000
0000
1001
0000
0000
0000
0000
0000
0001
0000
0010
0000
,
0100
0000
0000
0100
0000
0000
1100
0000
1000
0000
0001
0000
0100
0000
0010
0000
,
0200
0000
0301
2000
0000
3100
0010
0000
,
0200
0000
1300
0002
0000
0103
0010
0000
,
2000
0000
3001
0020
0000
0130
1000
0000
,
0002
0000
0103
0020
0000
0130
0001
2000
,
3002
0000
0010
0010
0000
1000
1003
0010
,
0200
0000
0301
0200
0000
0310
1000
0002
,
2003
0000
0100
0001
0000
0100
3100
0100
,
1000
0000
0010
0100
0000
0010
1000
0001
,
2000
0000
0100
0100
0000
0010
3001
0001
,
0020
0000
0130
2000
0000
3100
0010
0002
,
2003
0000
0010
0010
0000
0001
3100
0010
,
0200
0000
1300
0002
0000
0103
0020
2030
,
3002
0000
0000
0000
,
0000
0000
0000
0000
,
0003
0000
0000
0000
;

//--------------- dance-single - Pruz ----------------
#NOTES:
     dance-single:
     Pruz:
     Hard:
     10:
     0.282896,0.37987,0.152329,0.085685,0.133288,208,192,16,9,0,0,0,0,0,0.282896,0.37987,0.152329,0.085685,0.133288,208,192,16,9,0,0,0,0,0:
0000
0000
0000
0000
,
0000
0000
0000
0000
,
0000
0000
0000
0000
,
0000
0000
0000
0000
,
0000
0000
0000
0000
,
0000
0000
0000
0000
,
0000
0000
0000
0000
,
0000
0000
0000
0000
,
0001
1000
0100
0010
0000
0001
0000
1000
,
0001
0000
0100
0001
1000
0010
0100
0001
,
1000
0000
0001
0010
0000
0100
1000
0000
,
0001
0000
1000
0010
0000
0100
0001
0000
,
1000
0000
0000
0001
0000
0000
0100
0000
0001
0000
0000
1000
0000
0000
0010
0000
,
1000
0000
0000
0001
0000
0000
0010
0000
0001
0000
0000
1000
0000
0000
0100
0000
,
0010
0000
0000
0001
0000
0000
0010
0000
0100
0000
0000
1000
0000
0000
0001
0000
,
1000
0000
0000
0010
0100
0001
0100
0010
,
1000
0000
0000
0001
0000
0000
1000
0000
0000
0000
0100
0000
0010
0000
0001
0000
,
1000
0000
0000
0001
0000
0000
1000
0000
0100
0000
0010
0000
0001
0000
1000
0000
,
0010
0000
0000
0100
0000
0000
0010
0000
1000
0000
0001
0000
0100
0000
0001
0000
,
0010
0000
0000
0100
0000
0000
0010
0000
0001
0000
0010
0000
0100
0000
1000
0000
,
0001
0000
0000
1000
0000
0000
0001
0000
0100
0000
0000
0000
0010
0000
0000
0000
,
1000
0000
0000
0001
0000
0000
1000
0000
0001
0000
0000
0000
0010
0000
0000
0000
,
0100
0000
0000
1000
0000
0000
0100
0000
0010
0000
0000
0001
0000
0000
0010
0000
,
0100
0010
0100
1000
0001
0100
0010
1000
,
1010
0000
0000
0110
0000
0000
1010
0000
0000
0000
0000
0000
0001
0000
0000
0000
,
0101
0000
0000
0110
0000
0000
0101
0000
0000
0000
0000
0000
1000
0000
0000
0000
,
1100
0000
0000
0110
0000
0000
1100
0000
0000
0000
0000
0000
0001
0000
0000
0000
,
0011
0000
0000
0110
0000
0000
0011
0000
0001
0000
1000
0000
0010
0000
0100
0001
,
0100
0000
0000
0010
1000
0000
0001
0000
0000
0000
1000
0000
1100
0000
0000
0000
,
0100
0000
0000
0010
0001
0000
1000
0000
0000
0000
0001
0000
0101
0000
0000
0000
,
0100
0000
0000
0010
1000
0000
0001
0000
0000
0000
1000
0000
1100
0000
0000
0000
,
0010
0000
0000
0001
1000
0000
0001
0000
0000
0000
1000
0000
1010
0000
0010
1000
,
0002
0000
0100
0010
0000
0100
1003
0000
,
0200
0000
0010
0001
0000
0010
1300
0000
,
2000
0000
0010
0100
0000
0001
3010
0000
,
0200
0000
0000
0000
0010
0000
0001
0000
0000
0000
0001
0000
1300
0100
0000
0100
,
0020
0000
0001
0100
0000
0100
1030
0010
,
0200
0000
1000
0010
0000
0001
0310
0000
,
2000
0000
0000
0000
0001
0000
0010
0000
0000
0000
0100
0000
0010
0000
3100
0001
,
0200
0000
0000
0000
0010
0000
0001
0000
0000
0000
0010
0000
1300
0000
0001
0100
,
0002
0000
0000
0000
,
0000
0000
0000
0000
,
0003
0000
0000
0000
;

//--------------- dance-single - Pruz ----------------
#NOTES:
     dance-single:
     Pruz:
     Challenge:
     11:
     0.303297,0.470077,0.114247,0.247534,0.280856,223,211,12,26,25,0,0,0,0,0.303297,0.470077,0.114247,0.247534,0.280856,223,211,12,26,25,0,0,0,0:
0000
0000
0000
0000
,
0000
0000
0000
0000
,
0000
0000
0000
0000
,
0000
0000
0000
0000
,
0000
0000
0000
0000
,
0000
0000
0000
0000
,
0000
0000
0000
0000
,
0000
0000
0000
0000
,
1000
0100
0010
0001
0000
1000
0001
0100
,
0001
1000
0010
0100
0001
1000
0001
0010
,
0100
0000
0000
1000
0000
0000
0100
0000
0000
0010
0000
0000
0001
0000
1000
0001
,
1000
0000
0000
0010
0000
0000
0100
0000
0000
0001
0000
0000
1000
0000
0000
0000
,
0001
0000
0000
0010
0000
0000
1000
0000
0010
0000
0000
0001
0000
0000
1000
0000
,
0001
0000
0000
0100
0000
0000
1000
0000
0100
0000
0000
0001
0000
0000
1000
0000
,
0001
0000
0000
0010
0000
0000
1000
0000
0010
0000
0000
0001
0000
0000
1000
0000
,
0001
0000
0000
0100
0000
0000
0010
0000
1000
0000
0001
0000
1000
0000
0100
0000
,
0010
0000
0000
0001
0000
0000
0100
0000
0000
0010
0000
0000
1000
0000
0001
0000
,
1000
0000
0000
0100
0000
0000
0010
0000
0000
0001
0000
0000
1000
0000
0001
0000
,
0100
0000
0000
0010
0000
0000
1000
0000
0000
0001
0000
0000
1000
0000
0001
0000
,
0100
0000
0000
0010
0000
0000
1000
0000
0000
0001
0000
0000
1000
0000
0001
0000
,
0010
0000
0000
1000
0000
0000
0010
0000
0000
0100
0000
0000
1000
0000
0000
0000
,
0001
0000
0000
0100
0000
0000
1000
0000
0000
0100
0000
0000
0010
0000
1000
0000
,
0001
0000
0000
0100
0000
0000
0010
0000
1000
0000
0000
0100
0000
0000
0010
0000
,
0001
0010
0100
1000
0001
0100
0010
1000
,
1001
0000
0000
0011
0000
0000
1001
0000
0000
0000
0000
0000
1000
0000
0010
0000
,
0110
0000
0000
0101
0000
0000
0110
0000
0010
0000
1000
0000
0001
0000
1000
0000
,
1100
0000
0000
0110
0000
0000
1100
0000
0000
0000
0000
0000
1000
0000
0001
0000
,
0101
0000
0000
0110
0000
0000
0101
0000
0100
0000
0010
0000
1000
0000
0001
0010
,
0100
0000
0000
1000
0001
0000
0100
0000
0000
0000
0010
0000
1000
0000
0001
0000
,
1000
0000
0000
0100
0000
0000
0001
0000
0000
0000
1000
0000
0010
0000
0001
0000
,
1000
0000
0000
0100
0000
0000
0010
0000
0001
0000
0000
0100
0000
0000
0010
1000
,
0001
0000
0000
0100
0010
0000
1000
0000
0001
1000
0001
0000
0010
0000
0100
1000
,
0002
0000
0203
2300
0000
3100
0001
0000
,
0020
0000
0230
2300
0000
3100
0010
0000
,
0002
0000
0000
0003
2000
0000
3020
0000
0000
0000
0000
0000
1030
0000
0000
0010
,
0002
0000
0000
0023
0000
0000
0230
0000
0000
0000
0000
0000
0301
1000
0000
0001
,
0020
0000
0000
2030
3020
0000
0032
0000
0000
0003
0010
0000
0100
0000
1000
0000
,
0002
0000
0000
0203
2300
0000
3200
0000
0000
0302
2003
0000
3200
0000
0310
0000
,
0001
0000
0000
1000
0010
0000
1000
0000
0000
0000
0001
0000
0100
0000
0001
1000
,
0002
0000
0000
0013
0100
0000
2000
0000
0000
3001
1000
0100
1000
0000
0001
0100
,
0002
0000
0000
0000
,
0000
0000
0000
0000
,
0003
0000
0000
0000
;
