#TITLE:Be Your USA;
#SUBTITLE:;
#ARTIST:EASYFUN (feat. Iiris);
#TITLETRANSLIT:;
#SUBTITLETRANSLIT:;
#ARTISTTRANSLIT:;
#GENRE:Electro-Pop;
#CREDIT:;
#BANNER:Be Your USA.png;
#BACKGROUND:Be Your USA-bg.png;
#LYRICSPATH:;
#CDTITLE:;
#MUSIC:Be Your USA.ogg;
#OFFSET:-0.043000;
#SAMPLESTART:31.118999;
#SAMPLELENGTH:21.190001;
#SELECTABLE:YES;
#BPMS:0.000000=89.780998
;
#STOPS:
;
#BGCHANGES:0.000=Be Your USA.avi=1.000=1=0=0=StretchNoLoop==CrossFade==,
99999=-nosongbg-=1.000=0=0=0 // don't automatically add -songbackground-
;
#KEYSOUNDS:;
#ATTACKS:;

//---------------dance-single - Pruz----------------
#NOTES:
     dance-single:
     Pruz:
     Beginner:
     1:
     0.071539,0.092446,0.000000,0.129830,0.000000,54.000000,54.000000,0.000000,14.000000,0.000000,0.000000,0.071539,0.092446,0.000000,0.129830,0.000000,54.000000,54.000000,0.000000,14.000000,0.000000,0.000000:
// measure 0
0000
0000
0000
0000
,  // measure 1
0000
0000
0000
0000
,  // measure 2
0000
0000
0000
0000
,  // measure 3
0000
0000
0000
0000
,  // measure 4
0000
1000
0000
1000
,  // measure 5
0000
1000
0000
1000
,  // measure 6
0000
1000
0000
2000
,  // measure 7
0000
0000
0000
3000
,  // measure 8
0000
1000
0000
1000
,  // measure 9
0000
1000
0000
1000
,  // measure 10
0000
1000
0000
2000
,  // measure 11
0000
0000
0000
3000
,  // measure 12
0000
1000
0000
1000
,  // measure 13
0000
1000
0000
1000
,  // measure 14
0000
1000
0000
2000
,  // measure 15
0000
0000
0000
3000
,  // measure 16
0000
1000
0000
1000
,  // measure 17
0000
1000
0000
1000
,  // measure 18
0000
1000
0000
2000
,  // measure 19
0000
0000
0000
3000
,  // measure 20
2000
0000
0000
0000
0000
0000
0000
3000
,  // measure 21
0002
0000
0000
0003
,  // measure 22
2000
0000
0000
0000
0000
0000
0000
3000
,  // measure 23
0002
0000
0000
0003
,  // measure 24
2000
0000
0000
0000
0000
0000
0000
3000
,  // measure 25
0002
0000
0000
0003
,  // measure 26
2000
0000
0000
0000
0000
0000
0000
3000
,  // measure 27
0002
0000
0000
0003
,  // measure 28
1000
0000
1000
0000
,  // measure 29
1000
0000
1000
0000
,  // measure 30
1000
0000
1000
0000
,  // measure 31
2000
0000
0000
3000
,  // measure 32
0000
1000
0000
1000
,  // measure 33
0000
1000
0000
1000
,  // measure 34
0000
1000
0000
1000
,  // measure 35
0000
1000
0000
1000
,  // measure 36
0000
1000
0000
1000
,  // measure 37
0000
1000
0000
1000
,  // measure 38
0000
1000
0000
1000
,  // measure 39
0000
0000
2000
0000
0000
0000
0000
3000
;

//---------------dance-single - Pruz----------------
#NOTES:
     dance-single:
     Pruz:
     Easy:
     4:
     0.144403,0.166403,0.000000,0.315302,0.000000,109.000000,109.000000,0.000000,34.000000,0.000000,0.000000,0.144403,0.166403,0.000000,0.315302,0.000000,109.000000,109.000000,0.000000,34.000000,0.000000,0.000000:
0000
0000
0000
0000
,
0000
0000
0000
0000
,
0000
0000
0000
0000
,
0000
0000
0000
0000
,
1000
1000
2000
3000
,
1000
1000
2000
3000
,
1000
1000
2000
3000
,
2000
0000
0000
3000
0000
0000
0001
0000
,
1000
1000
2000
3000
,
1000
1000
2000
3000
,
1000
1000
2000
3000
,
2000
0000
0000
3000
0000
0000
0001
0000
,
2000
0100
3000
0010
,
0002
0100
0003
0010
,
2000
0100
3000
0010
,
0002
0000
0000
0003
1000
0000
0010
0000
,
0200
0001
0300
0010
,
2000
0100
3000
0010
,
0002
0100
0003
1000
,
0020
0000
0000
0030
0100
0000
0010
0000
,
2000
0001
3020
1030
,
2000
0001
3200
0310
,
0002
1000
0023
0031
,
0002
1000
0203
0310
,
2000
0001
3200
1300
,
2000
0001
3020
0130
,
0002
1000
0203
0301
,
0002
1000
0023
0130
,
1000
0000
0001
0000
,
1000
0000
0001
0000
,
1000
0000
0001
0000
,
2000
0000
3000
0000
,
0001
1000
0000
1000
,
0001
0001
0000
0100
,
0010
0010
0000
0100
,
0010
0010
0100
0000
,
0001
1000
0000
1000
,
0001
0001
0000
0010
,
0100
0100
0000
0010
,
0100
0000
0100
0000
0020
0000
0000
0030
;

//---------------dance-single - Pruz----------------
#NOTES:
     dance-single:
     Pruz:
     Medium:
     6:
     0.209318,0.221871,0.000000,0.157651,0.032458,158.000000,158.000000,0.000000,17.000000,0.000000,0.000000,0.209318,0.221871,0.000000,0.157651,0.032458,158.000000,158.000000,0.000000,17.000000,0.000000,0.000000:
0000
0000
0000
0000
,
0000
0000
0000
0000
,
0000
0000
0000
0000
,
0000
0000
0000
0000
,
1000
0100
0010
0001
,
1000
0001
0100
0010
,
1000
0001
0010
0100
,
1000
0000
0000
1000
0000
0000
1000
0000
0000
0000
0000
0000
0001
0000
0000
0000
,
1000
0100
0010
0001
,
1000
0001
0100
0010
,
1000
0001
0010
0100
,
1000
0000
0000
1000
0000
0000
1000
0000
0000
0000
0000
0000
0001
0000
0000
0000
,
0100
0000
0010
0000
1000
0001
1000
0000
,
0100
0000
0010
0001
1000
0000
0001
0010
,
0100
0000
1000
0000
0001
0000
1000
0010
,
0100
0000
0000
0100
0000
0000
0100
0000
0000
0000
0000
0000
0001
0000
0000
0000
,
0100
0000
0010
0000
1000
0001
1000
0000
,
0100
0000
0010
0001
1000
0000
0001
0010
,
0100
0000
1000
0000
0001
0000
1000
0010
,
0100
0000
0000
0100
0000
0000
0100
0000
0000
0000
0000
0000
0001
0000
0000
0000
,
2000
3002
0013
0010
,
0002
2003
3100
0100
,
2000
3002
0013
0010
,
0002
2003
3100
0100
,
2000
3002
0013
0010
,
0002
2003
3100
0100
,
2000
3002
0013
0010
,
0002
2003
3001
0001
,
0010
0000
0000
0100
1000
0000
0000
0100
,
0010
0000
0000
0001
0010
0000
0000
0100
,
1000
0000
0000
0100
0010
0000
0000
0001
,
2000
0000
3000
0010
,
1000
0000
1000
0000
0000
0001
1000
0001
,
0010
0000
0001
0000
0000
1000
0001
1000
,
0001
0000
0100
0000
0000
0001
1000
0000
,
0100
0000
0010
0000
0000
0010
0000
0000
0010
0000
0000
0000
0001
0000
1000
0000
,
0001
0000
0100
0000
0000
0001
1000
0001
,
1000
0000
0010
0000
0000
1000
0001
1000
,
0001
0000
0100
0000
0000
0001
1000
0000
,
0100
0000
0010
0000
0000
0010
0000
0000
0010
0000
0000
0010
0000
0000
0100
0000
;

//---------------dance-single - Pruz----------------
#NOTES:
     dance-single:
     Pruz:
     Hard:
     10:
     0.315302,0.332806,0.000000,0.055642,0.375581,238.000000,238.000000,0.000000,6.000000,0.000000,0.000000,0.315302,0.332806,0.000000,0.055642,0.375581,238.000000,238.000000,0.000000,6.000000,0.000000,0.000000:
0000
0000
0000
0000
,
0000
0000
0000
0000
,
0000
0000
0000
0000
,
0000
0000
0000
0000
,
1000
0000
0000
0100
0000
0000
0010
0000
0000
0001
1000
0000
0010
0000
0100
0000
,
0001
0000
0000
0100
0000
0000
0010
0000
0000
1000
0000
0000
0001
1000
0000
1000
,
0001
0000
0000
0010
0000
0000
0100
0000
0000
1000
0000
0000
0001
0000
0000
0000
,
0000
0000
1000
0000
0000
1000
0000
0000
0010
0000
0000
0010
0000
0000
0100
0000
,
0001
0000
0000
0100
0000
0000
0010
0000
0000
1000
0001
0000
0010
0000
0100
0000
,
1000
0000
0000
0100
0000
0000
0010
0000
0000
0001
0000
0000
1000
0001
0000
0001
,
1000
0000
0000
0010
0000
0000
0100
0000
0000
0001
0000
0000
1000
0000
0000
0000
,
0000
0000
0001
0000
0000
0001
0000
0000
0010
0000
0000
0010
0000
0000
0100
0000
,
1000
0000
0001
0000
1000
0010
0100
0001
,
1000
0000
0000
0001
0000
0000
1000
0000
0000
0001
0000
0000
0100
0000
0010
0000
,
1000
0000
0000
0001
0000
0000
1000
0000
0000
0001
0010
0000
0100
0000
0100
0000
,
1000
0000
0100
0000
0000
0010
0000
0000
0001
0000
0000
1000
0000
0000
0001
0000
,
0000
0000
0000
1000
0010
0000
1000
0000
0000
0001
0010
0000
0100
0000
1000
0000
,
0001
0000
0000
1000
0000
0000
0001
0000
0000
1000
0000
0000
0100
0000
0010
0000
,
0001
0000
0000
1000
0000
0000
0001
0000
0000
1000
0010
0000
0100
0000
0100
0000
,
0001
0000
0100
0000
0000
0010
0000
0000
1000
0000
0000
0001
0000
0000
1000
0000
,
1000
0000
0000
0100
0010
0000
0001
0000
0000
1000
0001
0000
1000
0000
0001
0000
,
0020
0000
0000
0001
0000
0000
0130
0000
1000
0001
0000
1000
0001
0000
1000
0000
,
0200
0000
0000
0010
0000
0000
1300
0000
0010
1000
0000
0000
0010
1000
0000
0000
,
0002
0000
0000
0100
0000
0000
1000
0000
0013
0100
0000
0010
0100
0000
1000
0000
,
0001
0000
0010
0000
0100
0000
1000
0000
0001
0010
0000
0010
0001
0000
1000
0000
,
0002
0000
0000
0100
0000
0000
1000
0000
0013
0100
0000
0100
1000
0000
0001
0000
,
2000
0000
0000
0100
0000
0000
0001
0000
3010
0100
0000
0100
0010
0000
1000
0000
,
0002
0000
0000
0010
0000
0000
1000
0000
0103
0010
0000
0010
1000
0001
0000
0001
,
0100
0000
0000
0100
0000
0000
0010
0000
1000
0000
0000
1000
0000
0000
0100
0000
,
0010
0000
0000
0010
0000
0000
0001
0000
0100
0000
0000
0100
0000
0000
0010
0000
,
1000
0000
0000
1000
0000
0000
0100
0000
0010
0000
0000
0010
0000
0000
0001
0000
,
1000
0000
0001
0000
0100
0000
0001
0000
1000
0000
0100
0000
1000
0001
0000
0000
0000
0000
0000
0000
0000
0000
0000
0000
,
1000
0000
0010
0000
1000
0001
0100
0001
,
1000
0000
0000
0001
0000
0000
0010
0000
0000
0001
0000
0000
1000
0000
0010
0000
,
1000
0000
0000
0001
0000
0000
0100
0000
0000
0001
1000
0000
0100
0000
0000
0000
,
1000
0000
0000
0001
0000
0000
0100
0000
0001
0000
0000
1000
0000
0000
0010
0000
,
1000
0000
0100
0000
1000
0001
0010
0001
,
1000
0000
0000
0001
0000
0000
0100
0000
0000
0001
0000
0000
1000
0000
0010
0000
,
0100
0000
0000
0001
0000
0000
1000
0000
0000
0001
0100
0000
0010
0000
0000
0000
,
1000
0000
0000
0100
0000
0000
1000
0000
0001
0000
0000
0010
0000
0000
0100
0000
;

//---------------dance-single - Pruz----------------
#NOTES:
     dance-single:
     Pruz:
     Challenge:
     13:
     0.459706,0.443742,0.000000,0.000000,0.523958,347.000000,347.000000,0.000000,0.000000,0.000000,0.000000,0.459706,0.443742,0.000000,0.000000,0.523958,347.000000,347.000000,0.000000,0.000000,0.000000,0.000000:
0000
0000
0000
0000
,
0000
0000
0000
0000
,
0000
0000
0000
0000
,
0000
0000
0000
0000
,
1000
0000
0000
0001
0010
0000
0100
0000
0000
1000
0100
0000
0010
0000
0100
0000
,
1000
0000
0000
0001
0010
0000
0100
0000
0000
1000
0001
0000
0100
0001
1000
0001
,
0100
0000
0000
0001
0100
0000
0010
0000
0000
1000
0001
0000
0100
0000
0010
0000
,
1000
0000
1000
0001
0000
0001
1000
0000
0100
0000
0010
0001
0010
0000
0001
0000
,
1000
0000
0000
0001
0010
0000
0100
0000
0000
1000
0100
0000
0010
0000
0100
0000
,
1000
0000
0000
0001
0010
0000
0100
0000
0000
1000
0001
0000
0100
0001
1000
0001
,
0100
0000
0000
0010
0100
0000
0001
0000
0000
1000
0010
0000
0100
0000
0010
0000
,
1000
0000
1000
0001
0000
0001
1000
0000
0100
0000
0010
0001
0010
0000
0001
0000
,
1000
0000
0010
1000
0001
0000
0001
0000
1000
0001
0100
0000
0100
0000
0001
0000
,
0010
0000
0000
0001
1000
0000
0001
0000
1000
0100
0010
0000
0001
1000
0000
1000
,
0001
0000
0000
0100
0010
0000
1000
0000
0001
1000
0100
0000
1000
0000
0001
0000
,
0010
0000
0010
0100
0000
0100
1000
0000
0001
0000
0100
0010
1000
0000
0010
0000
,
0000
0000
1000
0001
1000
0000
0100
0000
0010
0001
0010
0000
0100
0000
1000
0000
,
0001
0000
0100
0010
1000
0001
1000
0000
0001
0010
0100
0000
1000
0001
0000
0001
,
1000
0000
0000
0100
0010
0000
0001
0000
1000
0100
0010
0000
0100
0000
1000
0000
,
0001
0000
1000
0010
0000
1000
0001
0000
0010
0000
0001
0010
0001
0000
0010
0000
,
0100
0000
0000
1000
0001
0000
0100
0000
0010
1000
0010
1000
0001
1000
0001
0000
,
1000
0000
0000
0100
0010
0000
0001
0000
1000
0100
1000
0100
0010
0100
0010
0100
,
1000
0000
0000
0001
0010
0000
0001
0000
1000
0001
1000
0001
0100
0001
0100
0000
,
0010
0000
0000
1000
0001
0000
1000
0000
0100
0010
0100
0010
0100
1000
0100
1000
,
0001
0000
0000
1000
0001
0000
0100
0000
0010
1000
0010
1000
0001
1000
0001
0000
,
1000
0000
0000
0100
0010
0000
0001
0000
1000
0100
1000
0100
0010
0100
0010
0100
,
1000
0000
0000
0001
0010
0000
0001
0000
1000
0001
1000
0001
0100
0001
0100
0000
,
0010
0000
0000
1000
0001
0000
1000
0000
0100
0010
0001
0000
0010
0100
1000
0001
,
1000
0000
0000
1000
0000
0000
1000
0000
0010
0000
0000
0010
0000
0000
0010
0000
,
0001
0000
0000
0001
0000
0000
0001
0000
0100
0000
0000
0100
0000
0000
0100
0000
,
1000
0000
0000
1000
0000
0000
1000
0000
0100
0000
0000
0100
0000
0000
0100
0000
,
0010
0000
0000
0000
0001
0000
0000
0000
0010
0000
0000
0000
0100
0000
0000
0000
1000
0000
0000
0000
0001
0000
0000
0000
1000
0000
0000
1000
0000
0000
0000
0000
0000
0000
0000
0000
0000
0000
0000
0000
0000
0000
0000
0000
0000
0000
0000
0000
,
0001
0000
0100
0010
1000
0000
0001
0000
0100
0001
1000
0000
0001
0000
0010
0000
,
0100
0000
1000
0001
0100
0000
0001
0000
1000
0010
0100
0000
0001
1000
0000
1000
,
0001
0000
0000
0010
0100
0000
1000
0000
0001
0010
0001
0000
1000
0000
0000
0000
,
0001
0000
0010
0001
1000
0001
0010
0000
0001
0000
1000
0100
0010
0000
0001
0000
,
1000
0000
0010
0100
0001
0000
1000
0000
0010
1000
0001
0000
1000
0000
0100
0000
,
0010
0000
0001
1000
0010
0000
1000
0000
0001
0100
0010
0000
1000
0001
0000
0001
,
1000
0000
0000
0100
0010
0000
0001
0000
1000
0100
1000
0000
0001
0000
0000
0000
,
1000
0000
0100
1000
0001
1000
0100
0000
1000
0000
0001
0010
0000
0000
0100
0000
;
