#VERSION:0.83;
#TITLE:Baphomet;
#SUBTITLE:;
#ARTIST:Evalia feat. 牧心【专辑『蜜獄』收录曲】(奶牛组);
#TITLETRANSLIT:;
#SUBTITLETRANSLIT:;
#ARTISTTRANSLIT:Evalia;
#GENRE:UTAU Pop;
#CREDIT:;
#MUSIC:Baphomet.ogg;
#BANNER:Baphomet.png;
#BACKGROUND:Baphomet-bg.png;
#CDTITLE:;
#SAMPLESTART:77.880;
#SAMPLELENGTH:15.464;
#SELECTABLE:YES;
#OFFSET:1.455;
#BPMS:0.000=124.000
,212.000=123.000
,213.000=122.000
,214.000=110.000
,216.000=108.000
,220.000=106.000
,221.000=103.000
,222.000=90.000
,223.000=88.000
,226.000=86.000
,227.000=83.000
;
#STOPS:;
#SPEEDS:0.000=1.000=0.000=0;
#SCROLLS:0.000=1.000;
#TICKCOUNTS:0.000=4;
#TIMESIGNATURES:0.000=4=4;
#LABELS:0.000=Song Start;
#COMBOS:0.000=1;
#ORIGIN:;
#PREVIEWVID:;
#JACKET:Baphomet-jacket.png;
#CDIMAGE:;
#DISCIMAGE:;
#BGCHANGES:3.000=Baphomet.avi=1.000=1=0=0=StretchNoLoop==CrossFade==,
99999.000=-nosongbg-=1.000=0=0=0=StretchNoLoop====
;
#FGCHANGES:;

//--------------- dance-single - Pruz ----------------
#NOTEDATA:;
#STEPSTYPE:dance-single;
#DESCRIPTION:Pruz;
#DIFFICULTY:Beginner;
#METER:1;
#RADARVALUES:0.04607,0.068933,0,0.032249,0,40,40,0,4,0,0,0,0,0,0.04607,0.068933,0,0.032249,0,40,40,0,4,0,0,0,0,0;
#CHARTNAME:Pruz;
#CHARTSTYLE:;
#CREDIT:Pruz;
#NOTES:
0000
0000
0000
0000
,
0002
0000
0000
0000
,
0000
0000
0000
0003
,
0200
0000
0000
0000
,
0000
0000
0000
0300
,
0020
0000
0000
0000
,
0000
0000
0000
0030
,
2000
0000
0000
0000
,
0000
0000
3000
0000
,
0002
0000
0000
0003
0000
0000
0000
0000
,
0002
0000
0000
0003
,
2000
0000
0000
3000
0000
0000
0000
0000
,
2000
0000
0000
3000
,
0002
0000
0000
0003
0000
0000
0000
0000
,
0002
0000
0000
0003
,
2000
0000
0000
3000
0000
0000
0000
0000
,
0000
0000
0000
0000
,
0020
0000
0000
0030
0000
0000
0000
0000
,
0020
0000
0000
0030
0000
0000
0000
0000
,
0200
0000
0000
0300
0000
0000
0000
0000
,
0020
0000
0000
0030
0000
0000
0000
0000
,
0200
0000
0000
0300
0000
0000
0000
0000
,
0200
0000
0000
0300
0000
0000
0000
0000
,
0020
0000
0000
0030
0000
0000
0000
0000
,
0200
0000
0000
0300
0000
0000
0000
0000
,
0002
0000
0000
0000
,
0000
0000
0000
0003
,
0020
0000
0000
0000
,
0000
0000
0000
0030
,
0200
0000
0000
0000
,
0000
0000
0000
0300
,
2000
0000
0000
0000
,
0000
0000
0000
3000
,
0002
0000
0000
0000
,
0003
0000
0000
0000
,
2000
0000
0000
0000
,
3000
0000
0000
0000
,
0002
0000
0000
0000
,
0003
0000
0000
0000
,
2000
0000
0000
0000
,
3000
0000
0000
0000
,
0200
0000
0000
0300
0000
0000
0000
0000
,
0020
0000
0000
0030
0000
0000
0000
0000
,
0200
0000
0000
0300
0000
0000
0000
0000
,
0020
0000
0000
0030
0000
0000
0000
0000
,
0200
0000
0000
0300
0000
0000
0000
0000
,
0020
0000
0000
0030
0000
0000
0000
0000
,
0200
0000
0000
0300
0000
0000
0000
0000
,
0020
0000
0000
0030
0000
0000
0000
0000
,
0002
0000
0000
0000
,
0000
0000
0000
0003
,
2000
0000
0000
0000
,
0000
0000
0000
3000
,
0002
0000
0000
0000
,
0000
0000
0000
0003
,
2000
0000
0000
0000
,
0000
0000
0000
3000
,
0001
0000
0000
0000
;

//--------------- dance-single - Pruz ----------------
#NOTEDATA:;
#STEPSTYPE:dance-single;
#DESCRIPTION:Pruz;
#DIFFICULTY:Easy;
#METER:2;
#RADARVALUES:0.096748,0.137865,0,0.024187,0,84,84,0,3,0,0,0,0,0,0.096748,0.137865,0,0.024187,0,84,84,0,3,0,0,0,0,0;
#CHARTNAME:Pruz;
#CHARTSTYLE:;
#CREDIT:Pruz;
#NOTES:
0000
0000
0000
0000
,
0000
0000
0000
0000
,
0000
0000
0000
0000
,
0000
0000
0000
0000
,
0000
0000
0000
0000
,
0000
0000
0000
0000
,
0000
0000
0000
0000
,
0000
0000
0000
0000
,
0000
0000
0000
0000
,
2000
0000
0000
3000
0000
0000
0100
0000
,
0020
0000
0000
0000
0030
0000
0002
0003
,
2000
0000
0000
3000
0000
0000
0010
0000
,
0200
0000
0000
0300
0000
0000
0002
0003
,
2000
0000
0000
3000
0000
0000
0001
0000
,
0020
0000
0030
0010
,
0200
0000
0000
0300
0000
0000
2000
0000
,
0000
3000
0000
0000
0002
0000
2003
0000
,
3020
0000
1000
0000
,
0001
0000
1030
0000
,
0002
0000
0000
0003
0020
0000
0030
0000
,
0200
0000
0000
0300
2000
0000
3000
0000
,
0002
0000
0000
0003
2000
0000
3000
0000
,
0020
0000
0000
0030
0200
0000
0300
0000
,
0002
0000
0000
0003
2000
0000
3000
0000
,
0200
0000
0000
0300
0020
0000
0030
0000
,
0002
0000
0000
0003
0000
0000
1000
0000
,
0000
0000
0000
0000
,
0200
0000
0000
0300
0000
0000
0010
0000
,
0000
0000
0000
0000
,
0200
0000
0000
0300
0000
0000
1000
0000
,
0000
0000
0000
0000
,
0002
0000
0000
0003
0000
0000
0010
0000
,
0000
0000
0000
0000
,
0200
0000
0000
0300
0000
0000
1000
0000
,
0200
0000
0000
0300
0000
0000
0010
0000
,
0002
0000
0000
0003
0000
0000
1000
0000
,
0200
0000
0000
0300
0000
0000
0020
0030
,
0002
0000
0000
0003
0000
0000
1000
0000
,
0002
0000
0000
0003
0000
0000
0100
0000
,
0020
0000
0000
0030
0000
0000
2000
3000
,
0002
0000
0000
0000
,
0003
1000
0000
1000
,
0000
0100
0000
0100
,
0000
0010
0000
0010
,
0000
0001
0000
0001
,
0000
1000
0000
1000
,
0000
0010
0000
0010
,
0000
0100
0000
0100
,
0000
0000
0001
0000
0000
0000
0002
0003
,
2000
0000
0000
3000
0100
0000
0000
0000
,
0000
0000
0010
0000
,
0002
0000
0000
0003
1000
0000
0000
0000
,
0000
0000
0002
0003
,
2000
0000
0000
0000
0000
0000
0200
3000
,
0000
0300
0000
0000
0000
0000
0000
0000
,
0020
0000
0000
0030
0000
0000
0002
0000
,
0000
0003
0000
0000
2000
0000
0002
3000
,
1003
0000
0000
0000
;

//--------------- dance-single - Pruz ----------------
#NOTEDATA:;
#STEPSTYPE:dance-single;
#DESCRIPTION:Pruz;
#DIFFICULTY:Medium;
#METER:6;
#RADARVALUES:0.224593,0.275731,0,0,0,195,195,0,0,0,0,0,0,0,0.224593,0.275731,0,0,0,195,195,0,0,0,0,0,0,0;
#CHARTNAME:Pruz;
#CHARTSTYLE:;
#CREDIT:Pruz;
#NOTES:
0000
0000
0000
0000
,
0000
0000
0000
0000
,
0000
0000
0000
0000
,
0000
0000
0000
0000
,
0000
0000
0000
0000
,
0000
0000
0000
0000
,
0000
0000
0000
0000
,
0000
0000
0000
0000
,
0000
0000
0000
0000
,
2000
0000
3000
0002
0000
0003
0010
0000
,
0002
0000
0003
0000
1000
0000
0002
0103
,
0020
0000
0030
2000
0000
3000
0010
0000
,
0200
0000
0300
0002
0000
0003
2000
3001
,
0200
0000
0300
0020
0000
0030
1000
0000
,
0002
0000
0003
0000
2000
0000
3200
0320
,
0032
0000
0003
0020
0000
0030
0100
0000
,
0000
1000
0000
0000
0001
0000
1000
0000
,
0020
0000
0130
0002
1003
0000
0100
0000
,
0020
0000
0031
2000
3000
0000
1000
0002
,
0203
0000
0300
0200
0000
0300
0001
0000
,
2000
0000
3010
0200
0301
0000
1000
0002
,
0023
0000
0130
2000
3001
0000
0100
0000
,
0020
0000
1030
0002
0000
0003
0001
2000
,
3200
0000
0300
0200
0000
0300
1000
0000
,
0002
0000
0013
0200
1300
0000
0001
1000
,
0020
0000
0030
0100
0000
0000
0001
0000
,
0000
1000
0000
0000
0001
0000
0010
0100
,
2000
0000
3000
0001
0000
0000
1000
0000
,
0000
0010
0000
0100
0001
0000
0001
1000
,
0020
0000
0030
0100
0000
0000
0001
0000
,
0000
1000
0000
0000
0001
0000
0010
0100
,
2000
0000
3000
0001
0000
0000
1000
0000
,
0000
0010
0000
0000
0100
0000
0001
1000
,
0200
0000
0000
0310
0000
0000
0001
0000
,
2000
0000
0000
3001
0000
0000
0010
0000
,
0200
0000
0000
1300
0000
0000
0001
0000
,
0200
0000
0000
0310
0000
0000
2000
0000
,
3002
0000
0000
1003
0000
0000
0010
0000
,
2000
0000
0000
3001
0000
0000
0100
0000
,
0002
0000
0000
1003
0000
0000
0100
0000
,
0020
0031
1000
1000
,
0002
0000
0013
0200
0000
0300
1000
0000
,
0100
0000
0100
0020
0000
0030
0001
0000
,
2000
0000
3001
0200
0000
0300
0010
0000
,
2000
0000
3001
2000
3100
0000
0010
0002
,
2003
0000
3001
0200
0000
0300
0001
0000
,
2000
0000
3010
0200
0000
0300
0100
0000
,
0001
0000
0001
1000
0000
0000
0100
0000
,
0010
0000
0010
0001
0010
0000
0100
1000
,
0002
0000
0013
0000
0001
0000
1000
0001
,
0000
0001
0100
0000
0010
0000
1000
0000
,
0002
0000
1003
0000
0100
0000
0010
0001
,
0000
0001
1000
0000
0001
0000
0100
0000
,
0002
0000
1003
0000
0010
0000
0100
0001
,
0000
0001
1000
0000
0100
0000
0010
0001
,
2000
0000
3001
0000
0010
0000
0100
1000
,
0000
1000
0001
0000
0010
0000
0001
1000
,
0001
0000
0000
0000
;

//--------------- dance-single - Pruz ----------------
#NOTEDATA:;
#STEPSTYPE:dance-single;
#DESCRIPTION:Pruz;
#DIFFICULTY:Hard;
#METER:8;
#RADARVALUES:0.293698,0.321686,0.024187,0,0.076592,255,252,3,0,0,0,0,0,0,0.293698,0.321686,0.024187,0,0.076592,255,252,3,0,0,0,0,0,0;
#CHARTNAME:Pruz;
#CHARTSTYLE:;
#CREDIT:Pruz;
#NOTES:
0000
0000
0000
0000
,
0000
0000
0000
0000
,
0000
0000
0000
0000
,
0000
0000
0000
0000
,
0000
0000
0000
0000
,
0000
0000
0000
0000
,
0000
0000
0000
0000
,
0000
0000
0000
0000
,
0000
0000
0000
0000
,
2000
0000
0000
3100
0000
0000
0010
0000
0002
0000
0000
0000
1003
0000
0000
0000
,
0001
0100
0000
0001
1000
0010
0100
0001
,
2000
0000
0000
3100
0000
0000
0010
0000
0002
0000
0000
0000
1003
0000
0000
0000
,
0001
0010
0000
0010
0100
0000
0100
1000
,
0002
0000
0003
1000
0010
0000
1000
0000
,
0002
0000
0013
0100
1000
0000
0001
1000
,
0200
0000
0310
0002
0000
0003
1000
0001
,
0010
0001
1000
0000
0100
0000
0010
0000
,
0021
0000
0031
2000
3100
0010
0001
0000
,
2000
0000
0000
3001
0000
0000
0200
0000
0310
0000
0000
1000
0000
0000
0002
0000
,
2003
0000
3100
0020
0031
0000
1000
0000
,
0002
1003
0100
0020
0031
0000
1000
0002
,
0023
0000
0130
2000
3001
1000
0100
0000
,
0020
0000
0000
0031
0000
0000
0020
0000
0130
0000
0000
1000
0000
0000
0002
0000
,
2003
0000
0000
3010
0000
0000
0200
0000
0301
0000
0000
0000
1000
0000
0000
0000
,
0200
0000
1300
0000
0000
0001
0000
0000
1000
0000
0000
0100
0000
0000
0010
0000
,
0002
0000
0000
0013
0000
0000
0100
0000
2000
0000
0000
0000
3001
0000
0000
0000
,
0000
1000
0000
0000
0100
0000
0010
0000
,
0002
0000
0000
0013
0000
0000
0100
0000
2000
0000
0000
0000
3001
0000
0000
0000
,
0100
0010
0000
0010
1000
0000
1000
0001
,
0020
0000
0030
0001
1000
0000
0001
0100
,
0010
1000
0001
0000
1000
0000
0100
1000
,
0002
0000
0003
0010
0000
0000
0100
0000
,
1000
0001
0000
0001
0100
0000
0100
0001
,
2000
0000
0000
3100
0000
0000
0010
0000
0000
0000
0001
0000
1000
0000
0000
0000
,
0002
0000
0000
0103
0000
0000
0010
0000
0000
0000
0000
0000
1010
0000
0000
0000
,
2000
0000
0000
3100
0000
0000
0010
0000
0000
0000
0001
0000
1000
0000
0000
0000
,
0002
0000
0000
0103
0000
0000
0010
0000
0000
0000
0000
0000
1000
0000
0001
0000
,
0020
0000
0031
1000
0000
0000
0100
0000
,
0020
0000
0031
1000
0000
0000
0001
0000
,
0200
0000
0310
1000
0000
0000
0001
1000
,
0100
0000
0000
0000
0010
0000
0010
0001
,
1002
0000
1003
0020
0130
0000
0001
0000
,
2000
0000
0000
3001
0000
0000
0020
0000
0031
0000
0000
0000
1000
0000
0200
0000
,
0320
0000
0000
0031
0000
0000
2000
0000
3001
0000
0000
0000
0010
0000
0000
0000
,
0200
0000
1300
0002
0000
0003
1000
0002
,
0023
0000
0130
2000
3001
0000
1000
0000
,
0020
0000
0000
0130
0000
0000
0002
0000
1003
0000
0000
0000
0100
0000
0020
0000
,
0032
0000
0000
1003
0000
0000
0002
0000
0013
0000
0000
0000
0100
0000
0000
0000
,
2000
0000
3001
2000
0000
3000
0001
0010
,
0200
0000
1300
0001
0010
0000
0001
1000
,
0000
0001
0100
0000
0010
1000
0001
0000
,
2000
0000
3100
0010
0001
0000
1000
0001
,
0000
0010
0100
0000
1000
0000
0001
0000
,
0200
0000
0310
1000
0001
0000
1000
0010
,
0000
0100
0001
0000
1000
0001
0010
0001
,
0002
0000
1003
0010
0100
0000
0001
1000
,
0000
0100
0000
0000
1000
0000
0001
1000
,
1000
0000
0000
0000
;

//--------------- dance-single - Pruz ----------------
#NOTEDATA:;
#STEPSTYPE:dance-single;
#DESCRIPTION:Pruz;
#DIFFICULTY:Challenge;
#METER:11;
#RADARVALUES:0.382384,0.436574,0.072561,0,0.120935,332,323,9,0,0,0,0,0,0,0.382384,0.436574,0.072561,0,0.120935,332,323,9,0,0,0,0,0,0;
#CHARTNAME:Pruz;
#CHARTSTYLE:;
#CREDIT:Pruz;
#NOTES:
0000
0000
0000
0000
,
0000
0000
0000
0000
,
0000
0000
0000
0000
,
0000
0000
0000
0000
,
0000
0000
0000
0000
,
0000
0000
0000
0000
,
0000
0000
0000
0000
,
0000
0000
0000
0000
,
0000
0000
0000
0000
,
2000
0000
0000
3001
0000
0000
0100
0000
0020
0000
0000
0000
1030
0000
0001
0000
,
0010
0000
0001
1000
0100
0000
1000
0001
,
0200
0000
0000
0310
0000
0000
1000
0000
0002
0000
0000
0000
1003
0000
0000
0000
,
0200
0000
0000
0310
0000
0000
0001
0000
1000
0000
0000
0000
0001
0000
1000
0000
,
0020
0000
0130
0001
0000
0001
1000
0000
,
0200
0000
0310
0001
1000
0001
0100
0010
,
2000
0000
3001
0100
0000
0100
0010
0000
,
1000
0100
0020
0000
0032
0000
1003
0000
,
2100
0000
3001
0020
0130
1000
0001
0000
,
0021
0000
0000
0031
0000
0000
2000
0000
3010
0000
0000
1000
0000
0000
0002
0000
,
0023
0000
0000
0130
0000
0000
2000
0000
3002
0000
0000
0000
0023
0000
0000
0000
,
0032
0000
1003
0000
0100
0000
0020
0000
0031
0000
0000
1000
0000
0000
0001
0000
,
0021
0000
0031
0020
0130
1000
0001
0000
,
0201
0000
0000
0301
0000
0000
2000
0000
3010
0000
0000
1000
0000
0000
0002
0000
,
0023
0000
0000
0130
0000
0000
2000
0000
3001
0000
0000
0000
0010
0000
0000
0000
,
0002
0000
1003
0000
0000
0100
0000
0000
0010
0000
0000
0001
0000
0000
1000
0000
,
1020
0000
0000
1030
0000
0000
0001
0000
0200
0000
0000
0000
0301
0000
0000
0000
,
1000
0010
0000
1000
0001
0100
0001
1000
,
0020
0000
0000
0130
0000
0000
0001
0000
2000
0000
0000
0000
3001
0000
0000
0000
,
1000
0100
0000
0010
0001
1000
0001
0010
,
0200
0000
0300
1000
0001
0000
0100
0001
,
1000
0000
0010
0000
0100
0000
0001
0000
1000
0001
1000
0000
0010
0000
0100
0000
,
0001
1000
0010
1000
0001
0000
1000
0001
,
0010
0001
1000
0000
0001
0100
0010
1000
,
0001
0000
0000
0001
0010
0000
0001
0000
1000
0000
0000
0000
1000
0000
0000
0100
,
0010
0000
0001
0000
1000
0000
0001
0000
0000
0000
1000
0000
0010
0000
0000
0010
,
1000
0001
0100
0001
1000
0000
0010
0100
,
0001
1000
0010
0100
0002
1003
0200
1300
,
0001
0000
0000
0001
0100
0000
0001
0000
1000
0000
0000
0000
1000
0000
0000
0010
,
0100
0000
0001
0000
1000
0000
0001
0000
0000
0000
1000
0000
0100
0000
0000
0100
,
1000
0001
0010
0001
1000
0000
0100
0010
,
0001
0100
1000
0100
0002
1003
0020
0130
,
0201
0000
0000
0301
0100
0000
0020
0000
1030
0000
0000
0001
0010
0000
0001
0000
,
2000
0000
0000
3100
1000
0000
0200
0000
0310
0000
0000
0001
1000
0000
0002
0000
,
0203
0000
0000
0310
1000
0000
0002
0000
1003
0000
0000
0000
0100
0000
0010
0000
,
0002
0000
1003
0000
0001
0000
0200
0000
0310
0000
1000
0000
0001
0010
0001
0000
,
1002
0000
0000
1003
0100
0000
0020
0000
0031
0000
0000
1000
0010
0000
1000
0000
,
0002
0000
0000
0103
0001
0000
0200
0000
0310
0000
0000
1000
0001
0000
2000
0000
,
3200
0000
0000
0310
0001
0000
2000
0000
3001
0000
0000
0000
0100
0000
0010
0000
,
2000
0000
3001
0000
1000
0000
0200
0000
0310
0000
0001
0000
1000
0100
1000
0000
,
0002
0013
0100
1000
0001
0100
0001
1000
,
0000
0001
0100
0010
1000
0001
1000
0100
,
0200
1300
0001
0010
0100
1000
0001
0100
,
0010
0000
1000
0001
0010
0001
1000
0000
,
0002
0103
0010
1000
0001
0010
0001
1000
,
0000
0001
0010
0100
1000
0001
1000
0100
,
0200
1300
0001
0100
0010
1000
0001
0010
,
0000
0100
0000
0000
1000
0000
0001
1001
,
1001
0000
0000
0000
;
