#VERSION:0.83;
#TITLE:Bad Apple!!;
#SUBTITLE:;
#ARTIST:Alstroemeria Records feat. nomico;
#TITLETRANSLIT:;
#SUBTITLETRANSLIT:;
#ARTISTTRANSLIT:;
#GENRE:Touhou;
#ORIGIN:;
#TAGS:;
#CREDIT:;
#BANNER:Bad Apple!!.png;
#BACKGROUND:Bad Apple!!-bg.png;
#PREVIEWVID:;
#JACKET:Bad Apple!!-jacket.png;
#CDIMAGE:;
#DISCIMAGE:;
#LYRICSPATH:Bad Apple!!.lrc;
#CDTITLE:;
#MUSIC:Bad Apple!!.ogg;
#OFFSET:-0.105000;
#SAMPLESTART:41.834999;
#SAMPLELENGTH:13.705000;
#SELECTABLE:YES;
#BPMS:0.000000=138.000000
;
#STOPS:;
#DELAYS:;
#WARPS:;
#TIMESIGNATURES:0.000000=4=4
;
#TICKCOUNTS:0.000000=4
;
#COMBOS:0.000000=1
;
#SPEEDS:0.000000=1.000000=0.000000=0
;
#SCROLLS:0.000000=1.000000
;
#LABELS:0.000000=Song Start
;
#BGCHANGES:0.000=Bad Apple!!.avi=1.000=1=0=0=StretchNoLoop==CrossFade==,
99999.000=-nosongbg-=1.000=0=0=0=StretchNoLoop====,
99999=-nosongbg-=1.000=0=0=0 // don't automatically add -songbackground-
;
#KEYSOUNDS:;
#ATTACKS:
;

//---------------dance-single - Pruz----------------
#NOTEDATA:;
#CHARTNAME:Pruz;
#CHARTHASH:1837596540;
#STEPSTYPE:dance-single;
#BANNER:;
#DESCRIPTION:Pruz;
#CHARTSTYLE:;
#DIFFICULTY:Beginner;
#METER:2;
#METERF:0.000000;
#LASTSECONDHINT:118.039787;
#RADARVALUES:0.123291,0.140684,0.008298,0.307041,0.004149,104.000000,103.000000,1.000000,37.000000,0.000000,0.000000,0.000000,0.000000,0.000000,0.123291,0.140684,0.008298,0.307041,0.004149,104.000000,103.000000,1.000000,37.000000,0.000000,0.000000,0.000000,0.000000,0.000000;
#CREDIT:Pruz;
#NOTES:
// measure 0
0000
0000
0000
0000
,  // measure 1
0000
0000
0000
0000
,  // measure 2
0000
0000
0000
0000
,  // measure 3
0000
0000
0000
0000
,  // measure 4
0000
0000
0000
0000
,  // measure 5
0000
0000
0000
0000
,  // measure 6
0000
0000
0000
0000
,  // measure 7
0000
0000
0000
0000
,  // measure 8
1000
0000
0100
0000
,  // measure 9
0010
0000
0000
0000
,  // measure 10
0001
0000
0100
0000
,  // measure 11
0010
0000
0000
0000
,  // measure 12
1000
0000
0100
0000
,  // measure 13
0010
0000
0000
0000
,  // measure 14
0001
0000
0100
0000
,  // measure 15
0010
0000
2000
0000
,  // measure 16
3001
0000
0010
0000
,  // measure 17
0200
0300
1000
0000
,  // measure 18
0001
0000
0100
0000
,  // measure 19
0010
0000
2000
3000
,  // measure 20
0001
0000
0010
0000
,  // measure 21
0200
0300
1000
0000
,  // measure 22
0001
0000
0010
0000
,  // measure 23
0100
0000
0020
0000
,  // measure 24
0031
0000
0010
0000
,  // measure 25
0200
0300
1000
0000
,  // measure 26
0001
0000
0100
0000
,  // measure 27
0010
0000
2000
3000
,  // measure 28
0001
0000
0010
0000
,  // measure 29
0200
0300
1000
0000
,  // measure 30
0001
0000
0010
0000
,  // measure 31
0200
0300
0020
0030
,  // measure 32
0100
0000
1000
0000
,  // measure 33
0001
0000
0010
0000
,  // measure 34
0100
0000
0010
0000
,  // measure 35
0001
0000
1000
0000
,  // measure 36
0010
0000
0100
0000
,  // measure 37
0010
0000
1000
0000
,  // measure 38
0001
0000
0010
0000
,  // measure 39
0100
0000
0010
0000
,  // measure 40
0002
0000
0000
0003
,  // measure 41
2000
0000
0000
3000
,  // measure 42
0020
0000
0000
0030
,  // measure 43
0200
0000
0300
0001
,  // measure 44
2000
0000
0000
3000
,  // measure 45
0002
0000
0000
0003
,  // measure 46
0020
0000
0000
0030
,  // measure 47
0200
0000
0300
1000
,  // measure 48
0002
0000
0103
0000
,  // measure 49
0020
0000
1030
0000
,  // measure 50
0002
0000
0013
0000
,  // measure 51
2000
0000
3010
0000
,  // measure 52
0002
0000
0103
0000
,  // measure 53
0020
0000
1030
0000
,  // measure 54
0002
0000
0013
0000
,  // measure 55
2000
0000
3020
0000
,  // measure 56
0230
0000
1300
0000
,  // measure 57
0020
0000
0130
0000
,  // measure 58
0002
0000
0013
0000
,  // measure 59
0200
0000
1300
0000
,  // measure 60
0020
0000
0130
0000
,  // measure 61
0020
0000
1030
0000
,  // measure 62
0002
0000
1003
0000
,  // measure 63
0200
0000
0300
0000
,  // measure 64
0220
0000
0000
0000
,  // measure 65
0000
0000
0000
0000
,  // measure 66
0000
0000
0000
0000
,  // measure 67
0000
0000
0000
0000
0000
0000
0000
0000
0000
0000
0000
0000
0000
0330
0000
0000
;

//---------------dance-single - Pruz----------------
#NOTEDATA:;
#CHARTNAME:Pruz;
#CHARTHASH:1153523924;
#STEPSTYPE:dance-single;
#BANNER:;
#DESCRIPTION:Pruz;
#CHARTSTYLE:;
#DIFFICULTY:Medium;
#METER:8;
#METERF:0.000000;
#LASTSECONDHINT:118.039787;
#RADARVALUES:0.000000,0.000000,0.000000,0.000000,0.000000,0.000000,0.000000,0.000000,0.000000,0.000000,0.000000,0.000000,0.000000,0.000000,0.000000,0.000000,0.000000,0.000000,0.000000,0.000000,0.000000,0.000000,0.000000,0.000000,0.000000,0.000000,0.000000,0.000000;
#CREDIT:Pruz;
#NOTES:
0000
0000
0000
0000
,
0000
0000
0000
0000
,
0000
0000
0000
0000
,
0000
0000
0000
0000
,
0000
0000
0000
0000
,
0000
0000
0000
0000
,
0000
0000
0000
0000
,
0000
0000
0000
1001
,
2000
0000
0000
3100
1000
0000
0000
0001
,
0100
0000
0000
0001
2000
0000
3002
0000
,
1003
0000
0000
0100
1000
0000
0000
0001
,
0100
0000
0000
0001
0020
0000
0230
0000
,
1300
0000
0000
0100
1000
0000
0000
0001
,
0100
0000
0000
0001
2000
0000
3002
0000
,
1003
0000
0000
0100
1000
0000
0000
0001
,
0100
0000
0000
0001
0020
0000
0230
0000
,
1300
0000
0100
0010
0001
0000
1000
0000
,
0001
0000
0100
0000
0010
1000
0001
0000
,
1000
0000
0100
0010
0001
0000
1000
0000
,
0001
0100
1000
0100
,
0002
0000
0103
0010
1000
0000
0001
0000
,
1000
0000
0100
0000
0010
0001
1000
0000
,
0001
0000
0100
0010
1000
0000
0001
0000
,
1000
0100
0020
0032
,
2003
0000
3010
1000
0001
0000
0010
0100
,
1000
0001
1000
0010
,
0100
0000
0100
0000
0001
0000
1000
0100
,
0010
0000
0001
0000
1000
0010
0100
0000
,
0002
0000
0013
0001
1000
0000
0010
0100
,
0001
1000
0001
0010
,
0100
0000
0100
0000
1000
0000
0001
0100
,
0020
0030
0000
0200
0300
0000
0220
0330
0000
2002
3003
0000
,
2000
0000
3100
0010
0001
0000
1000
0000
,
0001
0000
0100
0010
1000
0000
0001
0000
,
1000
0000
0100
0010
0100
0000
1000
0000
,
0001
0000
0100
0010
0100
0000
0001
0000
,
2000
0000
3100
0010
0001
0000
1000
0000
,
0010
0000
0100
0001
1000
0000
0100
0000
,
0010
0000
0100
1000
0001
0000
0100
0000
,
0010
0000
0100
0001
1000
0000
0001
0000
,
0022
0033
2002
3003
0202
0303
0200
0300
,
0202
0303
2002
3003
2020
3030
2000
3000
,
2200
3300
2002
3003
0022
0033
0002
0003
,
0202
0303
2002
3003
2020
3030
2000
3000
,
2200
3300
2002
3003
2020
3030
0020
0030
,
2020
3030
2002
3003
0202
0303
0002
0003
,
0022
0033
2002
3003
2200
3300
2000
3000
,
2020
3030
2002
3003
0220
0330
2002
3003
,
2000
0000
3100
0010
0001
0000
1000
0000
,
0001
0000
0100
0010
1000
0000
0001
0000
,
0010
0000
1000
0010
0001
0000
1000
0000
,
0010
0000
0001
0010
1000
0000
0100
0000
,
0010
0000
0100
0001
0100
0000
1000
0000
,
0010
0000
0100
1000
0100
0000
0010
0000
,
1000
0000
0100
0010
0001
0000
1000
0000
,
0001
0000
0100
0010
2000
0000
3002
0000
,
0023
0130
1000
0000
,
0001
0000
0100
0000
0010
0000
1000
0001
,
1000
0100
0010
0000
,
0001
0000
0100
0000
0010
0000
1000
0001
,
0010
0000
0100
0000
1000
0000
0001
1000
,
0010
0100
0001
1000
,
0100
0010
0001
1000
,
0010
0100
0001
0000
,
2002
0000
0000
0000
,
0000
0000
0000
0000
,
0000
0000
0000
0000
,
0000
0000
0000
0000
0000
0000
0000
0000
0000
0000
0000
0000
0000
3003
0000
0000
;

//---------------dance-single - Pruz----------------
#NOTEDATA:;
#CHARTNAME:Pruz;
#CHARTHASH:301356191;
#STEPSTYPE:dance-single;
#BANNER:;
#DESCRIPTION:Pruz;
#CHARTSTYLE:;
#DIFFICULTY:Challenge;
#METER:12;
#METERF:0.000000;
#LASTSECONDHINT:118.039787;
#RADARVALUES:0.000000,0.000000,0.000000,0.000000,0.000000,0.000000,0.000000,0.000000,0.000000,0.000000,0.000000,0.000000,0.000000,0.000000,0.000000,0.000000,0.000000,0.000000,0.000000,0.000000,0.000000,0.000000,0.000000,0.000000,0.000000,0.000000,0.000000,0.000000;
#CREDIT:Pruz;
#NOTES:
0000
0000
0000
0000
,
0000
0000
0000
0000
,
0000
0000
0000
0000
,
0000
0000
0000
0000
,
0000
0000
0000
0000
,
0000
0000
0000
0000
,
0000
0000
0000
0000
,
0000
0000
0000
1001
,
0002
0000
0000
1003
0000
0010
1000
0000
0002
0000
0000
1003
0000
0100
1000
0000
,
0002
0000
0000
0013
0000
0100
1000
0000
0002
0000
0103
0000
2000
0000
3100
0000
,
0002
0000
0000
1003
0000
0100
1000
0000
0002
0000
0000
1003
0000
0010
1000
0000
,
0002
0000
0000
0103
0000
0010
1000
0000
0002
0000
0013
0000
2000
0000
3010
0000
,
0200
0000
0000
1300
0000
0010
1000
0000
0200
0000
0000
1300
0000
0001
1000
0000
,
0200
0000
0000
0310
0000
0100
1000
0000
0002
0000
0103
0000
2000
0000
3100
0000
,
0020
0000
0000
1030
0000
0100
1000
0000
0020
0000
0000
1030
0000
0001
1000
0000
,
0020
0000
0000
0000
0000
0000
0000
0000
0000
0130
0000
0000
0000
0000
0000
0010
0000
0000
1000
0000
0000
0000
0000
0000
0001
0000
0000
0000
1000
0000
0000
0000
0100
0000
0000
0000
1000
0000
0000
0000
0001
0000
0000
0000
0100
0000
0000
0000
,
0001
1000
0010
0100
0001
0000
1000
0100
,
0002
0000
0203
0000
1300
0100
0010
0001
,
1000
0010
0001
0010
1000
0000
0100
0010
,
0100
0001
0100
0010
0100
1000
0001
0100
,
0001
1000
0100
0010
0001
0000
1000
0010
,
0002
0000
0023
0000
1030
0100
0010
0001
,
1000
0010
0001
0010
1000
0000
0100
0010
,
0100
0000
0000
1001
0000
0000
1000
0010
1000
0001
0010
0001
,
1000
0100
0001
0100
1000
0000
0010
0100
,
0002
0000
2003
0000
3001
0010
0100
1000
,
0001
1000
0010
1000
0001
0000
0010
0100
,
1000
0100
0001
0100
0010
0100
1000
0001
,
1000
0010
0001
0010
1000
0000
0100
0010
,
0002
0000
2003
0000
3001
0100
0010
1000
,
0001
1000
0100
1000
0001
0000
0100
0010
,
0200
0300
0000
2002
3003
0000
0220
0330
0000
2002
3003
0000
,
2000
3100
0010
0001
1000
0000
0010
1000
,
0001
1000
0100
0010
0001
0000
0100
0001
,
1000
0010
0100
0001
1000
0000
0100
1000
,
0001
0100
0010
1000
0001
0000
1000
1000
,
0002
0103
0010
1000
0001
0000
0010
0001
,
1000
0001
0100
0010
1000
0000
0100
1000
,
0001
0010
0100
1000
0001
0000
0100
0001
,
1000
0100
0010
0001
1000
0000
0100
1000
,
0002
0003
0022
0033
2002
3003
2000
3001
,
2000
3000
2020
3030
2002
3003
0002
0103
,
2000
3100
0002
0103
0020
0030
2000
3100
,
0002
0103
0020
0031
2000
3000
0200
1300
,
0002
0003
0022
0033
2002
3003
2000
3001
,
2000
3000
2020
3030
2002
3003
0002
0013
,
2000
3010
0200
0310
0002
0003
2000
3010
,
0002
0013
2000
3001
0200
0000
0320
0000
,
0230
0301
0100
0010
1000
0000
0100
0100
,
0010
0100
1000
0100
0010
0000
0001
1000
,
0100
0100
1000
0001
0010
0000
0001
1000
,
0010
0010
0100
0010
0001
0000
0010
1000
,
0001
1000
0010
0100
0001
0000
0010
0100
,
0010
0001
1000
0010
0100
0000
0001
1000
,
0010
0010
1000
0001
0100
0000
0001
1000
,
0100
0000
0000
0100
0000
0000
0010
0000
0000
0100
0000
0000
1000
0000
0001
0000
0100
0000
0001
0000
1000
0000
0100
0000
,
2000
3001
0010
0100
1000
0000
0010
0100
,
0001
1000
0100
0010
0001
0000
1000
0001
,
0100
0100
0001
1000
0100
0000
1000
1000
,
0001
0100
0010
1000
0001
0000
1000
0010
,
1000
0001
0010
0100
1000
0000
0010
0100
,
0001
1000
0100
0010
0001
0000
1000
0001
,
0010
0010
0001
1000
0100
0000
1000
1000
,
0001
0100
0010
1000
0001
0000
0000
0000
,
2002
0000
0000
0000
,
0000
0000
0000
0000
,
0000
0000
0000
0000
,
0000
0000
0000
0000
0000
0000
0000
0000
0000
0000
0000
0000
0000
3003
0000
0000
;

//---------------dance-single - Pruz----------------
#NOTEDATA:;
#CHARTNAME:Pruz;
#CHARTHASH:2219066098;
#STEPSTYPE:dance-single;
#BANNER:;
#DESCRIPTION:Pruz;
#CHARTSTYLE:;
#DIFFICULTY:Easy;
#METER:5;
#METERF:0.000000;
#LASTSECONDHINT:118.039787;
#RADARVALUES:0.000000,0.000000,0.000000,0.000000,0.000000,0.000000,0.000000,0.000000,0.000000,0.000000,0.000000,0.000000,0.000000,0.000000,0.000000,0.000000,0.000000,0.000000,0.000000,0.000000,0.000000,0.000000,0.000000,0.000000,0.000000,0.000000,0.000000,0.000000;
#CREDIT:Pruz;
#NOTES:
0000
0000
0000
0000
,
0000
0000
0000
0000
,
0000
0000
0000
0000
,
0000
0000
0000
0000
,
0000
0000
0000
0000
,
0000
0000
0000
0000
,
0000
0000
0000
0000
,
0000
0000
0000
1001
,
1000
0000
0100
0000
,
0010
0000
0001
1000
,
0001
0000
0100
0000
,
0010
0000
1000
0001
,
1000
0000
0100
0000
,
0001
0000
0100
1000
,
0001
0000
0100
0000
,
1000
0000
0100
0001
,
1000
0100
0010
0001
,
1000
0010
2000
3000
,
0001
0010
0100
1000
,
0001
0100
0001
1000
,
0100
1000
0001
1000
,
0010
0100
0002
0003
,
1000
0100
0010
0100
,
1000
1000
0002
0003
,
1000
0010
0100
0001
,
1000
0100
2000
3000
,
0001
0100
0010
1000
,
0001
0010
0001
1000
,
0010
1000
0001
1000
,
0100
0010
0002
0003
,
1000
0010
0100
0010
,
1000
1000
0001
0001
,
1000
0100
0010
0000
,
0001
0100
0010
0000
,
1000
0001
0010
0010
,
0001
1000
0100
0100
,
1000
0010
0100
0000
,
0001
0010
0100
0000
,
1000
1000
0001
0100
,
0001
0001
1000
0010
,
0100
0110
0010
1000
,
0001
0011
0010
0100
,
1000
1001
0001
0100
,
0010
1010
1000
0100
,
0010
0011
0001
0100
,
0010
1010
1000
0100
,
0010
0100
1000
0001
,
0100
0010
2000
3002
,
0013
0000
0100
0000
,
1000
0000
0001
0000
,
0100
0010
1000
0000
,
0100
0010
0001
0000
,
1000
0000
0010
0000
,
0100
0000
0001
0000
,
1000
0100
0010
0000
,
0001
0100
0010
0000
,
1000
1000
1000
0000
,
0001
0001
0001
0000
,
0010
0100
1000
0000
,
0010
0100
0001
0000
,
1000
1000
1000
0000
,
0001
0001
0001
0000
,
0010
0100
1000
0000
,
0010
0100
0001
0000
,
2002
0000
0000
0000
,
0000
0000
0000
0000
,
0000
0000
0000
0000
,
0000
0000
0000
0000
0000
0000
0000
0000
0000
0000
0000
0000
0000
3003
0000
0000
;

//---------------dance-single - Pruz----------------
#NOTEDATA:;
#CHARTNAME:Pruz;
#CHARTHASH:2693923001;
#STEPSTYPE:dance-single;
#BANNER:;
#DESCRIPTION:Pruz;
#CHARTSTYLE:;
#DIFFICULTY:Hard;
#METER:11;
#METERF:0.000000;
#LASTSECONDHINT:118.039787;
#RADARVALUES:0.000000,0.000000,0.000000,0.000000,0.000000,0.000000,0.000000,0.000000,0.000000,0.000000,0.000000,0.000000,0.000000,0.000000,0.000000,0.000000,0.000000,0.000000,0.000000,0.000000,0.000000,0.000000,0.000000,0.000000,0.000000,0.000000,0.000000,0.000000;
#CREDIT:Pruz;
#NOTES:
0000
0000
0000
0000
,
0000
0000
0000
0000
,
0000
0000
0000
0000
,
0000
0000
0000
0000
,
0000
0000
0000
0000
,
0000
0000
0000
0000
,
0000
0000
0000
0000
,
0000
0000
0000
1001
,
2000
0000
0000
3010
0100
0000
0000
0001
,
1000
0000
0000
0100
0020
0000
0230
0000
,
1300
0000
0000
0010
0100
0000
0000
0001
,
1000
0000
0000
0100
0020
0000
0230
0000
,
1300
0000
0000
0010
0100
0000
0000
0001
,
0010
0000
0000
0100
2000
0000
3002
0000
,
1003
0000
0000
0010
0100
0000
0000
0001
,
0010
0000
0000
0100
2000
0000
3002
0000
,
1003
0010
1000
0001
1000
0000
0100
0010
,
0002
0000
2003
0000
3001
0100
1000
0100
,
0001
1000
0001
0100
0001
0000
0010
0100
,
1000
0100
0001
0100
1000
0100
0010
0001
,
1000
0001
0100
0001
1000
0000
0010
0100
,
0002
0000
2003
0000
3001
0010
1000
0010
,
0001
0010
0100
1000
0001
0000
0100
0010
,
1000
0001
0020
0230
,
1300
0100
0010
0001
1000
0000
0010
0100
,
0002
0000
2003
0000
3001
0010
0001
1000
,
0001
0100
0010
1000
0001
0000
0010
0100
,
1000
0100
0001
0100
1000
0100
0010
0001
,
1000
0001
0100
0001
1000
0000
0010
0100
,
0002
0000
2003
0000
3001
0100
0010
0100
,
0001
0010
0100
1000
0001
0000
1000
0000
,
2020
3030
0000
2002
3003
0000
0022
0033
0000
2002
3003
0000
,
2000
3010
0100
0001
0010
0000
0001
1000
,
0001
0010
0100
1000
0010
0000
0100
0001
,
1000
0001
0100
0010
1000
0000
0100
1000
,
0001
1000
0010
0100
0001
0000
1000
0001
,
2000
3100
0010
0001
0100
0000
0001
1000
,
0001
0100
0010
1000
0100
0000
0010
0001
,
1000
0001
0010
0100
1000
0000
0010
1000
,
0001
1000
0100
0010
0001
0000
1000
0001
,
0200
0300
0202
0303
0220
0330
0020
1030
,
0002
0003
0022
0033
0220
0330
0200
1300
,
0002
0003
0202
0303
0220
0330
0020
1030
,
0002
0003
0022
0033
0220
0330
0200
1300
,
0002
0103
0002
1003
0020
0030
0200
0301
,
2000
3001
0020
0031
0200
0300
0020
1030
,
0002
0013
0002
1003
0200
0300
0020
0031
,
2000
3001
0200
0301
0020
0030
0220
0330
,
1200
0000
1300
0100
0010
0000
0001
0000
,
1000
0000
0010
0100
0001
0000
1000
0000
,
0100
0000
0010
0100
1000
0000
0001
0000
,
0100
0000
0010
0100
0001
0000
1000
0001
,
1000
0100
0010
0001
1000
0000
0001
1000
,
0001
0100
0010
1000
0001
0000
1000
0100
,
0001
0100
1000
0100
0010
0000
0001
0100
,
1000
0100
0001
0100
0020
0000
2030
0000
,
3002
1003
0100
1000
0001
0000
0100
0000
,
0001
1000
0100
1000
0001
0000
0010
0000
,
0001
1000
0010
1000
0001
0000
0010
0000
,
0001
1000
0010
1000
0001
0000
0010
0000
,
0100
1000
0100
0010
0001
0000
0100
0000
,
0010
1000
0010
0100
0001
0000
1000
0000
,
0001
1000
0100
1000
0010
0000
1000
0000
,
0001
1000
0010
1000
0100
0000
0000
0000
,
0220
0000
0000
0000
,
0000
0000
0000
0000
,
0000
0000
0000
0000
,
0000
0000
0000
0000
0000
0000
0000
0000
0000
0000
0000
0000
0000
0330
0000
0000
;
