#VERSION:0.83;
#TITLE:Shine On Me;
#SUBTITLE:;
#ARTIST:HyeNRG;
#TITLETRANSLIT:;
#SUBTITLETRANSLIT:;
#ARTISTTRANSLIT:;
#GENRE:;
#CREDIT:;
#MUSIC:Shine On Me.ogg;
#BANNER:shineon.png;
#BACKGROUND:shineon-bg.png;
#CDTITLE:;
#SAMPLESTART:43.688;
#SAMPLELENGTH:14.545;
#SELECTABLE:YES;
#OFFSET:-0.051;
#BPMS:0.000=165.000;
#STOPS:;
#BGCHANGES:;
#FGCHANGES:;

//--------------- dance-single - ----------------
#NOTEDATA:;
#STEPSTYPE:dance-single;
#DESCRIPTION:;
#DIFFICULTY:Beginner;
#METER:5;
#RADARVALUES:0.004467,0.066972,0.010424,0.020847,0,3,2,1,2,0,0,0.004467,0.066972,0.010424,0.020847,0,3,2,1,2,0,0;
#NOTES:
0000
0000
0000
0000
,
0000
0000
0000
0000
,
0000
0000
0000
0000
,
0000
0000
0000
0000
,
1000
0000
0010
0000
,
1000
0000
0001
0001
,
0001
0000
0010
0000
,
0200
0000
0000
0300
,
1000
1000
1000
0000
,
0001
0000
0100
0000
,
0001
0001
0001
0000
,
1000
0000
0100
0000
,
0010
0010
0010
0000
,
0001
0000
1000
0000
,
0010
0010
0010
0000
,
0200
0000
0000
0300
,
0002
0000
0003
0000
,
2000
0000
3000
0000
,
0000
0000
0000
0000
,
0001
0000
1000
0000
,
0200
0000
0300
0000
,
0020
0000
0030
0000
,
0000
0000
0000
0000
,
0001
0000
1000
0000
,
0010
0000
1000
0000
,
0001
0000
0010
0010
,
0010
0000
0001
0000
,
1000
0000
0001
0001
,
0001
0000
0100
0000
,
0010
0000
0100
0100
,
0100
0000
0001
0000
,
1000
0000
0001
0000
,
0010
0010
0010
0010
,
0010
0000
1001
0000
,
0100
0100
0100
0100
,
0100
0000
1001
0000
,
1000
1000
1000
1000
,
1000
0000
0110
0000
,
0001
0001
0001
0001
,
0001
0000
0110
0000
,
1000
1000
0000
0000
,
0001
0001
0000
0000
,
0100
0000
0010
0000
,
0100
0000
0001
0000
,
1000
1000
0000
0000
,
0001
0001
0000
0000
,
1000
0000
0100
0000
,
0010
0000
0100
0000
,
2000
0000
0000
0000
,
3000
0000
0000
0000
,
0002
0000
0000
0000
,
0003
0000
0000
0000
,
1000
0000
1000
0000
,
1000
0000
1000
0000
,
0001
0000
0001
0000
,
0001
0000
0001
0000
,
0010
0010
0010
0000
,
0001
0000
1000
0000
,
0010
0010
0010
0000
,
1000
0000
0001
0000
,
0100
0100
0100
0000
,
0001
0000
1000
0000
,
0100
0100
0100
0100
,
0200
0000
0300
0000
,
1001
0000
0000
0000
;

//--------------- dance-single - ----------------
#NOTEDATA:;
#STEPSTYPE:dance-single;
#DESCRIPTION:;
#DIFFICULTY:Easy;
#METER:7;
#RADARVALUES:0.226344,0.401835,0.125085,0.198051,0,152,140,12,19,0,0,0.226344,0.401835,0.125085,0.198051,0,152,140,12,19,0,0;
#NOTES:
0000
0000
0000
0000
,
0000
0000
0000
0000
,
0000
0000
0000
0000
,
0000
0000
0000
0000
,
1000
0010
1000
1000
,
0001
0010
0001
0001
,
0100
0010
0100
0100
,
2002
0000
0000
3003
,
1000
0000
0001
0000
0010
0010
0010
0000
,
0001
0001
1000
0010
,
0100
0000
0001
0000
1000
1000
1000
0000
,
0001
0010
0100
1000
,
0001
0000
1000
0000
0010
0010
0010
0000
,
1000
1000
0001
0010
,
0100
0000
1000
0000
0001
0001
0001
0000
,
0220
0000
0000
0330
,
0000
0000
2000
0000
0000
3000
0000
0000
,
0000
0000
0002
0000
0000
0003
0000
0000
,
0020
0000
0000
0030
,
0001
0000
1000
0000
,
0000
0000
0200
0000
0000
0300
0000
0000
,
0000
0000
0020
0000
0000
0030
0000
0000
,
0002
0000
0000
0003
,
1000
0000
0010
0000
,
1000
0100
0010
0001
,
2000
0000
0001
0000
,
3001
0100
0010
1000
,
0002
0000
0010
0000
,
0013
0001
1000
0010
,
0200
0000
0001
0000
,
0301
0000
1000
0000
,
0100
0010
0100
0010
,
0001
0000
1000
0010
,
1000
0000
0001
0000
,
1000
0000
0001
0010
,
0001
0000
0100
0010
,
1000
0000
0001
0100
,
0001
0000
1000
0000
,
0001
0000
1000
0100
,
1000
0000
0001
1000
,
0010
0000
0010
0000
0000
0101
0000
0000
,
0010
0000
0010
0000
0000
1100
0000
0000
,
0001
0001
0000
0010
,
0001
1000
0000
0010
,
0100
0000
0100
0000
0000
1010
0000
0000
,
0100
0000
0100
0000
0000
0011
0000
0000
,
0001
0001
0000
1000
,
0100
0010
0001
1001
,
1000
0000
0000
1000
0000
0000
1000
0000
,
0001
0000
0000
0001
0000
0000
0001
0000
,
0010
0000
0000
0010
0000
0000
0010
0000
,
0100
0000
1000
0001
,
1000
1000
1000
1000
,
0001
0001
0001
0001
,
0100
0010
0100
0010
,
1000
0100
0010
0001
,
1000
1000
1000
0000
0001
0000
0000
0000
,
0001
0001
0001
0000
1000
0000
0100
0000
,
0010
0010
0010
0000
0010
0000
0000
0000
,
0100
0100
0100
0000
0100
0000
0010
0000
,
0001
0001
0001
0000
1000
0000
1000
0000
,
0010
0010
0010
0000
1000
0000
0001
0000
,
0010
0010
0010
0000
0001
0000
0001
0000
,
2002
0000
0000
3003
,
0110
0000
0000
0000
;

//--------------- dance-single - ----------------
#NOTEDATA:;
#STEPSTYPE:dance-single;
#DESCRIPTION:;
#DIFFICULTY:Medium;
#METER:10;
#RADARVALUES:0.312712,0.535779,0.218898,0.229322,0.020847,210,189,21,22,0,0,0.312712,0.535779,0.218898,0.229322,0.020847,210,189,21,22,0,0;
#NOTES:
0000
0000
0000
0000
,
0000
0000
0000
0000
,
0000
0000
0000
0000
,
0000
0000
0000
0000
,
1000
0000
0010
0000
1000
0100
1000
0000
,
0001
0000
0001
0000
1000
0001
0100
0000
,
0001
0000
0010
0000
0001
0100
0001
0000
,
2002
0000
0000
3003
,
1000
0000
0001
0000
0010
0010
0010
0000
,
0001
0000
0001
0000
1000
0010
0100
0001
,
1000
0000
0100
0000
1000
0001
1000
0000
,
0001
0000
0100
0000
0001
0010
0100
1000
,
0001
0000
1000
0000
0010
0010
0010
0000
,
1000
0000
1000
0000
0001
0010
0100
1000
,
0001
0000
0100
0000
0001
1000
0001
0000
,
0020
0000
0000
0030
,
0000
0000
0002
0000
0000
0003
0000
0000
,
0000
0000
2000
0000
0000
3000
0000
0000
,
0220
0000
0000
0330
,
1100
0000
0011
0000
,
0000
0000
2000
0000
0000
3000
0000
0000
,
0000
0000
0002
0000
0000
0003
0000
0000
,
0220
0000
0000
0330
,
0101
0000
1010
0000
,
1000
0000
0001
0000
1000
0100
0010
0002
,
0000
0000
1000
1003
,
0001
0000
1000
0000
0001
0100
0010
2000
,
0000
0000
0001
3001
,
0010
0000
0100
0000
0010
0001
1000
0002
,
0000
0000
1000
1003
,
0010
0010
0010
0010
,
1000
0001
1000
0001
1000
0001
1000
0001
,
0010
0000
0001
0000
1000
0000
0001
0010
,
0100
1000
0001
1000
,
0010
0000
1000
0000
0001
0000
1000
0100
,
0010
0001
1000
0001
,
0100
0000
0010
0000
0100
0000
0001
1000
,
0100
0010
0100
1000
,
0001
0000
0010
0000
0100
0000
0010
0001
,
1000
0010
0100
0010
,
1000
0001
1000
0000
0000
0011
0000
0000
,
0001
1000
0001
0000
0000
1010
0000
0000
,
0001
0100
0010
0100
,
0001
1000
0100
0010
,
0100
1000
0001
0000
0000
1010
0000
0000
,
0100
0001
1000
0000
0000
0011
0000
0000
,
1000
0100
1000
0001
,
0100
0001
1000
1001
,
2000
0000
0000
0100
0000
0000
0000
0000
,
3200
0000
0000
0010
0000
0000
0310
0000
,
0002
0000
0000
0100
0000
0000
0000
0000
,
0203
0000
0000
0310
0000
0110
0000
0000
,
1000
0010
1000
0001
,
1000
0000
0100
0000
0010
0000
0001
1000
,
0001
0100
0001
1000
,
0001
0010
0100
1000
,
0010
0010
0010
0000
1010
0000
0101
0000
,
0001
0001
0001
0000
1000
0000
0100
0000
,
0010
0010
0010
0000
0011
0000
1100
0000
,
0001
0001
0001
0000
0100
0000
0010
0000
,
1000
1000
1000
0000
0101
0000
1100
0000
,
0001
0001
0001
0000
0100
0000
0010
0000
,
1000
0001
1000
0000
0011
0000
1010
0000
,
0010
0100
0010
0100
0010
0100
0010
0000
,
1001
0000
0000
0000
;

//--------------- dance-single - ----------------
#NOTEDATA:;
#STEPSTYPE:dance-single;
#DESCRIPTION:;
#DIFFICULTY:Hard;
#METER:12;
#RADARVALUES:0.503317,0.573696,0.177203,0.16678,0.093814,338,321,17,16,0,0,0.503317,0.573696,0.177203,0.16678,0.093814,338,321,17,16,0,0;
#NOTES:
0000
0000
0000
0000
,
0000
0000
0000
0000
,
0000
0000
0000
0000
,
0000
0000
0000
0000
,
1000
0100
1000
0010
1000
0001
0001
0000
,
0100
0010
0100
0001
1000
0100
0010
0001
,
0001
0100
0001
0010
0001
1000
1000
0000
,
0010
0100
0010
0100
0010
0100
0010
0100
,
0001
1000
0010
1000
0001
0100
0100
0000
,
0001
0010
0100
1000
0010
0100
0001
1000
,
0010
1000
0001
1000
0100
0010
0001
0000
,
1000
0001
1000
0100
1000
0001
0100
0010
,
1000
0001
0010
0001
1000
0100
0100
0000
,
1000
0010
0100
0001
0010
0100
1000
0001
,
0010
0001
1000
0001
0100
0010
1000
0000
,
0001
1000
0001
1000
0001
1000
0001
0000
,
0110
0000
2000
0000
0000
0010
0000
0000
,
0000
0000
3002
0000
0000
0010
0000
0000
,
0203
0000
0000
0000
,
0301
0010
0100
1000
,
1001
0000
0002
0000
0000
0010
0000
0000
,
0000
0000
2003
0000
0000
0010
0000
0000
,
3200
0000
0000
0000
,
1300
0010
0100
0001
,
1000
0000
0100
0000
0010
0100
1000
0002
,
0000
0000
0103
0010
,
0100
0000
0001
0000
0100
0010
1000
0001
,
0000
0010
0100
1000
,
0001
0000
0100
0000
0010
0100
0001
2000
,
0000
3100
0010
0100
,
2000
0001
0001
3001
,
1000
0001
1000
0001
1000
0001
1000
0001
,
0010
0001
1000
0001
0010
0001
1000
0020
,
0000
1030
0001
1000
0010
0100
0001
0000
,
1000
0100
0010
0100
1000
0100
0010
0002
,
0000
0103
0010
0100
0001
0100
0010
0000
,
1000
0010
1000
0001
0010
0001
1000
0020
,
0000
0130
0001
1000
0100
1000
0001
0000
,
0100
0010
1000
0010
0100
0010
1000
0002
,
0000
0013
0100
0010
0001
0010
0100
0000
,
1000
0000
0100
0000
2000
0000
0000
0001
0000
3001
0000
0000
0000
0000
0000
0000
,
0100
0000
0001
0000
0200
0000
0000
0010
0000
0310
0000
0000
1000
0000
0001
0000
,
0010
0000
0100
0000
2000
0000
0000
0001
0000
3001
0000
0000
0000
0000
0000
0000
,
0100
0000
0010
0000
0200
0000
0000
0001
0000
0301
0000
0000
1000
0000
0100
0000
,
0010
0000
0001
0000
0020
0000
0000
0100
0000
0130
0000
0000
0000
0000
0000
0000
,
1000
0000
0001
0000
2000
0000
0000
0010
0000
3010
0000
0000
0100
0000
0001
0000
,
1000
0000
0100
0000
0020
0000
0000
0001
0000
0031
0000
0000
1000
0000
0001
0000
,
0100
0010
0100
0001
1000
0100
0010
0000
,
2001
0000
0000
0010
0000
0000
0010
0000
,
3002
0000
0000
0010
0000
0000
0013
0100
,
2000
0000
0000
0100
0000
0000
0100
0000
,
3002
0000
0000
0103
0000
0101
0000
0000
,
1000
0010
1000
0001
,
1000
0000
0100
0000
1000
0000
0100
0010
,
0001
1000
0001
0100
,
0010
0100
0001
0100
0010
1000
0001
0000
,
0010
0100
0010
0001
0010
0000
1100
0000
,
1000
0001
0100
0001
1000
0100
0010
0001
,
1000
0010
0100
0010
1000
0000
0101
0000
,
0001
1000
0100
1000
0001
0100
0010
1000
,
0001
0100
0001
0010
0001
0000
1100
0000
,
1000
0001
0100
0010
1000
0100
0010
0001
,
1000
0010
1000
0100
1000
0000
0011
0000
,
0001
1000
0001
1000
0001
1000
0001
0000
,
0110
0000
0000
0000
;

//--------------- dance-single - ----------------
#NOTEDATA:;
#STEPSTYPE:dance-single;
#DESCRIPTION:;
#DIFFICULTY:Challenge;
#METER:16;
#RADARVALUES:0.729661,0.967322,0.156356,0.416949,0.630635,490,475,15,40,0,4,0.729661,0.967322,0.156356,0.416949,0.630635,490,475,15,40,0,4;
#NOTES:
0000
0000
0000
0000
,
0000
0000
0000
0000
,
0000
0000
0000
0000
,
0000
0000
0000
0000
,
1000
0000
0010
1000
0010
0000
0100
0010
0100
0000
0001
0000
0001
0000
0000
0000
,
1000
0100
0010
0100
1000
0000
0100
0010
0001
0000
1000
0000
0001
0000
0100
0000
,
0010
0000
0100
0001
0100
0000
0010
0100
0010
0000
1000
0000
1000
0000
0000
0000
,
0010
0000
1000
0001
1000
0001
1000
0001
1000
0001
1000
0001
1000
0001
1000
0001
,
0020
0000
0001
1000
0000
0000
1000
0001
0000
0000
0100
0000
0130
0000
0000
0000
,
1000
0100
1000
0100
1000
0000
0100
0010
0001
0000
1000
0000
0010
0000
1000
0000
,
0200
0000
0010
0001
0000
0000
0010
1000
0000
0000
0010
0000
0310
0000
0000
0000
,
0001
1000
0001
1000
0001
0000
1000
0100
0010
0000
0001
0000
1000
0000
1000
0000
,
0020
0000
1000
0001
0000
0000
0001
1000
0000
0000
0100
0000
0130
0000
0000
0000
,
0001
0100
0001
0100
0001
0000
0100
0010
1000
0000
0001
0000
0010
0000
0001
0000
,
0200
0000
0010
1000
0000
0000
0010
0001
0000
0000
0010
0000
0310
0000
1000
0004
,
4000
0000
0000
3003
,
1001
0000
2010
0000
0000
3101
0000
0000
,
0000
0000
0012
0000
0000
1103
0000
0000
,
2002
0000
0000
3003
,
1000
0000
1000
0100
0000
0010
0000
0001
,
0000
0000
0102
0000
0000
1013
0000
0000
,
0000
0000
2100
0000
0000
3011
0000
0000
,
2002
0000
0000
3003
,
0001
0000
0001
0100
0000
0010
0000
1000
,
0001
0000
0010
0000
0001
0000
0000
1000
0000
0000
1000
0000
0010
0000
0000
0000
,
0100
0000
0001
0000
0100
0000
0000
0001
0000
0000
0001
0000
1000
0000
0100
0010
,
0001
0000
1000
0000
0010
0000
0000
1000
0000
0000
1000
0000
0001
0000
0000
0000
,
0010
0000
0100
0000
1000
0000
0000
0001
0000
0000
0001
0000
0100
0000
0010
1000
,
0001
0000
0010
0000
0001
0000
0000
1000
0000
0000
1000
0000
0010
0000
0000
0000
,
0100
0000
0001
0000
0100
0000
0000
0001
0000
0000
0001
0000
1000
0000
0100
0010
,
0002
1000
1000
1003
,
0001
1000
0001
1000
0001
1000
0001
1000
0001
1000
0001
1000
0001
1000
0001
1000
,
0001
0010
0001
1000
0001
0010
0100
1000
,
0010
0000
1000
0000
0001
0000
1000
0000
0010
0000
0100
0000
0001
0000
1000
0001
,
0010
0100
0010
0001
0010
0100
1000
0001
,
0100
0000
0010
0000
1000
0000
0010
0000
0100
0000
0010
0000
1000
0001
1000
0001
,
1000
0001
0100
0001
1000
0100
1000
0001
,
0100
0000
0010
0000
1000
0000
0001
0000
0010
0000
0001
0000
1000
0000
0010
0100
,
0001
1000
0100
0010
0100
1000
0001
0100
,
0010
0000
0100
0000
0001
0000
0100
0000
0010
0000
1000
0000
0001
1000
0001
1000
,
0001
0000
1000
0000
0010
0000
1000
0001
0000
0001
0000
0000
0100
0010
0000
0100
,
0001
0000
0100
0000
0001
0000
1000
0100
0000
0100
0000
0000
1000
0001
0010
0001
,
1000
0000
0001
0000
0100
0000
0010
1000
0000
1000
0000
0000
0001
0010
0000
0001
,
1000
0000
0100
0000
0010
0000
0001
1000
0000
1000
0000
0000
0001
0010
0001
1000
,
0010
0000
0100
0000
0001
0000
1000
0100
0000
0100
0000
0000
1000
0001
0000
0100
,
0001
0000
1000
0000
0100
0000
0010
0001
0000
0001
0000
0000
1000
0010
1000
0001
,
0100
0000
0010
0000
0100
0000
0001
1000
0000
1000
0000
0000
0100
0010
0000
0100
,
1000
0001
1000
0010
0100
0001
1000
0001
0010
0100
1000
0001
1000
0000
0000
0000
,
2100
0000
0000
0010
0000
0000
3100
1000
,
0002
0000
0000
0000
0000
0000
0100
0000
0000
0000
0003
0000
0001
0000
1000
0001
,
0020
0000
0000
0100
0000
0000
0031
1000
,
0020
0000
0000
0100
0000
0130
0000
0000
,
0001
0100
0001
1000
0001
0010
0001
0001
,
1000
0000
0100
0000
1000
0000
0001
0000
1000
0000
0010
0000
1000
0000
0001
1000
,
0100
0010
0100
1000
0100
0010
0001
1000
,
0001
0000
0100
0010
0100
0000
0001
0100
0010
0000
1000
0000
0001
0000
0010
0000
,
0200
0000
1000
0010
0000
0000
0001
0010
0000
0000
0300
0000
1100
0000
0000
0000
,
0101
0000
0100
0010
1000
0000
0100
0010
0001
0000
1000
0000
0001
0000
1000
0000
,
0200
0000
1000
0001
0000
0000
0001
1000
0000
0000
0300
0000
0110
0000
0000
0000
,
1010
0000
1000
0001
0010
0000
0001
1000
0010
0000
0100
0000
0001
0000
1000
0000
,
0200
0000
0010
0001
0000
0000
0010
1000
0000
0000
0300
0000
0011
0000
0000
0000
,
1010
0000
0100
0001
0010
0000
0100
1000
0010
0000
0100
0000
0001
0000
1000
0000
,
0200
0000
1000
0001
0000
0000
0001
1000
0000
0000
0300
0000
0110
0000
0001
4000
,
0004
0000
0000
3003
,
1001
0000
0000
0000
;
