#TITLE:コヨーテの行方;
#SUBTITLE:;
#ARTIST:good-cool feat.山下直子;
#TITLETRANSLIT:COYOTE'S WHERABOUTS;
#SUBTITLETRANSLIT:;
#ARTISTTRANSLIT:good-cool feat. Naoko Yamashita;
#CREDIT:;
#BANNER:;
#BACKGROUND:;
#LYRICSPATH:;
#CDTITLE:pop'n music.png;
#MUSIC:coyoteswherabouts.ogg;
#OFFSET:0.000;
#SAMPLESTART:48.387;
#SAMPLELENGTH:12.000;
#SELECTABLE:YES;
#BPMS:0.000=124.000;
#STOPS:;
#BGCHANGES:;

//---------------dance-single - ----------------
#NOTES:
     dance-single:
     :
     Medium:
     4:
     0.251,0.243,0.000,0.081,0.000:
0000
0000
0000
0000
,
0000
0000
0000
0000
,
0000
0000
0000
0000
,
0100
0100
0100
0100
,
1000
0010
1000
0001
,
0100
0000
1000
0100
0010
0000
0000
0000
,
0100
0001
0100
1000
,
0010
0000
0001
0100
1000
0000
0000
0000
,
0100
0001
1000
0010
,
1000
0000
0001
0100
0010
0000
0000
0000
,
1000
0100
0001
0100
,
1000
0000
0010
1000
0001
0000
0000
0000
,
0200
0001
0000
0301
,
0100
0010
1000
0010
,
2000
0010
0000
3010
,
0001
0100
1000
0100
,
0002
1000
0000
1003
,
1000
0010
1000
0001
,
0200
0001
0000
0301
,
0001
1000
0010
1000
,
0000
0100
0001
0000
1000
0000
0100
0000
,
1000
0001
0010
0000
,
0000
0001
0100
0000
1000
0000
0100
0000
,
0001
0010
0100
1000
,
0000
1000
0100
0000
0001
0000
0010
0000
,
0001
0100
1000
0000
,
0000
0100
1000
0000
0010
0000
1000
0000
,
0100
0010
0001
0010
,
0002
0100
0100
0100
,
0103
0000
1000
0001
,
2000
0010
0010
0010
,
3010
0000
0000
0000
0001
0100
1000
0000
,
0100
0001
1000
0010
,
1000
0001
0100
0001
,
0010
1000
0100
0001
,
0100
0010
1000
0010
,
0002
0000
0100
0000
,
1000
0000
0100
0003
,
0000
1000
0010
1000
,
0100
0001
0100
1000
,
0200
0000
0001
0000
,
0010
0000
0001
0300
,
0000
0001
0100
0010
,
0100
0001
0010
1000
,
0000
0100
1000
0000
0100
0000
0001
0000
,
0100
1000
0010
0000
,
0000
0100
0001
0000
0010
0000
1000
0000
,
0100
0001
0100
1000
,
0000
0010
1000
0000
0001
0000
0100
0000
,
1000
0100
0001
0000
,
0000
0001
0010
0000
0001
0000
0100
0000
,
1000
0100
0010
0001
,
0002
0100
0100
0100
,
0103
0000
0100
0000
0100
0001
1000
0000
;

//---------------dance-single - ----------------
#NOTES:
     dance-single:
     :
     Easy:
     2:
     0.184,0.194,0.000,0.072,0.000:
0000
0000
0000
0000
,
0000
0000
0000
0000
,
0000
0000
0000
0000
,
0001
0001
0001
0001
,
0010
0000
0001
0000
,
0010
0000
0100
1000
,
0100
0000
1000
0000
,
0001
0000
0010
0001
,
1000
0000
0100
0000
,
0001
0000
0100
0100
,
1000
0000
0010
0000
,
1000
0000
0010
0010
,
0001
0000
0100
0001
,
1000
1000
2000
3000
,
0010
0000
1000
0001
,
0100
0001
0002
0003
,
0001
0000
1000
0010
,
0001
0100
0200
0300
,
0100
0000
0001
0010
,
1000
1000
1000
1000
,
0000
0010
0001
0010
,
0000
1000
0100
0000
,
0000
1000
0010
1000
,
0001
0100
0001
0100
,
0000
0001
1000
0010
,
0000
1000
0001
0000
,
0000
0010
1000
0010
,
1000
0100
0100
0100
,
0200
0000
0000
0000
,
0300
0000
0010
0010
,
0020
0000
0000
0000
,
0030
0000
0000
0000
,
0001
0100
1000
0100
,
0001
0010
0001
0000
,
0100
1000
0100
0001
,
0010
0001
0100
0000
,
1000
0000
0100
0000
,
0001
0000
0100
0000
,
2000
0000
0000
3000
,
1000
1000
0010
0000
,
1000
0000
0001
0000
,
0010
0000
0001
0000
,
0200
0000
0000
0300
,
0100
0100
0100
0100
,
0000
1000
0010
1000
,
0000
0001
0100
0000
,
0000
0010
0001
0010
,
1000
0010
1000
0010
,
0000
0001
0100
1000
,
0000
0100
0001
0000
,
0000
0100
1000
0010
,
1000
1000
1000
1000
,
2000
0000
0000
0000
,
3000
0000
0000
0000
0000
0010
1000
0000
;

//---------------dance-single - ----------------
#NOTES:
     dance-single:
     :
     Hard:
     7:
     0.391,0.393,0.000,0.072,0.208: // measure 1
0000
0000
0000
0000
,  // measure 2
0000
0000
0000
0000
,  // measure 3
0000
0000
0000
0000
,  // measure 4
0100
0100
0100
0100
,  // measure 5
0001
0000
0000
0100
0001
0000
0000
1000
0010
0000
0000
0000
0100
0000
0001
0000
,  // measure 6
1000
0000
0000
0100
1000
0000
0000
0001
0010
0000
0000
0100
1000
0000
0000
0000
,  // measure 7
0001
0000
0000
0100
0001
0000
0000
1000
0010
0000
0000
0000
0001
0000
1000
0000
,  // measure 8
0100
1000
0100
0001
,  // measure 9
0100
0000
0000
1000
0010
0000
0000
0100
0001
0000
0000
0000
1000
0000
0001
0000
,  // measure 10
1000
0000
0000
0100
1000
0000
0000
0001
0010
0000
0000
0100
1000
0000
0000
0000
,  // measure 11
0001
0000
0000
0100
0001
0000
0000
1000
0010
0000
0000
0100
0001
0000
1000
0000
,  // measure 12
0001
0100
0010
1000
,  // measure 13
0100
0000
0000
0000
0001
0000
0000
0000
0100
1000
0000
0010
0000
0000
1000
0000
,  // measure 14
0001
0000
0000
0100
0000
0000
0010
0000
0000
0000
0000
0000
0000
0000
0000
0000
,  // measure 15
0100
0000
0000
0000
0001
0000
0000
0000
0100
1000
0000
0010
0000
0000
1000
0000
,  // measure 16
0010
0000
0000
1000
0010
0000
0000
1000
0010
0000
0000
1000
0010
0000
0100
0000
,  // measure 17
0001
0000
0000
0000
0100
0000
0000
0000
0001
0100
0000
0001
0000
0000
1000
0000
,  // measure 18
0010
0000
0000
1000
0000
0000
0010
0000
0000
0000
0000
0000
0000
0000
0000
0000
,  // measure 19
0100
0000
0000
0000
0001
0000
0000
0000
1000
0010
0000
1000
0000
0000
0010
0000
,  // measure 20
1000
0000
0000
0001
0100
0000
0000
0001
0100
0000
0000
0001
0100
0000
0000
0000
,  // measure 21
0001
0100
0001
1000
0001
1000
0010
1000
,  // measure 22
0001
0000
0100
0000
0001
1000
0000
0100
0000
0000
0000
0000
0000
0000
0000
0000
,  // measure 23
0001
0100
0001
1000
0010
1000
0001
1000
,  // measure 24
0010
1000
0001
0100
,  // measure 25
1000
0010
1000
0001
0100
0001
1000
0001
,  // measure 26
0010
0000
0001
0000
1000
0010
0000
1000
0000
0000
0000
0000
0000
0000
0000
0000
,  // measure 27
1000
0010
1000
0001
0100
0001
1000
0001
,  // measure 28
0100
0001
0010
0010
,  // measure 29
0020
1000
1000
1000
,  // measure 30
1030
1000
0100
0001
,  // measure 31
0200
0001
0001
0001
,  // measure 32
0301
0000
0001
0000
0001
0000
0001
1000
,  // measure 33
0010
1000
0001
0100
0001
1000
0010
0000
,  // measure 34
0001
0100
1000
0100
0001
0000
0000
0000
,  // measure 35
1000
0010
1000
0001
0100
0001
1000
0010
,  // measure 36
0000
0001
0100
0001
0100
0001
1000
0001
,  // measure 37
0020
1000
0001
1030
,  // measure 38
0010
1000
0100
0001
,  // measure 39
0100
0000
0000
0001
0100
0000
0000
0001
0100
0000
0000
0000
0001
0000
1000
0000
,  // measure 40
0010
0000
0000
1000
0010
0000
0000
1000
0010
0000
0000
1000
0001
0000
1000
0000
,  // measure 41
0200
1000
0001
1300
,  // measure 42
0100
1000
0010
0001
,  // measure 43
0100
0000
0000
0001
0100
0000
0000
0001
0100
0000
0000
0000
0001
0000
1000
0000
,  // measure 44
0002
0100
0100
0103
,  // measure 45
1000
0010
1000
0001
0100
0001
1000
0010
,  // measure 46
1000
0000
0001
0000
0100
0001
0000
1000
0000
0000
0000
0000
0000
0000
0000
0000
,  // measure 47
0100
0001
0100
0010
1000
0010
0100
0001
,  // measure 48
0100
0001
1000
0001
,  // measure 49
1000
0010
1000
0001
0100
0001
1000
0001
,  // measure 50
0100
0000
0001
0000
1000
0010
0000
1000
0000
0000
0000
0000
0000
0000
0000
0000
,  // measure 51
0100
0001
1000
0010
1000
0001
1000
0001
,  // measure 52
0100
0001
1000
0010
,  // measure 53
0020
1000
1000
1030
,  // measure 54
1000
0000
0001
0000
0100
0002
2000
0000
,  // measure 55
0000
0000
3003
0000
;
