#TITLE:ALL MY TURN -このターンに、オレの全てを賭ける-;
#SUBTITLE:;
#ARTIST:SUPER STAR 満-MITSURU-;
#TITLETRANSLIT:;
#SUBTITLETRANSLIT:;
#ARTISTTRANSLIT:;
#GENRE:ONLY ONE EURO BEAT;
#CREDIT:;
#MUSIC:ALL MY TURN.ogg;
#BANNER:ALL MY TURN-bn.png;
#BACKGROUND:ALL MY TURN-bg.png;
#CDTITLE:;
#SAMPLESTART:72.233;
#SAMPLELENGTH:11.294;
#SELECTABLE:YES;
#OFFSET:-0.233;
#BPMS:0.000=170.000;
#STOPS:;
#BGCHANGES:;
#FGCHANGES:;

//--------------- dance-single - ----------------
#NOTES:
     dance-single:
     :
     Beginner:
     4:
     0,0,0,0,0:
0000
0000
0000
0000
,
0000
0000
0000
0000
,
0000
0000
0000
0000
,
0000
0000
0000
0000
,
1000
0000
1000
0000
,
0001
0000
0001
0000
,
1000
0000
0001
0000
,
0020
0000
0030
0000
,
0001
0000
0100
0000
,
0001
0001
0001
0001
,
0010
0000
0100
0000
,
1000
1000
1000
1000
,
1000
0000
0100
0000
,
1000
1000
1000
1000
,
0010
0000
1000
0000
,
0100
0000
1000
1000
,
2000
0000
0000
3000
,
0002
0000
0003
0100
,
0100
0000
0010
0000
,
0100
0000
0001
0000
,
2000
0000
0000
3000
,
0100
0000
0010
0000
,
0100
0000
1000
0000
,
0001
0001
0001
0001
,
0001
0000
0010
0000
,
0001
0001
0001
0001
,
0010
0000
0100
0000
,
1000
1000
1000
1000
,
1000
0000
0100
0000
,
1000
1000
1000
1000
,
0010
0000
1000
0000
,
0100
0000
1000
1000
,
2000
0000
0000
0000
,
3000
0000
0000
0000
,
0002
0000
0000
0000
,
0003
0000
0000
0000
,
0200
0000
0000
0300
,
0020
0000
0000
0030
,
2000
0000
0000
3000
,
0002
0000
0000
0003
,
1000
0000
1000
0000
,
0001
0000
0001
0000
,
0100
0000
0010
0000
,
0100
0000
0001
0000
,
0101
0000
1100
0000
,
0011
0000
1010
0000
,
0001
0000
0001
0000
,
1000
1000
1000
1000
,
0020
0000
0000
0000
,
0030
0000
0000
0000
,
0000
0000
0000
0000
,
1000
0000
0100
0000
,
1000
0000
0010
0000
,
0100
0000
0001
0000
,
0010
0000
0001
0000
,
1000
1000
1000
0000
,
0001
0001
0001
0000
,
0100
0000
0010
0000
,
0100
0100
0100
0100
,
0001
0000
0010
0000
,
0001
0000
0100
0000
,
0010
0000
1000
0000
,
0100
0000
1000
0000
,
0002
0000
0000
0003
,
2000
0000
0000
3000
,
0011
0000
1010
0000
,
0001
0001
0001
0001
,
0000
0000
0100
0000
,
0010
0000
2002
0000
,
0000
0000
0000
0000
,
0000
0000
3003
0000
;

//--------------- dance-single - ----------------
#NOTES:
     dance-single:
     :
     Easy:
     9:
     0,0,0,0,0:
0000
0000
0000
0000
,
0000
0000
0000
0000
,
0000
0000
0000
0000
,
0000
0000
0000
0000
,
2000
0000
0010
0000
,
3002
0000
0010
0000
,
2003
0000
3001
1000
,
0200
0000
0000
0300
,
1000
0010
1000
0100
,
0020
0000
0000
0001
0000
0000
0031
0000
,
0100
1000
0100
0001
,
1000
0000
0100
0000
1000
0000
0010
0100
,
0001
0010
0001
0100
,
0020
0000
0000
1000
0000
0000
1030
0000
,
0001
0010
0000
0001
0100
0000
0010
1000
,
0000
0100
1000
0000
0001
0010
0100
1000
,
0002
0000
0100
0000
,
2003
0000
0000
0000
3100
0000
1000
0001
,
0100
1000
0100
0010
,
1000
0000
0001
0000
1000
0000
0100
0010
,
0002
0000
0000
0000
1000
0000
1003
0010
,
0100
1000
0100
0010
,
1000
0001
1000
0100
,
0020
0001
0001
0031
,
1000
0010
1000
0100
,
0020
0000
0000
0001
0000
0000
0031
0000
,
0100
1000
0100
0001
,
1000
0000
0100
0000
1000
0000
0010
0100
,
0001
0010
0001
0100
,
0020
0000
0000
1000
0000
0000
1030
0000
,
0001
0010
0000
0001
0100
0000
0010
1000
,
0000
0100
1000
0000
0001
0010
0100
1000
,
0020
0000
0000
0000
,
0000
0000
2030
0000
,
3002
0000
0000
0000
,
0000
0000
0023
0000
,
0230
0000
0000
0000
,
2300
0000
0000
0000
,
3002
0000
0000
0000
,
0203
0000
0000
0300
,
2100
0000
0001
0000
,
3002
0000
0100
0003
,
0101
2001
0010
0000
,
3020
0000
0130
0001
,
0011
1000
0101
1000
,
1010
0001
1100
0001
,
1000
0000
0000
1000
0000
0000
1000
0000
0001
0000
0000
0001
0000
0000
0001
0000
,
0010
0100
0010
0100
0010
0100
0010
0200
,
0000
0000
0000
0000
,
0300
0000
0000
0000
,
0000
0000
0000
0000
,
1000
0100
1000
0000
0010
0000
1000
0000
,
0001
0100
0001
0000
0010
0000
0001
0000
,
1000
0100
0001
0000
0100
0000
0010
0000
,
0001
0100
1000
0000
0100
0000
0010
0000
,
1000
0000
0000
1000
0000
0000
1000
0000
0000
0000
0000
0000
0000
0000
0000
0000
,
0001
0000
0000
0001
0000
0000
0001
0000
0000
0000
0000
0000
0000
0000
0000
0000
,
1000
0100
0001
0100
,
0010
0100
0010
0100
0010
0100
0010
0000
,
0001
0010
0001
0000
0100
0000
0001
0000
,
1000
0010
1000
0000
0100
0000
1000
0000
,
0001
0010
1000
0000
0010
0000
0100
0000
,
1000
0010
0001
0000
0010
0000
0100
0000
,
0002
0000
0000
0000
0000
0000
0000
1000
,
2003
0000
3100
0000
,
0011
0000
1010
0000
,
0001
0100
0010
1000
,
0000
0001
0000
0000
0001
0000
0000
1000
,
0000
1000
0000
0010
0020
0000
0000
0000
,
0000
0000
0000
0000
,
0000
0000
0030
0000
;

//--------------- dance-single - ----------------
#NOTES:
     dance-single:
     :
     Medium:
     12:
     0.509963,0.612162,0.067536,0.299086,0.32803,370,363,7,31,4,0,0.509963,0.612162,0.067536,0.299086,0.32803,370,363,7,31,4,0:
0000
0000
0000
0000
,
0000
0000
0000
0000
,
0000
0000
0000
0000
,
0000
0000
0000
0000
,
2000
0000
0000
0010
0000
0000
0010
0000
3000
0000
1000
0000
0100
0000
1000
0000
,
0002
0000
0000
0010
0000
0000
0010
0000
0003
0000
0001
0000
0100
0000
0001
0000
,
2000
0000
0000
0010
0000
0000
0010
0000
3000
0000
1000
0000
0001
0000
0010
0000
,
0200
0000
0000
0300
,
1000
0000
0000
0010
0000
0000
1000
0000
0000
0100
0000
0000
1000
0000
0010
0000
,
0200
0000
0000
0001
0000
0000
0001
0000
0000
0001
0000
0000
0301
0000
1000
0000
,
0100
0000
0000
0001
0000
0000
0100
0000
0000
1000
0000
0000
0100
0000
0010
0000
,
0001
0100
0001
0010
0100
1000
0010
1000
,
0001
0000
0000
0010
0000
0000
0001
0000
0000
0100
0000
0000
0001
0000
0010
0000
,
0200
0000
0000
1000
0000
0000
1000
0000
0000
1000
0000
0000
1300
0000
0001
0000
,
0100
0000
0001
0010
0000
0000
0100
0000
1000
0010
0000
0000
0100
0000
0001
1000
,
0000
0000
0100
0000
1000
0001
0000
0000
1000
0000
0100
0000
0010
0000
0001
0000
,
2000
0000
0000
0000
0010
0000
0000
0010
,
3002
0000
0000
0000
0010
0003
0001
1000
,
0001
0000
0100
0000
0000
0100
0000
0000
1000
0000
0000
0100
0000
0000
0100
0000
,
0010
0000
1000
0000
0000
1000
0000
0000
0001
0000
0000
1000
0000
0000
1000
0000
,
0200
0000
0000
0000
0010
0000
0310
0001
,
1000
0000
0100
0000
0000
0100
0000
0000
0001
0000
0000
0100
0000
0000
0100
0000
,
0010
0000
0001
0000
0000
0001
0000
0000
1000
0000
0000
0001
0000
0000
0001
0000
,
0100
1000
0100
0001
0100
1000
0100
0010
,
1000
0000
0000
0010
0000
0000
1000
0000
0000
0100
0000
0000
1000
0000
0010
0000
,
0200
0000
0000
0001
0000
0000
0001
0000
0000
0001
0000
0000
0301
0000
1000
0000
,
0100
0000
0000
0001
0000
0000
0100
0000
0000
1000
0000
0000
0100
0000
0010
0000
,
0001
0100
0001
0010
0100
1000
0010
1000
,
0001
0000
0000
0010
0000
0000
0001
0000
0000
0100
0000
0000
0001
0000
0010
0000
,
0200
0000
0000
1000
0000
0000
1000
0000
0000
1000
0000
0000
1300
0000
0001
0000
,
0100
0000
0001
0010
0000
0000
0100
0000
1000
0010
0000
0000
0100
0000
0001
1000
,
0000
0000
0100
0000
1000
0001
0000
0000
1000
0000
0100
0000
0010
0000
0001
0000
,
0200
0000
0000
0000
,
0000
0000
0302
0000
,
2003
0000
0000
0000
,
0000
0000
3200
0000
,
0320
0001
0000
0000
0001
0000
0000
0032
,
0000
0000
1000
0000
0000
1000
0000
0000
,
2003
0010
0000
0000
0010
0000
0000
0010
,
3020
0100
0000
0000
0100
0000
0000
0130
,
0001
0000
1000
0100
0000
0000
1000
0000
1000
0000
0001
0100
0000
0000
0001
0000
,
0001
0000
0010
0100
0000
0000
1000
0000
1000
0000
0010
0100
0000
0000
0001
0000
,
0001
0000
1000
0010
0000
0000
1000
0000
1000
0000
0001
0010
0000
0000
0001
0000
,
0001
0000
0100
0010
0000
0000
1000
0001
0000
0000
1000
0000
0100
0000
0010
0000
,
0011
0000
0000
1000
0000
0000
0000
0000
0101
0000
0000
1000
0000
0000
0000
0000
,
1010
0000
0000
0001
0000
0000
0000
0000
1100
0000
0000
0001
0000
0000
0000
0000
,
0011
0000
0000
1000
0000
0000
1000
0000
1010
0000
0000
0001
0000
0000
0001
0000
,
1000
0010
1000
0010
0100
0001
0010
0001
,
0200
0000
0000
0000
,
0300
0000
0000
0000
,
0000
0000
0000
0000
,
0001
0000
0100
0000
0010
0000
0100
0000
0002
0000
0000
0013
0000
0000
0100
0000
,
1000
0000
0100
0000
0010
0000
0100
0000
2000
0000
0000
3010
0000
0000
0100
0000
,
1000
0000
0100
0000
0001
0000
0100
0000
0020
0000
0000
1030
0000
0000
0100
0000
,
0001
0000
0100
0000
1000
0000
0100
0010
0000
0000
0001
0000
0100
0000
0010
0000
,
1000
0000
0000
1000
0000
0000
1000
0000
0000
0000
0001
0000
0100
0000
0001
0000
,
0010
0000
0000
0010
0000
0000
0010
0000
0000
0000
0001
0000
0100
0000
0010
0000
,
1000
0000
0000
0100
0000
0000
0001
0000
0000
0100
0000
0000
0010
0000
0001
0000
,
1000
0010
1000
0100
1000
0001
0010
0100
,
1000
0000
0100
0000
0010
0000
0100
0000
2000
0000
0000
3010
0000
0000
0100
0000
,
0001
0000
0100
0000
0010
0000
0100
0000
0002
0000
0000
0013
0000
0000
0100
0000
,
0001
0000
0100
0000
1000
0000
0100
0000
0020
0000
0000
0031
0000
0000
0100
0000
,
1000
0000
0100
0000
0001
0000
0100
0010
0000
0000
1000
0000
0100
0000
0010
0000
,
0002
0000
0000
0010
0000
0000
0013
0000
0000
0000
0001
0000
0100
0000
0001
0000
,
2000
0000
0000
0010
0000
0000
0010
0000
3020
0000
0000
0100
0000
0000
0100
0000
,
0130
0001
0010
0001
1000
0100
1000
0010
,
0100
1000
0100
0001
1000
0100
0010
0001
,
0000
1000
1000
0000
0001
0001
0000
0010
,
0000
0010
0000
0010
2002
0000
0000
0000
,
0000
0000
3003
0000
,
0000
0000
MMMM
0000
;

//--------------- dance-single - ----------------
#NOTES:
     dance-single:
     :
     Hard:
     16:
     0,0,0,0,0:
0000
0000
0000
0000
,
0000
0000
0000
0000
,
0000
0000
0000
0000
,
0000
0000
0000
0000
,
2000
0000
0000
0010
0000
0000
0010
0000
3000
0000
1000
0000
0100
0000
1000
0000
,
0002
0000
0000
0010
0000
0000
0010
0000
0003
0000
0001
0000
0100
0000
0001
0000
,
2000
0000
0000
0010
0000
0000
0010
0000
3000
0000
1000
0000
0001
0000
0100
0000
,
0020
0000
0000
0030
,
1000
0000
0010
1000
0000
0010
1000
0000
0100
1000
0000
0100
1000
0000
0100
0000
,
0010
0001
0000
1000
0001
0000
0100
0001
0000
1000
0001
0000
0010
0000
0010
0000
,
0100
1000
0100
0000
0001
0100
0000
1000
0100
0000
0001
0100
0000
0000
0010
0000
,
0001
0000
0100
0000
0001
0000
0010
0000
0100
0000
1000
0000
0010
1000
0010
1000
,
0001
0000
0010
0001
0000
0010
0001
0000
0100
0001
0000
0100
0001
0000
0100
0000
,
0010
1000
0000
0001
1000
0000
0100
1000
0000
0001
1000
0000
0010
0000
0010
0000
,
1000
0010
1000
0010
0000
0000
0001
0010
0001
0010
0000
0000
0100
1000
0100
1000
,
0000
0000
0100
0001
0100
0001
0000
0000
1000
0000
0100
0000
0010
0000
0001
0200
,
0000
0000
0001
0000
0000
0001
0000
0000
0010
0000
0000
0010
0000
0000
0301
0000
,
2000
0000
0010
0000
0000
0010
0000
0000
0001
0000
0000
3001
1000
0001
1000
0001
,
0100
0000
0010
0000
1000
0010
0000
0000
0001
0000
0010
1000
0000
0000
0010
0000
,
0100
0000
0001
0000
0010
0001
0000
0000
1000
0000
0001
0100
0000
0000
0001
0000
,
0020
0000
0000
0001
0000
0000
0001
0000
0100
0000
0000
0100
0000
0000
0031
1000
,
0010
0000
0100
0000
0001
0100
0000
0000
1000
0000
0100
0001
0000
0000
0100
0000
,
0010
0000
1000
0000
0100
1000
0000
0000
0001
0000
1000
0010
0000
0000
0100
0000
,
0001
0010
0001
0010
0001
0010
0001
0010
0100
1000
0100
1000
0100
1000
0100
1000
,
0001
0000
0010
0001
0000
0010
0001
0000
0100
0001
0000
0100
0001
0000
0100
0000
,
0010
1000
0000
0001
1000
0000
0100
1000
0000
0001
1000
0000
0010
0000
0010
0000
,
0100
0001
0100
0000
1000
0100
0000
0001
0100
0000
1000
0100
0000
0000
0010
0000
,
1000
0000
0100
0000
1000
0000
0010
0000
0100
0000
0001
0000
0010
0001
0010
0001
,
1000
0000
0010
1000
0000
0010
1000
0000
0100
1000
0000
0100
1000
0000
0100
0000
,
0010
0001
0000
1000
0001
0000
0100
0001
0000
1000
0001
0000
0010
0000
0010
0000
,
0001
0010
0001
0010
0000
0000
1000
0010
1000
0010
0000
0000
0000
0100
0001
0100
,
0001
0000
0100
1000
0100
1000
0000
0000
0001
0000
0100
0000
0010
0000
1000
0200
,
0000
0000
0000
0000
,
0000
0000
2300
0000
,
3002
0100
0000
0000
0100
0000
0000
0100
,
0000
0000
0100
0000
0203
0010
0000
0000
,
0320
1000
0000
0000
1000
0000
0000
2030
,
0000
0000
0001
0000
0000
0001
0000
0000
,
3002
0010
0000
0000
0010
0000
0000
0023
,
0000
0100
0000
0000
0100
0000
0000
0130
,
1000
0100
1000
0100
1000
0000
0010
0000
1000
0100
0000
0010
0000
0000
0001
0000
,
0001
0100
0001
0100
0001
0000
0010
0000
0001
0100
0000
0010
0000
0000
1000
0000
,
1100
0000
0000
1001
0000
0000
1000
0000
0100
0010
0000
0100
0000
0000
1000
0000
,
0001
0100
0001
0100
0001
0000
0100
0010
0000
1000
0100
0000
0010
0000
0001
0000
,
0012
0000
0000
1000
0000
0000
1003
0000
0102
0000
0000
1000
0000
0000
1003
0000
,
2010
0000
0000
0001
0000
0000
3001
0000
2100
0000
0000
0001
0000
0000
3001
0000
,
1010
0000
1000
0100
0000
1000
0100
0000
0011
0000
0001
0100
0000
0001
0100
0000
,
0001
0000
0010
0000
0100
0000
1000
0000
0001
1000
0001
1000
0001
1000
0001
1000
,
0020
0000
0000
0000
,
0030
0000
0000
0000
,
0000
0000
0000
0000
,
1000
0100
1000
0100
1000
0000
0010
0000
0100
0002
0000
0010
0000
0000
0013
0000
,
0001
0100
0001
0100
0001
0000
0010
0000
0100
2000
0000
0010
0000
0000
3010
0000
,
1000
0001
1000
0001
1000
0000
0010
0000
0100
0002
0000
1000
0000
0000
1003
0000
,
0001
1000
0001
1000
0001
0000
0100
0010
0000
0100
0001
0000
1000
0000
0100
0000
,
0010
0000
1000
0010
0000
0001
0010
0000
0000
0100
1000
0100
1000
0100
1000
0000
,
0010
0000
0001
0010
0000
1000
0010
0000
0000
0100
0001
0100
0001
0100
0001
0000
,
0010
0000
0100
0001
0000
0100
1000
0000
0100
0001
0000
0100
0010
0000
0010
0000
,
0001
0100
0001
0100
0010
1000
0010
1000
0001
0010
0001
0010
0100
1000
0100
1000
,
0001
0100
0010
0100
0001
0000
0100
0000
0010
2000
0000
0100
0000
0000
3100
0000
,
1000
0100
0010
0100
1000
0000
0100
0000
0010
0002
0000
0100
0000
0000
0103
0000
,
0001
1000
0010
1000
0001
0000
1000
0000
0100
0020
0000
0001
0000
0000
0031
0000
,
1000
0001
0010
0001
1000
0000
0001
0010
0000
0100
1000
0000
0001
0000
0100
0000
,
0020
0000
0000
0001
0000
0000
0031
0000
0000
0000
0010
0000
1000
0000
0010
0000
,
2000
0000
0000
0100
0000
0000
3100
0000
0020
0000
0000
0001
0000
0000
0031
0000
,
2010
0000
0000
0001
0000
0000
3001
0000
2100
0000
0000
0001
0000
0000
3001
0000
,
0011
0000
0001
0100
0001
0000
0010
0001
0010
0000
0001
0100
0010
0000
0010
0000
,
0000
1000
1000
0000
0001
0001
0000
0010
,
0000
0010
0000
0110
2002
0000
0000
0000
,
0000
0000
3003
0000
,
0000
0000
MMMM
0000
;

//--------------- dance-single - ----------------
#NOTES:
     dance-single:
     :
     Challenge:
     17:
     0.831102,1.02027,0.106127,0.250847,1.220465,603,592,11,26,4,0,0.831102,1.02027,0.106127,0.250847,1.220465,603,592,11,26,4,0:
0000
0000
0000
0000
,
0000
0000
0000
0000
,
0000
0000
0000
0000
,
0000
0000
0000
0000
,
2000
0000
0000
0010
0000
0000
0010
0000
3000
0000
1000
0000
0100
0000
1000
0000
,
0002
0000
0000
0010
0000
0000
0010
0000
0003
0000
0001
0000
0100
0000
0001
0000
,
2000
0000
0000
0100
0000
0000
0100
0000
3000
0000
1000
0000
0001
0000
0100
0000
,
0020
0000
0000
0030
,
1000
0010
0000
1000
0010
0000
1000
0100
0000
1000
0100
0000
1000
0010
0100
0001
,
0010
0001
0000
1000
0001
0000
0100
0001
0000
1000
0001
0000
0010
0000
0010
0000
,
0100
1000
0100
0000
0001
0100
0000
1000
0100
0000
0010
0001
0000
1000
0010
0100
,
0001
0010
0100
1000
0001
0100
0010
1000
0001
0010
0100
1000
0001
0100
0010
1000
,
0001
0010
0000
0001
0010
0000
0001
0100
0000
0001
0100
0000
0001
0010
0100
1000
,
0010
1000
0000
0001
1000
0000
0100
1000
0000
0001
1000
0000
0010
0000
0010
0000
,
1000
0010
1000
0010
0000
0000
0001
0010
0001
0010
0000
0000
0100
1000
0100
1000
,
0000
0000
0100
0001
0100
0001
0000
0000
1000
0100
0001
0100
1000
0100
0010
0001
,
0020
0000
0001
0000
0000
0001
0000
0000
0100
0000
0000
0100
0000
0000
0031
0000
,
2000
0000
0100
0000
0000
0100
0000
0000
0001
0000
3000
0001
1000
0001
1000
0001
,
0100
0000
0010
0000
1000
0010
0000
0001
0010
0000
1000
0010
0000
0100
0001
0000
,
1000
0000
0100
0000
0010
0001
0000
0100
0001
0000
0010
0001
0000
0100
0001
0000
,
0020
0000
0001
0000
0000
0001
0000
0000
0100
0000
0000
0100
0000
0000
0031
1000
,
0010
0000
0100
0000
1000
0100
0000
0001
0100
0000
1000
0100
0000
0010
1000
0000
,
0001
0000
0010
0000
0100
1000
0000
0010
1000
0000
0100
1000
0000
0010
1000
0000
,
0001
0100
0010
1000
0001
0010
0100
1000
0001
0100
0010
1000
0001
0010
0100
1000
,
0001
0010
0000
0001
0010
0000
0001
0100
0000
0001
0100
0000
0001
0010
0100
1000
,
0010
1000
0000
0001
1000
0000
0100
1000
0000
0001
1000
0000
0010
0000
0010
0000
,
0100
0001
0100
0000
1000
0100
0000
0001
0100
0000
0010
1000
0000
0001
0010
0100
,
1000
0010
0100
0001
1000
0100
0010
0001
1000
0010
0100
0001
1000
0100
0010
0001
,
1000
0010
0000
1000
0010
0000
1000
0100
0000
1000
0100
0000
1000
0010
0100
0001
,
0010
0001
0000
1000
0001
0000
0100
0001
0000
1000
0001
0000
0010
0000
0010
0000
,
0001
0010
0001
0010
0000
0000
1000
0010
1000
0010
0000
0000
0100
0001
0100
0001
,
0000
0000
0100
1000
0100
1000
0000
0000
0001
0100
1000
0100
0001
0100
0010
1000
,
0200
0000
0000
0000
,
0000
0000
2300
0000
,
3002
0000
0100
0000
0000
0100
0000
0000
1000
0000
0000
1000
0000
0000
0100
0000
,
0000
0100
0003
0000
0100
0000
0000
0000
0020
0000
0000
0000
0000
0000
0000
0000
,
2030
0000
0100
0000
0000
0100
0000
0000
0001
0000
0000
0001
0000
0000
0010
0000
,
0000
0010
0000
0000
0001
0000
0000
0001
0000
0000
0100
0000
0000
0100
0000
0000
,
3002
0000
0100
0000
0000
0100
0000
0000
1000
0000
0000
1000
0000
0000
1000
0000
,
2003
0000
0100
0000
0000
0100
0000
0000
0001
0000
0000
0001
0000
0000
3010
0000
,
0010
1000
0010
1000
0000
0000
0100
0000
1000
0010
1000
0010
0000
0000
0100
0000
,
0001
0010
0001
0010
0000
0000
0100
0000
0010
0001
0010
0001
0000
0000
1000
0000
,
0001
0100
0001
0100
0000
0000
0010
0000
0100
0001
0100
0001
0000
0000
0010
0000
,
0100
1000
0100
1000
0000
0000
0010
1000
0000
0010
0100
0001
1000
0100
0010
0001
,
0011
0000
1000
0001
0000
0000
0001
0000
0101
0000
1000
0001
0000
0000
0001
0000
,
1010
0000
0001
1000
0000
0000
1000
0000
1100
0000
0001
1000
0000
0000
1000
0000
,
1010
0000
1000
0100
0000
1000
0100
0000
0011
0000
0001
0100
0000
0001
0100
0000
,
0010
1000
0010
1000
0100
1000
0100
1000
0001
0100
0001
0100
0001
0010
0001
0010
,
0002
0000
0000
0000
,
0003
0000
0000
0000
,
0000
0000
0000
0000
,
1000
0100
0010
0100
1000
0000
0100
0000
0010
0002
0000
0100
0000
0000
0103
0000
,
0001
0100
0010
0100
0001
0000
0100
0000
0010
2000
0000
0100
0000
0000
3100
0000
,
0001
0100
1000
0100
0001
0000
0100
0000
1000
0002
0000
0100
0000
0000
0103
0000
,
1000
0100
0001
0100
1000
0000
0100
0010
0000
1000
0010
1000
0001
0010
0100
1000
,
0010
0000
0001
0010
0000
1000
0010
0000
0000
0100
0001
0100
0001
1000
0100
0010
,
0001
0000
0010
1000
0000
0010
0001
0000
0000
1000
0001
1000
0001
0100
0010
1000
,
0001
0000
0010
1000
0000
0010
0001
0000
0010
0100
0000
1000
0100
0001
0100
1000
,
0001
0100
0010
1000
0001
0010
0100
1000
0001
0100
0010
1000
0001
0010
0100
1000
,
0001
0100
0010
0100
0001
0000
0100
0000
0010
2000
0000
0100
0000
0000
3100
0000
,
1000
0100
0010
0100
1000
0000
0100
0000
0010
0002
0000
0100
0000
0000
0103
0000
,
1000
0100
0001
0100
1000
0000
0100
0000
0001
2000
0000
0100
0000
0000
3100
0000
,
0001
0100
1000
0100
0001
0000
0100
0010
0000
0001
0010
0001
1000
0010
0100
0001
,
0200
0000
0000
1000
0000
0000
1300
0000
0000
0100
0001
0100
0001
1000
0100
0010
,
0002
0000
0000
1000
0000
0000
1003
0000
0002
0000
0000
0010
0000
0000
0013
0000
,
0011
0000
0000
0100
0000
0000
0100
0000
1010
0000
0000
0100
0000
0000
0100
0000
,
1001
0000
0001
0010
0001
0000
1000
0010
1000
0000
0001
0100
0010
1000
0100
0010
,
0000
0001
0001
0000
1000
1000
0000
0010
,
0000
0010
0000
0110
2002
0000
0000
0000
,
0000
0000
3003
0000
,
0000
0000
MMMM
0000
;
