#TITLE:20, November;
#SUBTITLE:~Rebirth~;
#ARTIST:megawolf77;
#TITLETRANSLIT:;
#SUBTITLETRANSLIT:;
#ARTISTTRANSLIT:;
#GENRE:HOUSE REVIVAL;
#CREDIT:;
#BANNER:20novemberrebirth-bn.png;
#BACKGROUND:20novemberrebirth-bg.png;
#LYRICSPATH:;
#CDTITLE:cdtitle.png;
#MUSIC:20novemberrebirth.ogg;
#OFFSET:-0.040190;
#SAMPLESTART:22.194035;
#SAMPLELENGTH:12.000000;
#SELECTABLE:YES;
#BPMS:0.000000=130.011353
;
#STOPS:
;
#BGCHANGES:;
#KEYSOUNDS:;
#ATTACKS:;

//---------------dance-single - ----------------
#NOTES:
     dance-single:
     :
     Hard:
     10:
     0.458957,0.517990,0.419048,0.000000,0.046561,276.000000,240.000000,36.000000,0.000000,0.000000,0.000000,0.458957,0.517990,0.419048,0.000000,0.046561,276.000000,240.000000,36.000000,0.000000,0.000000,0.000000:
0000
0000
0000
0000
,
0000
0000
0000
0000
,
0000
0000
0000
0000
,
0000
0000
0000
0000
,
1001
0000
1000
0000
0010
0000
1000
0001
,
1001
0000
0001
0000
0010
0000
0001
1000
,
1001
0000
0001
0000
0100
0000
0010
0010
,
0010
0000
0010
0000
0010
0000
1000
0001
,
1001
0000
1001
0000
0001
0010
0100
0000
,
1000
0000
0001
0000
1010
0001
0100
0000
,
0101
0000
1001
0000
1000
0100
0010
0000
,
0001
0000
1000
0000
0011
1000
0100
0000
,
1000
0010
1000
0010
1000
0010
1000
1001
,
0001
0010
0001
0100
0001
0010
0001
1001
,
1000
0100
1000
0100
1000
0100
1000
1001
,
0001
0001
1000
1000
0001
0001
1000
1000
,
0001
0100
0001
0100
0001
0100
0001
1001
,
1000
0100
1000
0010
1000
0100
1000
1001
,
0001
0010
0001
0010
0001
0010
0001
1001
,
1000
0010
0100
0001
1000
1000
0100
0100
,
0001
0000
0001
0000
0100
0000
0100
0000
1000
0000
0000
1000
0000
0000
1000
0000
,
0000
1000
0000
0000
0010
0000
0100
0000
0001
0000
0000
0001
0000
0000
0001
0000
,
0000
0001
0000
0000
0010
0000
0100
0000
1000
0000
0000
0001
0000
0000
1000
0000
,
0000
0001
0000
0000
1000
0000
0100
0000
0010
0000
0000
0100
0000
0000
0010
0000
,
0000
0100
0000
0000
0010
0000
0001
0000
1000
0000
0010
0000
0100
0000
0010
0000
,
1000
0100
0010
0001
0010
0100
0010
0001
,
1000
0001
1000
0001
0100
0010
0100
0001
,
1000
0100
0010
0001
1000
1000
0001
0001
,
0100
0100
0010
0010
1000
0000
0010
0000
,
1000
0000
1010
0001
0100
0000
0001
0000
,
1000
0000
0011
1000
0100
0000
1000
0000
,
0001
0000
0101
1000
0010
0000
1000
0000
,
0001
0000
0110
0001
1001
0000
0001
0000
,
1000
0000
0011
0001
0101
0000
0100
0000
,
0010
0000
1010
1000
1100
0000
0100
0000
,
0010
0000
0011
0001
1001
0000
1000
0000
,
0001
0000
0110
0001
1001
0000
0001
0000
,
0001
0001
0100
0010
,
1000
0000
1010
0001
1100
0000
0000
0000
,
0000
0011
0000
1000
0001
0000
0000
0000
,
0100
0100
0110
0001
,
0001
0000
0001
0001
1001
0000
1000
0000
,
1000
0000
1000
1000
0110
0000
0001
0000
,
0010
0000
1000
0010
0011
0000
1000
0000
,
0100
0000
0001
0100
1001
0000
0000
0000
;

//---------------dance-single - ----------------
#NOTES:
     dance-single:
     :
     Challenge:
     13:
     0.605292,0.699287,0.244445,0.209524,0.465609,364.000000,343.000000,21.000000,18.000000,0.000000,0.000000,0.605292,0.699287,0.244445,0.209524,0.465609,364.000000,343.000000,21.000000,18.000000,0.000000,0.000000:
// measure 0
0000
0000
0000
0000
,  // measure 1
0000
0000
0000
0000
,  // measure 2
0000
0000
0000
0000
,  // measure 3
0000
0000
0000
0000
,  // measure 4
1010
0000
1000
0000
0001
0000
1000
0010
1000
0000
0001
0000
0100
0000
0001
0000
,  // measure 5
0011
0000
0001
0000
1000
0000
0001
0010
0001
0000
1000
0000
0100
0000
1000
0000
,  // measure 6
1010
0000
0010
0000
0100
0000
0001
1000
0001
0000
1000
0000
0100
0000
0010
0000
,  // measure 7
0011
1000
1010
0001
0101
1000
1100
0110
,  // measure 8
0012
0000
0000
0000
1000
0000
0000
0000
1003
0010
0000
0010
0000
0000
0100
0000
,  // measure 9
0001
0000
0100
0000
1000
0000
0100
0000
0001
1000
0000
1000
0000
0000
1000
0000
,  // measure 10
2000
0000
0000
0000
0001
0000
0000
0000
3001
0010
0000
0010
0000
0000
0100
0000
,  // measure 11
1000
0100
0001
0100
1000
0110
1001
0000
,  // measure 12
0001
0010
0001
0000
0100
0000
0001
0010
0001
0000
1000
0000
0001
0000
0001
0000
,  // measure 13
1000
0010
1000
0000
0100
0000
1000
0010
1000
0000
0001
0000
1000
0000
1000
0000
,  // measure 14
0001
0100
0001
0000
0010
0000
0001
0100
0001
0000
1000
0000
0001
0000
0001
0000
,  // measure 15
1000
0100
1000
0100
0010
0001
0010
0001
1000
0010
1000
0010
0100
0001
0100
0001
,  // measure 16
1000
0001
1000
0000
0100
0000
1000
0001
1000
0000
0001
0000
0010
0000
0010
0000
,  // measure 17
0001
1000
0001
0000
0100
0000
0001
1000
0001
0000
1000
0000
0010
0000
0010
0000
,  // measure 18
1000
0001
1000
0000
0010
0000
1000
0001
1000
0000
0001
0000
0100
0000
0100
0000
,  // measure 19
0001
0000
0010
0000
0100
0000
1000
0000
1000
0100
1000
0100
0010
0001
0010
0001
,  // measure 20
1000
0010
1000
0010
0100
0001
0100
0001
2000
0000
0000
0010
0000
0000
0010
0000
,  // measure 21
0000
3010
0000
0000
1000
0000
0001
0000
0002
0000
0000
0010
0000
0000
0010
0000
,  // measure 22
0000
0013
0000
0000
0001
0000
1000
0000
2000
0000
0000
0100
0000
0000
0100
0000
,  // measure 23
0000
3100
0000
0000
1000
0000
0001
0000
0002
0000
0000
0100
0000
0000
0100
0000
,  // measure 24
0000
0103
0000
0000
0001
0000
1000
0000
0100
0000
0010
0000
0100
0000
1000
0001
,  // measure 25
0100
0010
0100
0001
1000
0100
0010
0001
,  // measure 26
1000
0001
0000
0001
0000
0000
1000
0010
0100
0000
0001
0000
1000
0000
0010
1000
,  // measure 27
0010
0100
0001
0010
0110
1000
0110
0001
,  // measure 28
0110
0000
1000
0000
1001
0000
0000
0000
1000
0000
0010
0000
0100
0000
0002
1000
,  // measure 29
0000
1003
0000
0000
0001
0000
1000
0000
0001
0000
0010
0000
0100
0000
2000
0001
,  // measure 30
0000
3001
0000
0000
1000
0000
0001
0000
1000
0000
0100
0000
0010
0000
0002
1000
,  // measure 31
0000
1003
0000
0000
0001
0000
1000
0000
0001
0010
0001
0010
0100
1000
0100
1000
,  // measure 32
0001
1000
0001
1000
0010
0100
0010
0100
0001
0000
1000
0000
0001
0000
0020
0100
,  // measure 33
0000
0130
0000
0000
1000
0000
0010
0000
1000
0000
0001
0000
1000
0000
0200
0010
,  // measure 34
0000
0310
0000
0000
0001
0000
0010
0000
0001
0000
1000
0000
0001
0000
0020
0100
,  // measure 35
0000
0130
0000
0000
1000
0000
0001
0000
1000
0010
1000
0010
0100
0001
0100
0001
,  // measure 36
1000
0001
1000
0001
0010
0100
0010
0100
1000
0000
0100
0000
1000
0000
0010
0000
,  // measure 37
0000
1001
0100
1001
0001
0010
0001
1000
,  // measure 38
0010
0100
0000
0000
1001
0000
0000
0000
0002
0000
0010
0000
0000
0000
0010
0000
,  // measure 39
0003
0100
1000
0001
2000
0010
0000
0010
,  // measure 40
0000
3010
0100
0001
1002
0000
0000
0013
,  // measure 41
0000
0100
0001
0100
1000
0100
0010
0001
,  // measure 42
1000
0000
1001
0000
2000
0000
0000
0010
,  // measure 43
0000
0000
3010
0000
0000
0100
0000
0000
0001
0000
0010
0000
0100
0000
1000
0000
,  // measure 44
0001
0220
0330
0000
;

//---------------dance-single - ----------------
#NOTES:
     dance-single:
     :
     Medium:
     8:
     0.342555,0.412064,0.174603,0.116402,0.034921,206.000000,191.000000,15.000000,10.000000,0.000000,0.000000,0.342555,0.412064,0.174603,0.116402,0.034921,206.000000,191.000000,15.000000,10.000000,0.000000,0.000000:
0000
0000
0000
0000
,
0000
0000
0000
0000
,
0000
0000
0000
0000
,
0000
0000
0000
0000
,
1001
0000
1000
0000
0010
0000
1000
0001
,
0001
0000
0010
0000
0010
0000
0001
1000
,
1000
0000
0010
0000
0010
0000
0100
0100
,
0100
0001
1000
1001
,
2000
0000
0010
0000
3010
0000
0100
0100
,
0100
0001
1000
0001
,
0002
0000
0010
0000
0013
0000
0100
0100
,
0100
1000
0001
1001
,
1000
0010
1000
0010
0100
0000
1001
0000
,
0001
0010
0001
0010
0100
0000
1001
0000
,
1000
0001
1000
0001
0100
0000
0110
0000
,
1000
0010
1000
0000
0001
0010
0001
0000
,
1000
0100
0010
0100
1000
0000
1001
0000
,
0001
0100
0010
0100
0001
0000
1001
0000
,
1000
0100
0010
0001
1000
0000
1001
0000
,
0001
0100
0010
1000
0001
0000
0001
0000
,
1000
0000
1000
0000
0020
0000
0000
1000
,
0000
0000
1030
0000
0002
0000
0000
0010
,
0000
0000
0013
0000
0200
0000
0000
1000
,
0000
0000
1300
0000
0002
0000
0000
0100
,
0000
0000
0103
0000
0001
1000
0000
0010
,
0000
1000
0000
0100
0000
0001
0000
0100
,
0010
0000
1001
0000
1000
0001
0000
0100
,
0000
0001
0000
0010
0000
1000
0000
0010
,
0100
0000
0000
0000
1001
0000
0000
0000
1000
0000
0000
1000
0000
0000
1000
0000
,
0000
0000
0010
0000
0100
0000
0000
0000
0001
0000
0000
0001
0000
0000
0001
0000
,
0000
0000
0010
0000
0100
0000
0000
0000
1000
0000
0000
0001
0000
0000
1000
0000
,
0000
0010
0100
0000
0001
1000
0010
1000
,
0001
0000
0000
0000
0011
0000
0000
0000
0001
0000
0000
0010
0000
0000
0001
0000
,
0000
0000
1000
0000
1000
0000
0000
0000
1000
0000
0000
0010
0000
0000
1000
0000
,
0000
0000
0001
0000
0001
0000
0000
0000
0100
0000
0000
0010
0000
0000
0100
0000
,
0000
0001
0001
0000
1000
0100
0010
0100
,
1000
0000
1001
0000
0002
0000
0000
0013
,
0000
0001
0100
0010
,
1000
1000
0001
0000
2000
0000
0000
3010
,
0000
1000
0100
0010
,
0001
0001
1000
0000
0002
0000
0000
0013
,
0000
0000
0001
1000
0001
0000
0100
0000
,
0010
0000
1001
0000
2000
0000
0000
3010
,
0000
0000
1000
0001
1000
0000
0100
0000
,
0010
1001
0000
0000
;

//---------------dance-single - ----------------
#NOTES:
     dance-single:
     :
     Easy:
     4:
     0.192895,0.256085,0.104762,0.093122,0.000000,116.000000,107.000000,9.000000,8.000000,0.000000,0.000000,0.192895,0.256085,0.104762,0.093122,0.000000,116.000000,107.000000,9.000000,8.000000,0.000000,0.000000:
0000
0000
0000
0000
,
0000
0000
0000
0000
,
0000
0000
0000
0000
,
0000
0000
0000
0000
,
1001
0000
0000
0000
0000
0000
1000
1000
,
1000
0000
0000
0000
0000
0000
0001
0001
,
0001
0000
0000
0000
,
0100
0100
0100
1001
,
1000
0000
0001
0000
,
0010
0000
0001
0000
,
1000
0000
0010
0000
,
1000
0000
0001
1001
,
1000
1000
1000
0000
,
0001
0001
0001
0000
,
0010
0010
0010
0000
,
0001
1000
0001
1001
,
1000
0100
1000
0000
,
0001
0100
0001
0000
,
1000
0100
0010
0000
,
0001
0100
0010
0010
,
0010
0010
2000
0000
,
0000
3000
0002
0000
,
0000
0003
0020
0000
,
0000
0030
0200
0000
,
0000
0300
1000
0001
,
1000
0100
0001
0100
,
0010
0010
0010
0000
0001
0000
1000
0000
,
0001
0100
1000
0100
,
0010
1001
1000
1000
,
1000
0000
0001
0010
,
0001
0000
0100
0100
,
0100
0000
1000
0100
,
0001
1001
0001
0001
,
0001
0000
1000
0010
,
1000
0000
0100
0100
,
0100
0000
0001
0100
,
1000
1001
0002
0000
,
0003
0000
0001
0000
,
1000
0000
2000
0000
,
3000
0000
1000
0000
,
0001
0000
0020
0000
,
0000
0030
0010
0000
,
1001
0000
0200
0000
,
0000
0300
0100
0000
,
1001
0000
0000
0000
;

//---------------dance-single - ----------------
#NOTES:
     dance-single:
     :
     Beginner:
     3:
     0.143008,0.207196,0.069841,0.069841,0.000000,86.000000,80.000000,6.000000,6.000000,0.000000,0.000000,0.143008,0.207196,0.069841,0.069841,0.000000,86.000000,80.000000,6.000000,6.000000,0.000000,0.000000:
0000
0000
0000
0000
,
0000
0000
0000
0000
,
0000
0000
0000
0000
,
0000
0000
0000
0000
,
1000
0000
0000
0000
,
0001
0000
0000
0000
,
1000
0000
0000
0000
,
0010
0010
0010
0000
,
1001
0000
1000
0000
,
0001
0000
1000
0000
,
0100
0000
0010
0000
,
0100
0000
1001
0000
,
0001
0001
0001
0000
,
1000
1000
1000
0000
,
0010
0010
0010
0000
,
0100
0100
0100
0000
,
0001
0000
1000
0000
,
0001
0000
1001
0000
,
1000
0000
0001
0000
,
1000
0000
0010
0010
,
0010
0010
0020
0000
,
0030
0000
0200
0000
,
0300
0000
0002
0000
,
0003
0000
2000
0000
,
3000
0000
0001
0000
,
0010
0000
1000
0000
,
0010
0000
0001
0000
,
0100
0000
1000
0000
,
0100
0000
0001
0001
,
0001
0000
1000
1000
,
1000
0000
0010
0010
,
0010
0000
1000
0000
,
0001
0000
1000
1000
,
1000
0000
0001
0001
,
0001
0000
0100
0100
,
0100
0000
0001
0000
,
1000
0000
1001
0000
,
0000
0000
1000
0000
,
0001
0000
1001
0000
,
0000
0000
0001
0000
,
1000
0000
1001
0000
,
0000
0000
0200
0000
,
0000
0000
0300
0000
,
0000
0000
0020
0000
,
0000
0000
0030
0000
;
