#TITLE:X-ray binary;
#SUBTITLE:;
#ARTIST:BEMANI Sound Team "Trance Liquid";
#TITLETRANSLIT:;
#SUBTITLETRANSLIT:;
#ARTISTTRANSLIT:;
#GENRE:;
#CREDIT:;
#MUSIC:X-ray binary.ogg;
#BANNER:X-ray binary.png;
#BACKGROUND:X-ray binary-jacket.png;
#CDTITLE:./CDTitles/DDR A20 PLUS.png;
#SAMPLESTART:90.000;
#SAMPLELENGTH:15.000;
#SELECTABLE:YES;
#OFFSET:0.000;
#BPMS:0.000=150.000;
#STOPS:;
#BGCHANGES:;
#FGCHANGES:;

//--------------- dance-single - Prism ----------------
#NOTES:
     dance-single:
     Prism:
     Challenge:
     17:
     0,0,0,0,0:
0000
0000
0000
0000
,
0000
0000
0000
0000
,
0000
0000
0000
0000
,
0000
0000
0000
0000
,
0000
0000
0000
0000
,
0001
0000
1000
0001
1000
0000
0001
1000
0000
0010
0100
0000
0001
1000
0001
0000
,
1000
0000
0100
0010
0001
0000
1000
0001
0000
0100
0010
0000
1000
0000
0010
1000
,
0001
0000
1000
0001
1000
0000
0001
0100
0000
0010
1000
0000
0100
0000
0010
0100
,
1000
0000
0001
1000
0001
0000
0100
0010
0000
1000
0001
0000
1000
0000
0001
1000
,
0001
0000
0010
0000
0100
0000
0010
0001
0000
0100
0001
0000
1000
0100
0010
0001
,
2000
0000
0000
0000
0000
0000
0000
0000
0000
0000
0000
0000
3010
0100
0010
0100
,
0001
0000
0001
1000
0001
0000
1000
0000
0001
0010
0100
1000
0001
0010
0100
1000
,
0100
0010
0001
1000
0001
0010
0100
1000
0100
0010
0001
0000
1000
0000
0001
0100
,
0001
0000
0100
0000
0010
0100
0001
0000
0001
0010
0100
1000
0001
0010
0100
1000
,
0001
1000
0010
0100
0001
0010
0100
0010
0001
0000
1000
0000
0001
0000
0100
0001
,
0100
0000
0010
0000
1000
0010
1000
0000
0001
0010
0100
1000
0001
0010
0100
1000
,
0001
1000
0100
1000
0001
0010
0100
0010
0001
1000
0100
0000
0010
0000
0100
1000
,
0001
0000
1000
0000
0001
1000
0001
0000
0100
0000
0010
0100
0010
1000
0001
1000
,
0100
0000
0010
0100
1000
0000
0001
1000
0001
0000
1000
0000
0001
1000
0001
1000
,
0010
0000
0100
0001
0000
0010
0100
1000
0001
0000
1000
0010
0000
0100
0010
1000
,
0001
0000
0010
0100
0000
1000
0100
0010
0001
0000
1000
0000
0001
1000
0001
0010
,
0100
0000
1000
0010
0000
0100
0010
1000
0001
0000
0010
0100
0000
1000
0100
0010
,
0001
0000
1000
0000
0001
0100
0010
0000
1000
0000
0010
0100
0001
0000
1000
0000
,
1001
0000
0001
0100
0000
0100
1000
0000
1001
0000
1000
0100
0000
0100
0001
0010
,
0100
0000
1000
0001
1000
0000
0001
0000
0100
0000
0010
1000
0200
0000
0310
0001
,
0100
0000
0001
1000
0000
0010
0100
0001
1000
0000
0001
1000
0000
0100
0010
0001
,
1000
0000
0001
0000
1000
0001
1000
0000
0010
0000
0100
0000
0001
1000
0010
1000
,
0100
0000
0010
0100
0000
1000
0001
0000
1001
0000
1000
0010
0000
0100
0001
0010
,
0100
0000
1000
0000
0001
1000
0001
0000
0100
0000
0010
1000
0001
0000
1000
0000
,
1001
0000
0001
0100
0010
0000
1000
0000
1100
0000
0100
0000
1000
0000
0100
0010
,
0001
0000
1000
0000
0001
0100
0001
0000
0100
0000
1000
0100
0000
0100
0001
0000
,
0010
0000
0100
0000
1000
0000
0001
1000
0001
0000
0100
0000
0010
0000
1000
0010
,
0100
0000
0001
0000
1000
0001
1000
0000
0010
0000
0001
0010
0000
0010
1000
0000
,
1010
0000
0010
0000
0100
0000
0001
1000
0001
0000
0001
0000
1000
0000
0001
0010
,
0100
0010
0000
0010
0001
0100
0000
1000
0100
0001
0000
0001
0010
0100
1000
0001
,
1000
0000
0001
1000
0000
0010
0100
0000
0100
0000
0001
0010
0000
0100
0010
0001
,
1000
0000
0001
0100
0000
0010
1000
0000
1000
0000
0100
0010
0000
0001
1000
0001
,
0100
0000
0010
1000
0000
0100
0010
0001
0010
0000
0100
1000
0000
0010
1000
0100
,
1000
0000
0001
1000
0000
0010
1000
0100
1000
0000
0001
1000
0000
0001
1000
0001
,
0010
0000
0100
0010
0000
0001
1000
0000
1000
0000
0010
0100
0000
0001
1000
0100
,
0010
0000
0001
0100
0000
1000
0100
0000
0100
0000
0010
1000
0000
0100
0010
0001
,
1000
0000
0001
0100
0000
0010
0100
0000
1000
0000
0100
0010
0000
0100
0001
0010
,
0001
0000
1000
0001
0000
1000
0001
0010
0100
0000
0010
0000
0001
1000
0001
1000
,
0200
0000
0000
0320
0000
0000
0031
0000
2000
0000
0000
3001
0000
0000
0200
0000
,
0300
0000
0000
0000
,
1001
0000
1000
0000
0001
1000
0001
1000
0001
0000
0100
0000
0010
0100
0010
0100
,
0010
0000
1000
0000
0001
1000
0010
1000
0001
0000
1000
0000
0001
0100
0010
0100
,
0001
0000
0000
0000
1001
0000
1000
0000
0100
0000
0010
0100
1000
0000
0001
1000
,
0001
0000
0100
0010
1000
0000
0010
0000
1000
0000
0001
1000
0010
1000
0100
0010
,
0001
0000
1000
0000
0001
0100
0010
0000
1000
0000
0001
0000
0010
0100
1000
0100
,
0010
0000
0001
0000
0100
0010
0100
0000
0001
0000
0010
0100
1000
0000
0001
1000
,
0001
0000
0010
0000
0100
1000
0001
0000
1000
0000
0010
0000
0100
0001
0010
0100
,
1000
0000
0001
0000
1000
0001
1000
0000
0010
0000
0100
0001
0010
0001
0100
0010
,
1000
0000
0010
0000
1000
0100
0010
0001
0100
0000
0000
0000
1001
0000
0001
0000
,
0100
0000
0010
1000
0100
0010
0001
0000
1000
0000
0000
0000
1001
0000
0001
0000
,
0101
0000
0100
0000
0010
1000
0001
0000
1001
0000
1000
0000
0001
1000
0001
1000
,
0100
0020
0230
2300
,
3001
0010
0001
0100
0000
0001
0010
0100
1000
0001
1000
0010
0000
0100
0010
1000
,
0001
1000
0100
0010
0000
0001
1000
0100
0020
0000
1030
0002
0000
0103
2000
0000
,
3010
0100
0001
1000
0000
0100
0010
0001
0100
0001
0010
0100
0000
0001
0100
1000
,
0010
0100
0001
1000
0000
0010
1000
0100
0010
0001
1000
0002
0000
0103
0010
0000
,
1000
0010
0000
1001
0000
1000
0010
1000
0001
0000
1000
0000
0001
0010
0100
1000
,
0001
0100
0000
0010
2000
0000
0001
0000
3001
0000
1000
0000
0001
0010
0100
1000
,
0001
0010
0000
0001
0100
0000
1000
0100
0000
0001
0100
0000
0010
0000
1000
0010
,
0100
0001
0000
0010
0100
0000
0001
0100
0000
1000
0010
0000
0100
0001
0010
0100
,
1000
0010
1000
0100
0000
0010
0100
1000
0001
1000
0010
0100
0000
0001
1000
0001
,
0010
0100
1000
0001
0000
0010
0001
0100
0002
0000
0103
2000
0000
3100
0002
0000
,
0013
0100
1000
0001
0000
1000
0001
1000
0100
0010
0001
1000
0000
0010
0100
0001
,
1000
0001
0010
0100
0000
0010
0001
1000
0001
0100
0000
1001
0000
1000
0100
0000
,
0010
0001
0000
2000
0000
0000
3001
0000
1000
0000
0100
0000
1000
0100
0010
0001
,
1000
0010
0000
0200
0000
0000
0301
0000
1000
0000
0001
0000
0010
0100
1000
0001
,
1000
0010
0000
0001
0010
0000
1000
0001
0000
0100
1000
0000
0200
0000
0010
0000
,
0310
1000
0000
0100
0001
0000
0100
1000
0000
0010
1000
0000
0001
0010
0100
1000
;
