#TITLE:Sephirot;
#SUBTITLE:;
#ARTIST:SHIKI;
#TITLETRANSLIT:;
#SUBTITLETRANSLIT:;
#ARTISTTRANSLIT:;
#GENRE:;
#CREDIT:Prism;
#MUSIC:Sephirot.ogg;
#BANNER:Sephirot.png;
#BACKGROUND:Sephirot-bg.png;
#CDTITLE:./CDTitles/DDR A.png;
#SAMPLESTART:51.444;
#SAMPLELENGTH:15.000;
#SELECTABLE:YES;
#OFFSET:0.000;
#BPMS:0.000=154.000;
#STOPS:;
#BGCHANGES:;
#FGCHANGES:;

//--------------- dance-single - Prism ----------------
#NOTES:
     dance-single:
     Prism:
     Challenge:
     17:
     0,0,0,0,0:
0000
0000
0000
0000
,
0000
0000
0000
0000
,
0000
0000
0000
0000
,
0000
0000
0000
0000
,
0000
0000
0000
0000
,
0001
0000
1000
0000
0010
0100
0001
0000
0100
0000
0001
0100
0010
0000
1000
0000
,
0100
0000
0010
0000
0100
1000
0001
0000
1000
0000
0010
1000
0001
0000
0100
0000
,
0010
1000
0010
1000
0001
0100
0001
0100
0010
1000
0100
1000
0010
0100
0001
0010
,
0001
0000
1000
0100
0001
0000
0100
0000
0010
0000
0001
0100
1000
0000
0100
0000
,
1001
0000
0001
0000
0100
0010
1000
0000
0100
0000
0010
0000
0001
0000
0000
0000
,
1001
0000
0001
1000
0001
0000
0010
0000
0100
0010
0000
0010
0001
0000
1000
0000
,
0010
0000
0100
0000
0010
1000
0000
1000
0001
0000
1000
0010
0100
0000
0001
0000
,
0010
0100
1000
0001
0000
0000
0100
0000
0001
0010
0000
0100
1000
0000
0001
0000
,
1001
0000
0000
0000
1000
0010
0200
0000
0000
0000
0301
0000
1000
0000
0001
0000
,
0011
0000
0000
0000
0110
0000
0000
0000
0100
0000
1000
0100
0010
0000
0100
0000
,
1000
0010
0100
0001
0010
0100
1000
0001
1000
0000
0000
0000
1001
0000
0000
0000
,
0011
0000
0000
0000
0000
0000
0000
0000
0000
0000
0000
0000
0001
0000
0000
0000
0000
0000
0010
0000
0100
0000
1000
0000
0001
0000
0000
0000
0000
0000
0000
0000
0000
1000
0000
0000
0001
0000
0000
0000
0000
0000
1000
0000
0000
0000
0000
0000
,
1001
0000
1000
0000
0010
0100
0001
0000
0010
0000
0100
0000
1000
0000
0001
0100
,
0001
1000
0000
0001
1000
0000
0100
0000
0010
0100
0000
0100
1000
0000
0001
0000
,
0100
0010
1000
0000
0100
0010
0000
0001
1000
0000
0001
0010
0000
0100
0010
0000
,
0001
0000
0010
0100
1000
0000
0100
0010
0001
1000
0000
0001
1000
0000
0001
0000
,
1001
0000
0000
0000
0001
0100
0020
0000
0000
0000
1030
0000
0001
0000
1000
0000
,
0100
0000
0010
0100
1000
0000
0100
0010
0001
0000
0010
0100
1000
0000
0100
0010
,
0001
0010
0100
1000
0010
0100
0001
1000
0010
1000
0100
0010
0001
1000
0001
0100
,
0010
1000
0010
0100
0001
0010
0100
1000
0001
0000
0000
0001
1000
0000
0001
0000
,
0010
0000
0000
0000
0000
0000
0100
0000
0000
0000
0000
0000
0010
0000
0000
0001
0000
0000
0000
0000
0100
0000
0010
0000
0000
0000
0000
1000
0000
0000
0000
0000
0000
1000
0000
0000
0010
0000
0000
0000
0000
0000
0100
0000
0000
0001
0000
0000
,
1000
0000
0000
0001
0000
0000
0010
0000
0000
0000
0000
0000
0100
0000
0000
1000
0000
0000
0000
0000
0000
0001
0000
0000
0000
0000
0000
1000
0000
0000
0000
0000
0010
0000
0100
0000
0001
0000
0000
0000
0000
0000
1000
0000
0000
0000
0000
0000
,
0001
0000
0000
0000
0000
0000
0010
0000
0000
0010
0000
0000
0100
0000
0000
1000
0000
0000
0000
0000
0010
0000
0100
0000
0000
0000
0000
0001
0000
0000
0000
0000
0000
0001
0000
0000
1000
0000
0000
0000
0000
0000
0010
0000
0000
0000
0000
0000
,
1010
0000
0000
0000
0000
0000
1000
0000
0100
0000
0010
0000
0001
0000
0000
0000
0000
0000
0001
0000
0010
0000
0100
0000
1000
0000
0000
0001
0000
0000
0000
0000
0000
0001
0000
0000
1000
0000
0000
0000
0000
0000
1001
0000
0000
0000
0000
0000
,
0001
0000
0000
0000
0000
0000
0010
0000
0000
0000
0000
0000
0100
0000
0000
1000
0000
0000
0000
0000
0010
0000
0100
0000
0000
0000
0000
0001
0000
0000
0000
0000
0000
0001
0000
0000
0100
0000
0000
0000
0000
0000
0010
0000
0000
1000
0000
0000
,
0001
0000
0000
1000
0000
0000
0100
0000
0000
0000
0000
0000
0010
0000
0000
0001
0000
0000
0000
0000
0000
1000
0000
0000
0000
0000
0000
0001
0000
0000
0000
0000
0100
0000
0010
0000
1000
0000
0000
0000
0000
0000
0001
0000
0000
0000
0000
0000
,
1000
0000
0000
0000
0000
0000
0100
0000
0000
0100
0000
0000
0010
0000
0000
0001
0000
0000
0000
0000
0100
0000
0010
0000
0000
0000
0000
1000
0000
0000
0000
0000
0000
1000
0000
0000
0001
0000
0000
0000
0000
0000
0100
0000
0000
0000
0000
0000
,
2002
0000
0000
0000
0000
0000
0000
0000
3003
0000
0000
0001
1000
0000
0001
0000
,
1000
0010
0100
0001
0010
0100
1000
0001
1000
0100
0010
0001
0100
0001
0010
0100
,
2000
0000
0000
0000
3010
0000
0100
0001
0010
0100
1000
0010
0100
0001
0010
0100
,
2000
0000
0000
0000
3100
0000
0010
0100
1000
0000
0001
1000
0001
0100
0000
0010
,
0000
1000
0002
0000
0010
0000
0000
0000
0100
0000
0000
0000
1003
0010
0100
0001
,
0010
0100
0010
0001
1000
0010
0100
0010
1000
0100
0010
0001
1000
0001
0010
0100
,
1000
0010
1000
0001
0100
0001
0010
0100
1000
0001
1000
0010
1000
0100
0010
0001
,
2000
0000
0000
0000
3010
0000
0100
0001
1000
0000
0100
0010
0001
1000
0000
0001
,
0000
1000
0010
0100
0010
0100
0001
1000
0001
1000
0000
1000
0010
0100
0001
0000
,
1000
0010
0100
0001
0010
0100
0010
0001
1000
0001
0100
0010
0100
0001
0010
0100
,
1000
0001
1000
0010
1000
0100
0010
0001
0100
0001
0010
0100
1000
0001
1000
0010
,
0200
0000
0000
0000
0301
0000
1000
0100
0010
0000
0001
0010
0100
0010
0000
0001
,
0000
1000
0002
0000
0010
0000
0000
0000
1003
0010
0000
0010
0100
0001
0100
0000
,
0010
1000
0100
1000
0010
0100
0010
1000
0100
0010
0001
0100
0010
1000
0001
1000
,
0100
0010
0001
0100
0010
1000
0001
0010
0100
0010
0001
1000
0001
0100
0010
1000
,
0001
0010
0100
0010
0001
0100
0010
1000
0001
1000
0100
0010
0100
1000
0001
0010
,
0100
0010
0001
0100
0001
0010
0100
1000
0001
1000
0010
0100
0010
1000
0100
0010
,
0002
0000
0000
0000
0000
0000
0000
0000
0000
0000
0000
0000
0000
0010
0000
0000
,
0000
0100
0000
0000
0000
1000
0000
0000
1003
0000
0000
0010
0000
0000
0000
0100
,
0000
0001
0000
0010
0000
0001
0000
0010
0000
0100
0000
1000
0000
0001
0010
0100
,
1000
0001
0010
0100
2000
0000
0000
0000
0000
0000
0000
0000
0000
0000
0000
0000
,
3001
0010
0100
1000
0000
0000
1001
0000
,
1000
0100
0010
0001
0000
0000
1000
0001
,
1000
0010
0100
0001
0000
1001
0000
0001
,
1000
0000
0100
0000
0010
0000
0001
0000
0000
0000
1001
0000
0000
0000
0001
1000
,
0001
0000
0010
0100
1000
0000
0001
1000
0001
0000
1000
0100
0010
0000
0100
0010
,
0100
1000
0001
1000
0001
0000
0010
0100
1000
0001
1000
0010
0100
0010
1000
0100
,
0010
0100
1000
0001
0010
0100
1000
0001
0010
0100
1000
0100
0010
0001
1000
0100
,
0010
0001
0010
0001
0010
0001
0010
0001
1000
0100
1000
0100
1000
0100
1000
0100
,
0010
0100
1000
0100
0010
0001
1000
0001
0010
0100
1000
0100
0010
0001
0100
0001
,
0010
0000
0001
0010
0001
0010
0100
1000
0001
0000
0010
0000
0100
0000
1000
0000
,
1001
0000
0000
0001
0010
0001
0010
0100
1000
0001
1000
0010
0100
0001
1000
0100
,
1000
0100
0001
0100
1000
0100
0001
0100
1000
0010
0100
0001
0010
1000
0010
0001
,
0100
0000
0000
0010
1000
0010
0100
0010
1000
0100
0010
0100
1000
0100
0010
0001
,
1000
0000
0000
0001
1000
0000
0000
1000
0010
0100
0001
0010
0001
0010
0100
1000
,
0001
0100
0001
0010
0100
0010
0001
1000
0001
0100
0010
0000
1000
0000
0001
0000
,
1001
0000
0000
0000
0000
0000
0000
0000
0000
0000
0000
0000
1000
0000
0000
0000
0000
0000
0001
0000
0010
0000
0100
0000
1000
0000
0000
0010
0000
0000
0001
0000
0000
0010
0000
0000
1000
0000
0000
0100
0000
0000
0010
0000
0100
0000
1000
0000
,
0001
0000
0000
0000
0000
0000
1000
0000
0000
0001
1000
0001
1000
0000
0000
0000
0000
0000
0001
0000
0000
1000
0000
0000
,
0001
0010
0100
1000
0001
1000
0010
0100
0001
1000
0001
0010
0100
0010
0001
1000
,
0001
0010
0100
1000
0100
0010
0001
0100
0010
1000
0010
0100
0001
0010
0001
1000
,
0100
0001
0100
1000
0100
0010
0001
0100
0010
1000
0010
0100
0001
0010
0100
0010
,
0001
0010
0100
1000
0010
0100
0001
0100
0010
1000
0100
0010
0001
0100
0001
0010
,
0100
1000
0010
0100
0001
1000
0001
0010
0100
0010
0001
1000
0100
0010
0100
0001
,
1000
0100
0010
0001
0010
0100
1000
0100
0010
0001
0010
0100
1000
0010
0100
0001
,
1000
0100
0010
0100
1000
0001
0010
0100
0010
0001
1000
0001
0100
0010
1000
0100
,
0010
0001
0010
0100
1000
0100
0010
0001
0010
0100
1000
0001
1000
0010
0100
0001
,
1000
0000
0000
0000
;
