#VERSION:0.83;
#TITLE:STEP MACHINE;
#SUBTITLE:;
#ARTIST:Paisley Parks;
#TITLETRANSLIT:;
#SUBTITLETRANSLIT:;
#ARTISTTRANSLIT:;
#GENRE:;
#CREDIT:Prism;
#MUSIC:STEP MACHINE.ogg;
#BANNER:step machine.png;
#BACKGROUND:STEP MACHINE-jacket.png;
#CDTITLE:;
#SAMPLESTART:78.716;
#SAMPLELENGTH:15.000;
#SELECTABLE:YES;
#OFFSET:0.784;
#BPMS:0.000=160.000;
#STOPS:;
#SPEEDS:0.000=1.000=0.000=0,
32.000=0.500=2.000=0,
34.000=1.000=2.000=0,
64.000=0.500=2.000=0,
66.000=1.000=2.000=0,
96.000=1.750=2.000=0,
98.000=1.000=1.250=0,
128.000=0.750=2.000=0,
130.000=1.000=2.000=0,
132.000=0.500=12.000=0,
144.000=1.000=4.000=0,
176.000=0.750=1.500=0,
178.000=1.000=2.000=0,
240.000=0.750=2.000=0,
242.000=1.000=0.500=0,
244.000=1.150=2.000=0,
246.000=0.850=2.000=0,
248.000=1.150=2.000=0,
250.000=0.850=2.000=0,
252.000=1.150=2.000=0,
254.000=0.850=2.000=0,
256.000=1.150=2.000=0,
258.000=0.850=2.000=0,
260.000=1.150=2.000=0,
262.000=0.850=2.000=0,
264.000=1.150=2.000=0,
266.000=0.850=2.000=0,
268.000=1.150=2.000=0,
270.000=0.850=2.000=0,
272.000=1.150=2.000=0,
274.000=0.850=2.000=0,
304.000=1.750=2.000=0,
306.000=1.000=1.250=0
;
#SCROLLS:0.000=1.000,
22.000=0.500,
24.000=1.000,
48.000=0.500,
50.000=1.000,
56.750=0.500,
58.000=1.000,
58.750=0.500,
60.000=1.000,
69.250=0.000,
69.750=1.000,
71.250=0.000,
71.750=1.000,
73.250=0.000,
73.750=1.000,
77.250=0.000,
77.750=1.000,
85.250=0.000,
85.750=1.000,
89.250=0.000,
89.750=1.000,
93.250=0.000,
93.750=1.000,
98.000=0.000,
98.333=1.000,
98.667=0.000,
99.000=1.000,
99.250=0.000,
99.583=1.000,
101.000=0.000,
101.500=1.000,
103.000=0.000,
103.500=1.000,
109.000=0.000,
109.500=1.000,
111.000=0.000,
111.500=1.000,
117.000=0.000,
117.500=1.000,
119.000=0.000,
119.500=1.000,
121.000=0.000,
121.500=1.000,
123.000=0.000,
123.250=1.000,
149.000=0.000,
149.500=1.000,
150.500=0.000,
151.000=1.000,
153.333=0.000,
153.667=1.000,
154.500=0.000,
155.000=1.000,
157.250=0.000,
157.750=1.000,
159.250=0.000,
159.750=1.000,
161.250=0.000,
161.750=1.000,
165.000=0.000,
165.500=1.000,
166.500=0.000,
167.000=1.000,
169.333=0.000,
169.667=1.000,
170.500=0.000,
171.000=1.000,
173.250=0.000,
173.750=1.000,
175.250=0.000,
175.750=1.000,
261.333=0.000,
261.667=1.000,
265.333=0.000,
265.667=1.000,
269.333=0.000,
269.667=1.000,
277.250=0.000,
277.750=1.000,
279.250=0.000,
279.750=1.000,
281.250=0.000,
281.750=1.000,
285.250=0.000,
285.750=1.000,
293.250=0.000,
293.750=1.000,
297.250=0.000,
297.750=1.000,
301.250=0.000,
301.750=1.000,
306.000=0.000,
306.333=1.000,
306.667=0.000,
307.000=1.000
;
#DISPLAYBPM:80.000:160.000;
#BGCHANGES:;
#FGCHANGES:;

//--------------- dance-single - Prism ----------------
#NOTEDATA:;
#STEPSTYPE:dance-single;
#DESCRIPTION:Prism;
#DIFFICULTY:Challenge;
#METER:17;
#RADARVALUES:0,0,0,0,0;
#NOTES:
0000
0000
0000
0000
,
0000
0000
0000
0000
,
0000
0000
0000
0000
,
0000
0000
0000
0000
,
0000
0000
0000
0000
,
1000
0010
0100
0010
0000
1000
0001
0000
1001
0000
0000
0000
1010
0000
0000
0000
,
0010
0000
0000
0000
0100
0000
0000
0000
0001
0000
0000
0000
0010
0000
0000
0000
0100
0000
0000
0000
0010
0000
0001
0000
1000
0000
0000
0010
0000
0000
0000
0000
0000
0010
0000
0000
0000
0000
0000
0100
0000
0000
0001
0000
0000
1000
0000
0000
,
0001
0000
0010
0100
0010
0001
1000
0000
0010
0000
0100
0001
1000
0000
0100
0000
,
2002
3000
0200
0003
,
0310
0000
1000
0000
0001
0000
0100
0000
0010
1000
0001
0000
0100
0000
0010
0000
1000
0001
0100
0000
0010
1000
0001
0100
,
0010
0000
0010
0000
0100
0000
0001
0100
0010
0000
1000
0000
1001
0000
1000
0000
,
0010
0100
0000
0010
0100
0001
0010
0001
0100
0000
0010
1000
0001
0000
1000
0000
,
1010
0000
0000
0000
0110
0000
0000
0000
0102
0000
0000
0010
0000
0013
0100
0000
,
1000
0000
0000
0000
0000
0000
0001
0000
0100
0000
0000
0000
0001
0000
0000
0000
1000
0000
0000
0000
0010
0000
0000
0000
1002
0000
0000
0000
0000
0000
0000
0000
0000
0010
0000
0000
0000
0000
0000
0013
0000
0000
0100
0000
0000
1000
0000
0000
,
0001
1000
0000
1002
0000
0000
0003
0000
1000
0001
0000
2001
0000
0000
0000
0000
,
3010
0100
0001
0010
0100
1000
0010
0100
0001
0010
0100
1000
0001
1000
0010
0100
,
0002
0000
0000
0000
0000
0000
1003
0010
0100
1000
0100
0001
,
1000
0000
0010
0100
0000
0110
0000
0000
0100
0000
0001
1000
0000
1010
0000
0000
,
0010
0000
0100
0001
0000
0011
0000
0000
1001
0000
1010
0000
0010
0100
0001
0000
,
1000
0000
0100
0001
0000
0110
0000
0000
0010
0000
0100
1000
0000
1000
0100
0000
,
0010
0000
0001
1000
0000
1000
0010
0100
0001
0010
0001
0000
0000
0100
0010
0000
,
1000
0000
0001
0010
0000
0011
0000
0000
0010
0000
0100
1000
0000
0100
0001
0000
,
0100
0000
0010
0001
0000
0011
0000
0000
0001
0000
1001
0000
1000
0010
0100
0000
,
0001
0000
0010
1000
0000
0110
0000
0000
0100
0000
0010
0001
0000
0100
0010
0000
,
2002
0000
0000
0000
0000
0000
0000
0000
0000
0000
0000
0000
0000
0000
0000
0000
0000
0000
3003
0000
0000
0000
0000
0000
1010
0000
0000
0000
0000
0000
0000
0000
0110
0000
0000
0000
0000
0000
0000
0101
0000
0000
0000
0000
0000
0000
0000
0000
,
0001
0010
0100
1000
0001
0000
0000
1000
0100
0010
0001
1000
0001
0000
0000
0010
,
0100
1000
0010
0100
0010
1000
0100
0010
0001
0000
1001
0000
1000
0001
0100
0001
,
1000
0001
0010
0100
1000
0000
0000
0100
1000
0100
0010
0001
1000
0000
0000
0000
,
1000
0010
0100
0010
1000
0100
0010
0001
1000
0000
0001
1000
0001
0010
0100
0010
,
0100
1000
0001
1000
0010
0000
0000
0100
0010
1000
0001
1000
0001
0000
0000
0000
,
1000
0100
0010
0001
0010
0000
0000
0100
1000
0001
0010
0100
1000
0000
0010
1000
,
0010
1000
0001
0100
0010
0000
1000
0000
1010
0000
1000
0000
0010
0000
0101
0000
,
0001
0000
0000
0000
0010
0000
0000
0000
0100
0000
0000
0000
0001
0000
0000
0000
0100
0000
0000
0000
1000
0000
0000
0000
0001
0000
0000
1000
0000
0000
0001
0000
0000
1000
0000
0000
0010
0000
0000
0100
0000
0000
0010
0000
0000
0100
0000
0000
,
0020
0001
0000
1000
,
0000
0001
0000
0100
,
0230
0010
0000
1000
,
0301
1000
0000
1000
0001
0000
0010
0100
0000
0100
1000
0000
1010
0000
1010
0000
,
1000
0010
0100
0010
1000
0000
0000
1000
0010
0100
0001
0000
0000
0000
0001
0000
,
1000
0000
0000
0000
0100
0000
0000
0000
0001
0000
0000
0000
0100
0000
0000
0000
1000
0000
0000
0000
0000
0000
0000
0000
0001
0000
0000
1000
0000
0000
0010
0000
0000
0000
0000
0000
0000
0000
0000
0000
0000
0000
0001
0000
0000
0010
0000
0000
,
1000
0000
1000
0010
0000
1010
0000
0000
1000
0000
0100
0001
0000
0101
0000
0000
,
0100
0010
0001
0100
0000
0110
0000
0000
1001
0000
1000
0000
0010
0100
0001
1000
,
0010
0000
1000
0100
0010
0000
0000
0001
0100
0010
1000
0000
0000
0000
1000
0000
,
0001
0000
0000
0000
0100
0000
0000
0000
1000
0000
0000
0000
0100
0000
0000
0000
0001
0000
0000
0000
0000
0000
0000
0000
1000
0000
0000
0001
0000
0000
0100
0000
0000
0000
0000
0000
0000
0000
0000
0000
0000
0000
1000
0000
0000
0100
0000
0000
,
0001
0000
0010
0001
0000
0101
0000
0000
0001
0000
1000
0010
0000
1010
0000
0000
,
2002
0000
0000
0000
0000
0000
3003
0000
0001
0010
0100
1000
0100
0001
0100
1000
,
0020
0000
0000
0000
,
0000
0000
0000
0000
,
2030
0000
0000
0100
0100
0000
0100
3200
,
0000
0000
1000
0000
1000
0000
2300
0010
,
3020
0000
0000
0230
0000
0000
0302
0000
2003
0000
0000
3200
0000
0000
0302
0000
,
0203
0000
0000
2300
0000
0000
3020
0000
0230
0000
0000
0302
0000
0000
0023
0000
,
2030
0000
0000
3020
0000
0000
0032
0000
0203
0000
0000
0320
0000
0000
0032
0000
,
2003
0000
0000
0000
0000
0000
0000
0000
0000
3200
0000
0000
0000
0000
0000
0000
0000
0000
0302
0000
0000
0000
0000
0000
0023
0000
0000
0000
0000
0000
0000
0000
0000
0130
0000
0000
1000
0000
0000
0000
0000
0000
1000
0000
0001
0000
0010
0000
,
0100
0000
1000
0010
0100
0000
0001
0010
0100
0000
1000
0001
1000
0000
0010
0100
,
0001
0010
0100
0010
0001
0000
1000
0010
0100
0001
1000
0000
1001
0000
1001
0000
,
0001
0000
1000
0100
0010
0000
0100
1000
0010
0000
0100
0001
1000
0001
0010
0100
,
1000
0000
0000
0000
0000
0000
0001
0000
0000
0100
0000
0000
1000
0000
0000
0000
0000
0000
1000
0000
0000
0100
0000
0000
0002
0000
0000
0000
0000
0000
0100
0000
0000
0000
0000
0000
0103
0000
0000
0000
0000
0000
0010
0000
0100
0000
0001
0000
,
1000
0000
0001
0100
0010
0100
0001
0000
0101
0000
0100
0001
0000
0000
0100
0010
,
1000
0010
1000
0010
0100
0001
0100
0001
0010
0000
0200
0000
1000
0000
1300
0000
,
0001
0010
0100
1000
0001
0000
1000
0000
1001
0000
0001
0000
1000
0000
0010
0000
,
1020
0000
0000
0000
0000
0000
0230
0000
0000
0000
0000
0000
0301
0000
0000
0000
0000
0000
1000
0000
0000
0001
0010
0100
,
1000
0010
0100
0001
0010
0001
1000
0010
0001
0010
1000
0100
,
0010
0001
1000
0001
0100
0010
1000
0100
0001
0100
1000
0010
,
0100
0001
0010
0100
1000
0001
1000
0100
0001
0100
1000
0001
,
1000
0010
0001
0010
1000
0001
1000
0100
0001
0100
1000
0010
,
0100
0001
1000
0001
1001
0000
1000
0010
0001
0010
1000
0010
,
0100
0001
1000
0001
1001
0000
0001
0100
1000
0100
0001
1000
,
0001
0010
0100
1000
1001
0000
0001
0100
1000
0100
0001
1000
,
0001
0010
1000
0010
0001
1000
0001
0100
1000
0100
0001
1000
,
0001
0000
0100
0010
0000
0110
0000
0000
0010
0000
1000
0001
0000
0101
0000
0000
,
0100
0000
0010
1000
0000
1100
0000
0000
1001
0000
0101
0000
0100
0010
1000
0000
,
0001
0000
0010
1000
0000
0110
0000
0000
0100
0000
0010
0001
0000
0001
0010
0000
,
0100
0000
1000
0001
0000
0001
0100
0010
1000
0100
1000
0000
0000
0010
0100
0000
,
0001
0000
1000
0100
0000
1100
0000
0000
0100
0000
0010
0001
0000
0010
1000
0000
,
0010
0000
0100
1000
0000
1100
0000
0000
1000
0000
1001
0000
0001
0100
0010
0000
,
1000
0000
0100
0001
0000
0110
0000
0000
0010
0000
0100
1000
0000
0010
0100
0000
,
2002
0000
0000
0000
0000
0000
0000
0000
0000
0000
0000
0000
0000
0000
0000
0000
0000
0000
3003
0000
0000
0000
0000
0000
0101
0000
0000
0000
0000
0000
0000
0000
0110
0000
0000
0000
0000
0000
0000
1010
0000
0000
0000
0000
0000
0000
0000
0000
;
