#VERSION:0.83;
#TITLE:Mythomane;
#SUBTITLE:;
#ARTIST:Hylen;
#TITLETRANSLIT:;
#SUBTITLETRANSLIT:;
#ARTISTTRANSLIT:;
#GENRE:;
#CREDIT:;
#MUSIC:Mythomane.ogg;
#BANNER:Mythomane.png;
#BACKGROUND:Mythomane-jacket.png;
#CDTITLE:./CDTitles/DDR A20.png;
#SAMPLESTART:76.191;
#SAMPLELENGTH:15.000;
#SELECTABLE:YES;
#OFFSET:0.000;
#BPMS:0.000=180.000
,96.000=360.000
,98.000=90.000
,98.500=180.000
,105.500=90.000
,106.000=180.000
,113.000=90.000
,113.500=180.000
,120.500=90.000
,121.000=180.000
,128.000=90.000
,128.500=180.000
,135.500=90.000
,136.000=180.000
,143.000=90.000
,143.500=180.000
,150.500=90.000
,151.000=180.000
,195.000=177.000
,196.000=176.000
,197.000=174.000
,198.000=173.000
,199.000=171.000
,200.000=170.000
,201.000=167.000
,202.000=166.000
,203.000=165.000
,204.000=163.000
,205.000=161.000
,206.000=158.000
,208.000=156.000
,209.000=154.000
,210.000=153.000
,211.000=151.000
,212.000=149.000
,213.000=147.000
,214.000=145.000
,215.000=144.000
,216.000=143.000
,216.500=142.000
,217.000=140.000
,218.000=280.000
,220.000=70.000
,220.500=140.000
,226.500=70.000
,227.000=140.000
,234.000=70.000
,234.500=140.000
,240.500=70.000
,241.000=140.000
,243.000=70.000
,244.500=140.000
,247.500=70.000
,248.000=140.000
,255.000=70.000
,255.500=140.000
,261.500=70.000
,262.000=140.000
,268.000=70.000
,268.500=140.000
,276.500=35.000
;
#STOPS:96.000=1.000
,218.000=1.286
,233.000=0.214
,233.500=0.214
,260.500=0.214
,261.000=0.214
;
#SPEEDS:221.000=0.750=4.000=0,
226.500=1.250=0.500=0,
227.000=1.000=1.000=0,
228.000=0.750=4.000=0,
232.000=1.000=1.000=0,
233.500=0.750=0.500=0,
234.000=1.000=1.000=0,
235.000=1.250=4.000=0,
240.500=0.750=0.500=0,
241.000=1.000=1.000=0,
242.000=0.900=1.000=0,
243.000=0.750=1.500=0,
244.500=0.500=1.500=0,
246.000=1.000=1.500=0,
247.500=1.250=0.500=0,
248.000=1.000=1.000=0,
249.000=0.600=5.000=0,
254.000=1.000=1.000=0,
255.000=1.250=0.500=0,
255.500=0.750=4.000=0,
261.000=0.750=0.500=0,
261.500=1.000=1.000=0,
262.000=0.750=6.000=0,
268.000=1.000=0.500=0,
276.500=0.250=0.500=0
;
#DISPLAYBPM:70.000:180.000;
#BGCHANGES:;
#FGCHANGES:;

//--------------- dance-single - ----------------
#NOTEDATA:;
#STEPSTYPE:dance-single;
#DESCRIPTION:;
#DIFFICULTY:Beginner;
#METER:3;
#RADARVALUES:0,0,0,0,0;
#NOTES:
0000
0000
0000
0000
,
0000
0000
0000
0000
,
0000
0000
0000
0000
,
0000
0000
0000
0000
,
0000
0000
0000
0000
,
0000
0000
0000
0000
,
0000
0000
0000
0000
,
0000
0000
0000
0000
,
0000
0000
0000
0000
,
0001
0000
0000
0000
,
0001
0000
0000
0000
,
1000
0000
0000
0000
,
1000
0000
0000
0000
,
0001
0000
0000
0000
,
0001
0000
0000
0000
,
1000
0000
0000
0000
,
1000
0000
0000
0000
,
0001
0000
0010
0000
,
0100
0000
0000
0000
,
0001
0000
0100
0000
,
0010
0000
0000
0000
,
1000
0000
0010
0000
,
0100
0000
0000
0000
,
1000
0000
0100
0000
,
0010
0000
1001
0000
,
0000
0000
0000
0001
0000
0000
0000
0001
,
0000
0000
0000
0001
0000
0000
0000
0000
,
0000
0010
0000
0010
,
0000
0010
0000
0000
,
0000
0100
0000
0000
0000
0100
0000
0000
,
0100
0000
0000
0000
,
1000
0000
1000
0000
,
1000
0000
0000
0000
0000
0000
0000
0100
,
0000
0000
0000
0100
0000
0000
0100
0000
,
0000
0000
0000
0010
,
0000
0010
0000
0010
,
0000
0000
0000
0000
0000
0001
0000
0000
,
0000
0001
0000
0000
0001
0000
0000
0000
,
0000
0000
0010
0000
,
0000
0000
1001
0000
,
0000
0000
0001
0000
,
0000
0000
1001
0000
,
0000
0000
1000
0000
,
0000
0000
1001
0000
,
0000
0000
0001
0000
,
0000
0000
1001
0000
,
0000
0000
1000
0000
,
0000
0000
1001
0000
,
0000
0000
0000
0000
,
0000
0000
1001
0000
,
0000
0000
0000
0000
,
0000
0000
1001
0000
,
0000
0000
0000
0000
,
0000
0000
1001
0000
,
0000
0000
0000
0000
,
0001
0000
0000
0010
0000
0000
0000
1000
,
0000
1000
0000
1000
0000
0000
0001
0000
,
0000
0100
0000
1000
,
1000
0000
1000
0000
1000
0000
0000
0010
,
0000
0000
0000
0001
0000
0001
0000
0001
,
0000
1000
0000
0100
,
0000
0000
0000
0001
0000
0000
0000
0001
,
0000
0100
0000
0010
,
0000
1000
0000
1000
,
0000
0100
0000
0000
0000
0010
0000
0000
,
0000
0001
0000
0001
0000
0000
0100
0000
,
0000
0001
0000
0100
,
0000
1000
0000
0000
0000
0010
0000
0000
,
0000
1000
0000
0000
0000
0000
0000
0000
,
0000
2002
3003
0000
0000
0000
0000
0000
;

//--------------- dance-single - ----------------
#NOTEDATA:;
#STEPSTYPE:dance-single;
#DESCRIPTION:;
#DIFFICULTY:Easy;
#METER:6;
#RADARVALUES:0,0,0,0,0;
#NOTES:
0000
0000
0000
0000
,
0000
0000
0000
0000
,
0000
0000
0000
0000
,
0000
0000
0000
0000
,
0000
0000
0000
0000
,
0000
0000
0000
0000
,
0000
0000
0000
0000
,
0000
0000
0000
0000
,
0000
0000
0000
0000
,
1000
0100
0100
0000
,
0001
0100
0100
0000
,
1000
0010
0010
0000
,
0001
0010
0010
0000
,
1000
0100
0100
0000
,
0001
0100
0100
0000
,
1000
0010
0010
0000
,
0001
0010
0010
0000
,
1000
0100
0010
0000
,
0001
0100
0010
0000
,
1000
0010
0100
0000
,
0001
0010
0100
0000
,
1000
0100
0010
0000
,
0001
0100
0010
0000
,
1000
0010
0100
0010
,
0000
0000
0000
0000
1001
0000
0000
0001
,
0000
0001
0000
1000
0000
1000
0000
0001
,
0000
0000
0000
1001
0000
0000
2000
0000
,
0000
3000
0001
1000
,
0000
0000
0110
0000
0000
0010
0000
0010
,
0000
0100
0000
0100
0000
0010
0000
0000
,
0110
0000
0200
0000
,
0000
0000
0300
0000
,
1001
0000
0000
0001
0000
0001
0000
0100
,
0000
0100
0000
0100
0000
0000
1001
0000
,
0000
1000
1000
0100
,
0100
0100
0000
1001
,
0000
0001
0000
0001
0000
0010
0000
0010
,
0000
0010
0000
0000
1001
0000
0000
0000
,
0020
0000
0000
0000
,
0130
0000
0001
0001
,
0100
0000
1000
1000
,
0100
0000
0001
0001
,
0010
0000
1000
1000
,
0010
0000
0001
0001
,
0100
0000
1000
1000
,
0100
0000
0001
0001
,
0010
0000
1000
1000
,
0010
0000
0001
0000
,
0100
0000
0001
0000
,
0100
0000
1000
0000
,
0100
0000
1000
0000
,
0100
0000
0001
0000
,
0100
0000
1000
0000
,
0100
0000
0001
0000
,
0100
0000
0000
0000
,
1001
0000
0000
0010
0000
0010
0000
0010
,
0000
0000
0000
0100
0000
0100
0100
0000
,
0000
0001
0001
0001
,
0000
0000
1000
1000
1000
0000
0000
0010
,
0000
0010
0000
0010
0000
0000
0000
0100
,
0000
0100
0100
0000
0000
0000
0000
0000
,
0000
1000
0000
0000
0000
0001
0000
1000
,
0001
0000
1000
0001
,
1000
0000
0000
0000
0010
0000
0100
0010
,
0000
0000
0000
0100
0000
0010
0000
0100
,
0000
0000
0001
0010
0001
0000
0000
0000
,
0010
0001
0100
0001
,
0000
1000
0000
0010
0000
1000
0000
0010
,
0000
1000
0000
0100
0000
1000
0000
0000
,
0000
2002
3003
0000
0000
0000
0000
0000
;

//--------------- dance-single - ----------------
#NOTEDATA:;
#STEPSTYPE:dance-single;
#DESCRIPTION:;
#DIFFICULTY:Medium;
#METER:10;
#RADARVALUES:0,0,0,0,0;
#NOTES:
0000
0000
0000
0000
,
0000
0000
0000
0000
,
0000
0000
0000
0000
,
0000
0000
0000
0000
,
0000
0000
0000
0000
,
0000
0000
0000
0000
,
0000
0000
0000
0000
,
0000
0000
0000
0000
,
0000
0000
0000
0000
,
1000
0000
0100
0100
0000
0000
1001
0000
,
0001
0000
0100
0100
0000
0000
1001
0000
,
1000
0000
0010
0010
0000
0000
1001
0000
,
0001
0000
0010
0010
0000
0000
1001
0000
,
1000
0000
0100
0100
0000
0000
0110
0000
,
0001
0000
0100
0100
0000
0000
0110
0000
,
1000
0000
0010
0010
0000
0000
0110
0000
,
0001
0000
0010
0010
0000
0000
0110
0000
,
0001
0100
0010
0000
0100
0000
0000
0000
,
1000
0100
0010
0000
0100
0000
0000
0000
,
0001
0010
0100
0000
0010
0000
0000
0000
,
1000
0010
0100
0000
0010
0000
0000
0000
,
0001
0100
0010
0000
0100
0000
0000
0000
,
1000
0100
0010
0000
0100
0000
0000
0000
,
0001
0010
0100
0000
0010
0000
0000
0000
,
0000
0000
0000
0000
1001
0001
0010
0001
,
0000
1000
0010
1000
0000
0001
0000
1000
,
0000
0000
0000
1001
0001
0100
0002
0000
,
0000
0000
0003
0000
0001
0100
0001
0000
,
0000
0000
1001
1000
0010
1000
0000
0001
,
0010
0001
0000
1000
0010
1000
0000
0000
,
1001
0000
1000
0100
2000
0000
0000
0000
,
0000
0000
3010
0100
,
0110
0001
0010
0001
0000
0100
0001
0100
,
0000
0001
0010
0001
0000
0000
1001
0000
,
1000
0010
1000
0000
0100
1000
0100
0000
,
1000
0010
1000
0000
0000
0000
1001
0010
,
0100
0000
0000
0010
0000
0000
0000
0000
0000
0100
0000
0000
0000
0000
0000
0001
0000
0000
0000
1000
0000
0001
0000
0000
,
0000
1000
0000
0001
1001
0000
0010
0100
,
0020
0000
0000
0000
,
0130
0000
0100
0000
1001
0000
0001
0010
,
0100
0000
0000
0000
1001
0000
1000
0010
,
0100
0000
0000
0000
1001
0000
0001
0100
,
0010
0000
0000
0000
1001
0000
1000
0100
,
0010
0000
0000
0000
1001
0000
0001
0010
,
0100
0000
0000
0000
1001
0000
1000
0010
,
0100
0000
0000
0000
1001
0000
0001
0100
,
0010
0000
0000
0000
1001
0000
1000
0100
,
0010
0000
0001
0100
,
1000
0000
0001
0100
,
0010
0000
0001
0100
,
1000
0000
0001
0100
,
0010
0000
1000
0100
,
0001
0000
1000
0100
,
0010
0000
1000
0100
,
0001
0100
0000
0000
,
1001
0010
1000
0010
0000
0100
0001
0100
,
0000
0001
1000
0001
0000
0000
1001
0000
,
0010
0001
0010
0000
0100
1000
0100
0000
,
1000
0001
1000
0000
0110
0010
1000
0100
,
0010
0100
0000
0110
0000
0010
0001
0100
,
0010
0200
0310
0000
1000
0100
0002
0000
,
0000
0103
1000
0001
0000
0001
0000
0110
,
0001
1000
0100
0000
1000
0001
0100
0000
,
0001
1000
0100
0000
0100
0000
0110
0001
,
1000
0010
0000
1000
0001
0010
0000
0001
,
1000
0000
0010
0000
0010
0000
1000
0100
0001
0000
0100
0000
1000
0000
0100
0000
,
0001
0100
1000
0010
0001
0010
1000
0010
,
0001
0010
1000
0000
0100
0000
1000
0000
0100
0000
0010
0000
0001
0000
0010
0000
,
0001
0000
1000
0001
1000
0000
0001
1000
0001
0000
0020
0000
0000
0000
0130
0000
,
0000
2002
3003
0000
0000
0000
0000
0000
;

//--------------- dance-single - ----------------
#NOTEDATA:;
#STEPSTYPE:dance-single;
#DESCRIPTION:;
#DIFFICULTY:Hard;
#METER:13;
#RADARVALUES:0,0,0,0,0;
#NOTES:
0000
0000
0000
0000
,
0000
0000
0000
0000
,
0000
0000
0000
0000
,
0000
0000
0000
0000
,
0000
0000
0000
0000
,
0000
0000
0000
0000
,
0000
0000
0000
0000
,
0000
0000
0000
0000
,
0000
0000
0000
0000
,
0001
0000
1000
1000
0100
0000
1001
0000
,
0001
0000
1000
1000
0010
0000
1001
0000
,
1000
0000
0001
0001
0010
0000
1001
0000
,
1000
0000
0001
0001
0100
0000
1001
0000
,
0010
0000
0100
0100
0001
0000
0110
0000
,
0010
0000
0100
0100
1000
0000
0110
0000
,
0100
0000
0001
0001
1000
0000
0110
0000
,
0100
0000
1000
1000
0001
0000
0110
0000
,
0001
0100
0010
0000
0001
0100
0010
0000
,
0001
0100
1000
0000
0001
0100
0010
0000
,
1000
0100
0010
0000
1000
0100
0010
0000
,
1000
0100
0001
0000
1000
0100
0010
0000
,
0001
0010
0100
0000
0001
0010
0100
0000
,
0001
0010
1000
0000
0001
0010
0100
0000
,
1000
0010
1000
0010
0100
0001
0010
1000
,
0000
0000
0000
0000
1001
0001
0010
0001
,
0100
0001
0100
0001
0010
0001
0010
0001
,
0100
0001
0000
1001
1000
0010
2000
0100
,
0000
0100
0000
3010
1000
0010
1000
0100
,
0100
0100
0110
0100
0010
0100
1000
0100
,
1000
0100
0010
0100
0010
0100
1000
0100
,
0110
0000
0010
0001
0020
0100
0000
0100
,
0000
0001
0000
0031
0010
0010
0010
0000
,
0110
0001
0010
0100
1000
0001
0010
0100
,
1000
0001
0010
0100
1000
0100
1001
0000
,
1000
0010
0100
0001
1000
0010
0100
0001
,
1000
0010
0100
0001
1000
0000
1001
0100
,
0010
0000
0000
0100
0000
0000
0010
0000
0000
0100
0000
0000
0010
0000
0000
0100
0000
0000
0000
0010
0000
0100
0000
0000
,
0000
0010
0000
0100
0000
0000
0000
0010
0000
0100
0000
0000
1001
0000
0000
0000
0000
0000
1000
0000
0000
0100
0000
0000
,
0020
0100
0000
0100
0000
0100
0000
0130
,
0010
0001
1000
0000
0010
0000
1000
0100
,
0010
0000
0110
0000
1001
0000
0001
0100
,
0010
0000
0110
0000
1001
0000
1000
0100
,
0010
0000
0110
0000
1001
0000
0001
0100
,
0010
0000
0110
0000
1001
0000
1000
0001
,
0010
0000
0110
0000
1001
0000
0001
1000
,
0010
0000
0110
0000
1001
0000
1000
0001
,
0100
0000
0110
0000
1001
0000
0001
1000
,
0100
0000
0110
0000
0001
0010
0100
0000
,
1000
0010
0100
0000
0001
0010
0100
0000
,
1000
0010
0100
0000
0001
0100
0010
0000
,
1000
0100
0010
0000
0001
0100
0010
0000
,
1000
0100
0010
0000
0001
0010
0001
0010
,
0100
1000
0100
1000
0001
0010
0001
0010
,
0100
1000
0100
1000
0001
1000
0001
1000
,
0001
1000
0001
1000
0000
0000
0000
0000
,
1001
0000
0010
0100
0010
0000
1000
0000
0001
0000
0010
0100
0010
0000
0001
0000
,
1000
0000
0010
0100
0010
0000
1000
0001
1000
0000
0220
0330
1001
0000
0000
0000
,
0010
0100
0010
0000
0001
0000
1000
0000
0010
0100
0010
0000
1000
0000
0001
0000
,
0010
0100
0010
0000
0001
0000
0001
0000
1001
0000
1000
0100
1000
0000
0100
0010
,
0001
0000
0100
0001
0100
0000
0001
0100
0010
0000
1000
0010
1000
0000
0001
0010
,
0001
0000
2000
0000
3001
0000
0000
0000
0100
0010
1000
0000
0220
0000
0000
0000
,
0000
0330
0001
0000
0000
0000
1000
0000
0100
0000
0001
0000
0000
0000
1100
0000
,
0010
1000
0100
0000
0001
0000
0100
0000
1000
0000
0010
0000
0100
0000
0001
0000
,
0010
0001
0100
0000
0010
0000
0010
0000
0220
0000
0330
0000
1001
0000
0001
1000
,
0100
0000
0010
0001
0100
0000
0010
1000
0100
0000
1000
0001
0100
0000
0010
0100
,
0010
0000
0100
0000
0100
0000
0010
1000
0010
0000
1000
0000
0100
0000
0010
0000
,
0100
0010
0001
0100
0001
0100
0010
1000
,
0010
1000
0100
0010
0001
0000
0010
0100
1000
0000
0010
0100
0001
0000
0100
0010
,
1000
0000
0001
1000
0001
1000
0001
1000
0001
1000
0001
0000
1001
0000
0220
0000
,
0330
2002
3003
0000
0000
0000
0000
0000
;

//--------------- dance-single - Prism ----------------
#NOTEDATA:;
#STEPSTYPE:dance-single;
#DESCRIPTION:Prism;
#DIFFICULTY:Challenge;
#METER:18;
#RADARVALUES:0,0,0,0,0;
#NOTES:
0000
0000
0000
0000
,
0000
0000
0000
0000
,
0000
0000
0000
0000
,
0000
0000
0000
0000
,
0000
0000
0000
0000
,
0000
0000
0000
0000
,
0000
0000
0000
0000
,
0000
0000
0000
0000
,
0000
0000
0000
0000
0000
0000
1000
1010
,
1001
0000
0000
0000
1000
0100
1000
0000
1010
0000
0000
0000
0100
0001
0010
0000
,
0110
0000
0000
0000
0100
1000
0010
0000
1100
0000
0000
0000
1000
0001
0010
0000
,
0101
0000
0000
0000
0100
0010
1000
0000
2100
0000
0001
0000
3001
0010
0100
0000
,
1001
0000
0000
0000
1000
0010
0100
0000
0101
0000
0000
0000
0001
1000
0010
0000
,
1100
0000
0000
0000
1000
0100
0010
0000
1001
0000
0000
0000
0001
0010
0100
0000
,
1001
0000
0000
0000
1000
0001
0010
0000
1100
0000
0000
0000
1000
0010
0100
0000
,
1001
0000
0000
0000
0001
1000
0010
0000
0110
0000
0100
0000
1001
0000
0000
0000
,
0011
0000
0000
0000
0010
0000
0100
1000
0001
0000
1000
0000
0001
0100
1000
0100
,
0020
0000
0000
0000
0130
0000
0001
1000
0001
0000
0010
0000
0100
0000
1000
0010
,
1000
0000
0001
0000
0100
0000
0010
0001
0010
0000
1000
0000
1010
0000
0000
0000
,
0120
0000
0000
0000
0031
0000
0010
1000
0010
0000
0100
0000
0001
0000
0010
1000
,
0020
0000
0100
0000
0130
0000
1000
0010
0200
0000
0000
0000
0310
1000
0001
0000
,
0110
0000
0000
0000
1001
0000
0001
0000
0010
0100
0010
0000
0100
1000
0100
0000
,
0020
0000
0001
0000
0031
1000
0010
0000
0100
0010
0100
0000
0001
0000
1001
0000
,
2000
0000
0010
0000
3010
0100
0001
0000
0010
0100
1000
0001
0010
0100
1000
0100
,
0020
0000
0030
0000
0000
0000
0000
0000
0000
0000
0000
0000
0000
0000
0000
0000
0001
0100
0002
0000
0010
0000
0000
0000
0010
0000
0000
0000
0013
0000
0100
0000
,
1000
0000
0001
0010
0100
0000
1000
0001
0010
0000
0100
1000
0001
0000
0010
0100
,
1000
0000
0000
0000
0010
0000
0001
0000
1000
0000
0100
0000
0001
0010
0002
0000
1000
0000
0000
0000
1000
0000
0000
0000
0103
0000
0010
0000
1000
0000
0100
0000
,
0010
0001
0010
0100
0001
0100
0001
0100
1000
0000
0010
0000
1010
0000
1000
0000
,
0001
0000
1000
0000
0001
0000
1000
0000
0100
0010
0001
0000
2001
0000
0000
0000
0010
0000
0000
0000
0001
0000
0000
0000
3001
0000
0010
0000
0100
0000
1000
0000
,
0010
0100
0001
0000
0010
0100
0010
0000
0001
0000
1000
0000
0010
0100
0010
1000
,
0100
0000
0010
0000
0001
1000
0002
0000
1003
0000
0010
0000
1000
0000
0000
0000
0001
0000
0010
0000
1000
0000
0010
0000
0100
0000
1000
0000
0001
0000
0100
0000
,
0010
0100
1000
0100
0001
0010
0100
0000
1000
0001
0100
0000
0010
1000
0010
1000
,
0001
0100
0020
0000
1030
0000
0001
0000
1000
0000
0000
0000
1000
0000
0100
0000
0001
0000
0000
0000
0100
0000
1000
0000
0010
0000
0000
0000
0001
0000
0010
0000
,
1000
0000
0000
0000
0100
0000
0001
0000
0100
0000
0000
0000
1000
0000
0100
0000
0010
0000
0000
0000
0100
0000
1000
0000
0001
0000
1000
0000
0010
0100
0002
0000
,
1003
0100
0001
0000
0001
0100
1000
0100
0010
0100
1000
0010
1000
0010
0001
0010
,
0100
0000
0001
0000
0010
0000
0100
0000
1000
0000
0000
0000
0001
0000
0000
0000
2001
0000
0000
0000
0000
0000
0000
0000
3010
0100
0002
0000
1003
0000
0010
0000
,
0100
0000
0000
0000
0000
0000
0100
0000
0000
0010
0000
0000
1000
0000
0000
0010
0000
0000
0100
0000
0000
0001
0000
0000
1000
0000
0000
0001
0000
0000
0010
0000
1000
0000
0000
0000
0000
0000
0010
0000
1000
0000
0010
0000
0000
0000
0000
0000
,
0000
0000
0000
0000
0100
0000
0000
0000
0001
0000
0000
0000
0100
0000
0000
0000
0000
0000
0000
0000
0000
0000
0000
0000
0000
0000
0000
0000
1000
0000
0000
0000
0010
0000
0000
0000
1000
0000
0000
0000
0000
0000
0001
0000
0000
0000
0000
0000
1000
0000
0000
0000
0000
0000
0001
0000
0000
0000
0000
0000
0010
0000
0000
0100
0000
0000
2000
0000
0000
0000
0000
0000
3001
0000
0000
0000
0000
0000
0010
0000
0000
0000
0000
0000
0100
0000
0000
0000
0000
0000
0000
0000
0000
0000
0000
0000
,
0010
0100
0010
0001
0010
1000
0010
0100
0001
1000
0010
0001
0100
0001
0010
0100
,
1000
0000
0001
0010
0100
0001
0100
1000
0100
0000
0000
0000
0010
0001
0100
0000
,
0011
0000
0000
0000
0100
1000
0010
0000
1100
0000
0000
0000
1000
0001
0010
0000
,
0101
0000
0000
0000
0001
1000
0010
0000
1100
0000
0000
0000
1000
0100
0010
0000
,
1001
0000
0110
0000
0010
0100
0010
0000
1001
0000
0000
0000
0001
1000
0100
0000
,
0011
0000
0000
0000
0001
1000
0010
0000
0101
0000
0000
0000
0001
0010
0100
0000
,
1001
0000
0000
0000
1000
0001
0010
0000
1100
0000
0000
0000
0100
1000
0010
0000
,
0101
0000
0000
0000
0001
1000
0010
0000
0101
0000
0000
0000
0001
0010
0100
0000
,
1001
0000
0110
0000
0010
0100
0010
0000
1001
0000
0000
0000
0001
0010
0100
0000
,
2100
0000
0010
0000
3010
0100
0010
1000
0020
0000
0000
0000
0100
0000
0100
0000
,
0130
0001
0100
0000
0010
1000
0010
0000
0100
0000
0001
0000
0010
0100
0010
0000
,
0001
0000
1000
0000
0010
0100
0010
0000
1010
0000
1000
0000
0100
0010
0100
0000
,
1000
0001
1000
0000
0010
0100
0010
0000
1000
0000
0001
0000
0010
0100
0010
0000
,
0001
1000
0001
0000
0100
0010
0100
0000
0101
0000
0000
0000
0011
0000
0001
0010
,
0100
0000
1000
0000
1001
0000
1000
0100
0010
0000
0001
0000
0101
0000
0100
0010
,
1000
0000
1010
0000
0010
0100
0001
0000
0021
0000
0100
0000
0130
1000
0100
0000
,
0010
0001
1000
0010
0001
0010
1000
0100
0020
0030
0000
0000
0000
0000
0000
0000
,
0001
1000
0100
0000
1001
0000
0000
0000
1000
0000
0010
0000
0001
0000
1000
0000
0100
0000
0001
0000
0100
0000
1000
0000
0001
0000
0010
0000
1000
0000
0100
0000
,
0001
0000
1000
0000
0010
0000
0001
0000
0010
0000
1000
0000
0001
0000
0100
0000
1000
0000
0001
0000
0010
0100
1000
0000
0010
0000
0100
0000
0001
0000
0000
0000
,
0010
1000
0001
0100
1000
0100
0001
1000
0010
0001
0100
1000
0001
0010
1000
0010
,
0001
0000
1000
0000
0100
0000
0001
0000
0010
0000
0000
0000
0110
0000
0000
0000
0100
1000
0010
0000
1001
0000
0000
0000
0001
0000
0100
0000
1000
0000
0100
0000
,
0010
0001
0010
0100
1000
0001
0010
1000
0010
0001
1000
0100
1000
0001
0010
1000
,
0100
0000
0010
0000
0001
0010
0100
0000
1000
0000
0010
0000
0100
0000
0000
0000
0001
0000
0010
0000
1000
0000
0010
0000
0001
0100
1000
0100
0001
0010
1000
0010
,
0001
0000
0000
1000
0000
0000
0010
0000
0000
0001
0000
0000
0010
0000
0000
0000
0000
0000
1000
0000
0000
0000
0000
0000
0001
0000
0000
0000
0000
0000
0100
0000
0000
0000
0000
0000
1000
0000
0000
0000
0000
0000
0100
0000
0000
0000
0000
0000
0010
0000
0000
0000
0000
0000
0001
0000
0000
0000
0000
0000
1000
0000
0000
0000
0100
0000
0000
0000
0001
0000
0000
0000
0010
0000
0000
0000
0000
0000
0000
0000
0000
0000
0000
0000
0010
0000
0000
0100
0000
0000
1000
0000
0000
0000
0000
0000
,
1001
0000
0001
0010
0001
0100
0001
1000
0010
0001
0010
0100
0010
1000
0100
0001
,
0100
0000
0000
0000
0000
0000
0010
0000
0000
0000
0000
0000
0100
0000
0000
0000
0000
0000
1000
0000
0000
0000
0000
0000
0001
0000
0000
0000
0000
0000
0010
0000
0000
0000
0000
0000
1000
0000
0000
0000
0000
0000
0001
0000
0000
0000
0000
0000
0100
0000
0000
0000
1000
0000
0000
0000
0010
0000
0000
0000
1000
0000
0000
0000
0010
0000
0000
0000
1000
0000
0000
0000
0010
0000
0000
1000
0000
0000
0100
0000
0000
0000
0000
0000
0001
0000
0000
0000
0000
0000
1000
0000
0000
0000
0000
0000
,
0010
0001
0010
1000
0001
0100
1000
0010
0100
0010
0001
1000
0100
0001
1000
0100
,
0001
0000
0100
0000
1000
0000
0000
0000
1001
0000
0000
0000
0001
0010
0100
0000
1000
0000
0010
0000
0100
0000
0010
0000
0001
0000
1000
0000
0100
0000
1000
0000
,
0100
0010
0100
0001
0010
1000
0010
0100
1000
0100
0001
0100
1000
0010
0100
0001
,
0100
0001
0010
0000
1000
0000
0010
0000
0001
0000
1000
0000
0100
0000
0001
0000
1000
0000
0010
0000
0001
0000
0010
0000
1000
0000
0001
0000
0100
0000
1000
0000
,
0001
0000
0000
0010
0000
0000
0100
0000
0001
0000
0100
0000
0001
0000
0100
0000
1000
0000
0100
0000
0010
0000
1000
0000
0010
0000
0001
0000
0010
0000
0100
0000
0010
0000
0100
0000
0001
0000
1000
0000
0010
0000
0001
0000
0100
0000
0010
0000
,
0001
1000
0100
0002
0000
0000
0003
0000
0000
0000
0000
0000
0000
0000
0000
0000
0000
0000
0000
0000
0000
0000
0000
0000
;

//--------------- dance-double - ----------------
#NOTEDATA:;
#STEPSTYPE:dance-double;
#DESCRIPTION:;
#DIFFICULTY:Easy;
#METER:6;
#RADARVALUES:0,0,0,0,0;
#NOTES:
00000000
00000000
00000000
00000000
,
00000000
00000000
00000000
00000000
,
00000000
00000000
00000000
00000000
,
00000000
00000000
00000000
00000000
,
00000000
00000000
00000000
00000000
,
00000000
00000000
00000000
00000000
,
00000000
00000000
00000000
00000000
,
00000000
00000000
00000000
00000000
,
00000000
00000000
00000000
00000000
,
10000000
01000000
10000000
00000000
,
00010000
00000000
00001000
00000000
,
00010000
00001000
00010000
00000000
,
00000100
00000000
00000001
00000000
,
00000001
00000100
00000001
00000000
,
00001000
00000000
00010000
00000000
,
00001000
00010000
00001000
00000000
,
01000000
00000000
10000000
00000000
,
10000000
00100000
01000000
00000000
,
00001000
00000000
00010000
00000000
,
00001000
00010000
00000100
00000000
,
00000010
00000000
00000001
00000000
,
00000001
00000100
00000010
00000000
,
00010000
00000000
00001000
00000000
,
00010000
00001000
01000000
00010000
,
00000000
00000000
00000000
00000000
10010000
00000000
00000000
00100000
,
00000000
00100000
00000000
00100000
00000000
00000000
00000000
00011000
,
00000000
00000000
00000000
00011000
00000000
00000000
00000020
00000000
,
00000000
00000030
00000000
00011000
,
00000000
00000000
00011000
00000000
00000000
01000000
00000000
01000000
,
00000000
01000000
00000000
00000000
00000000
00011000
00000000
00000000
,
00011000
00000000
00000200
00000000
,
00000000
00000000
00000300
00000000
,
00001001
00000000
00000000
00000001
00000000
00000010
00000000
00000100
,
00000000
00000100
00000000
00000100
00000000
00000000
00000110
00000000
,
00000000
00001000
00010000
00100000
,
00100000
00100000
00000000
10010000
,
00000000
10000000
00000000
00100000
00000000
01000000
00000000
01000000
,
00000000
01000000
00000000
00000000
01100000
00000000
00000000
00000000
,
00002000
00000000
00000000
00000000
,
00013000
00000000
00000100
00000001
,
00000100
00000000
00001000
00000000
,
00010000
00000000
00100000
10000000
,
00100000
00000000
00010000
00000000
,
00001000
00000000
00010000
01000000
,
00010000
00000000
01000000
00000000
,
00010000
00000000
00001000
00000010
,
00001000
00000000
00010000
00000000
,
00001000
00000000
00000100
00000000
,
00000001
00000000
00000010
00000000
,
00000010
00000000
00001000
00000000
,
00010000
00000000
00100000
00000000
,
00100000
00000000
10000000
00000000
,
01000000
00000000
00010000
00000000
,
00010000
00000000
00001000
00000000
,
00000100
00000000
00000000
00000000
,
00001001
00000000
00000000
00000010
00000000
00000010
00000000
00000010
,
00000000
00000000
00000000
00001000
00000000
00000000
00001000
00000000
,
00000000
00000100
00000100
00000100
,
00000000
00000000
00010000
00000000
00011000
00000000
00000000
00100000
,
00000000
00100000
00000000
00100000
00000000
00000000
00000000
00010000
,
00000000
00010000
00010000
00000000
00000000
00000000
00000000
00000000
,
00000000
00000000
00000000
00100000
00000000
00000000
00000000
10000000
,
01000000
10000000
00000000
10000000
,
01000000
00000000
00100000
00000000
00000000
00000000
00001000
00010000
,
00000000
00001000
00000000
00000000
00000000
00001000
00000000
00010000
,
00000000
00000010
00000000
00000100
00000000
00000001
00000000
00000100
,
00000000
00000001
00000000
00000010
00000000
00000001
00000000
00000010
,
00000000
00000100
00000000
00010000
00000000
00001000
00000000
00010000
,
00000000
00001000
00000000
00100000
00000000
00010000
00000000
01000000
,
00000000
00000000
00000000
01100000
00000000
00000000
00000000
00000000
;

//--------------- dance-double - ----------------
#NOTEDATA:;
#STEPSTYPE:dance-double;
#DESCRIPTION:;
#DIFFICULTY:Medium;
#METER:10;
#RADARVALUES:0,0,0,0,0;
#NOTES:
00000000
00000000
00000000
00000000
,
00000000
00000000
00000000
00000000
,
00000000
00000000
00000000
00000000
,
00000000
00000000
00000000
00000000
,
00000000
00000000
00000000
00000000
,
00000000
00000000
00000000
00000000
,
00000000
00000000
00000000
00000000
,
00000000
00000000
00000000
00000000
,
00000000
00000000
00000000
00000000
,
00000001
00000000
00000100
00000100
00000000
00000000
00001001
00000000
,
00000010
00000000
00010000
00010000
00000000
00000000
00011000
00000000
,
00001000
00000000
01000000
01000000
00000000
00000000
10010000
00000000
,
10000000
00000000
01000000
01000000
00000000
00000000
10010000
00000000
,
10000000
00000000
00100000
00100000
00000000
00000000
10010000
00000000
,
01000000
00000000
00001000
00001000
00000000
00000000
00011000
00000000
,
00010000
00000000
00000010
00000010
00000000
00000000
00001001
00000000
,
00000001
00000000
00000010
00000010
00000000
00000000
00001001
00000000
,
00000001
00000100
00001000
00000000
00010000
00000000
00000000
00000000
,
00001000
00000010
00001000
00000000
00010000
00000000
00000000
00000000
,
00001000
00010000
00100000
00000000
00010000
00000000
00000000
00000000
,
00001000
00010000
01000000
00000000
10000000
00000000
00000000
00000000
,
10000000
00100000
00010000
00000000
00001000
00000000
00000000
00000000
,
00010000
01000000
00010000
00000000
00001000
00000000
00000000
00000000
,
00010000
00001000
00000100
00000000
00000001
00000000
00000000
00000000
,
00000000
00000000
00000000
00000000
00000110
00000001
00000000
00001000
,
00000000
00000001
00000000
00001000
00000000
00010000
00000000
00001000
,
00000000
00000000
00000000
00011000
00010000
00000000
02000000
00000000
,
00000000
03000000
00100000
10000000
,
00000000
00000000
01100000
10000000
00000000
00010000
00000000
10000000
,
00000000
00010000
00000000
00001000
00000000
00010000
00000000
00000000
,
00011000
00001000
00000200
00000000
,
00000000
00000000
00000310
00000010
,
00000110
00000001
00000010
00000100
00000000
00001000
00000000
00000010
,
00000100
00001000
00000000
00010000
00000000
00100000
01000000
00000000
,
00010000
00100000
01000000
00000000
10000000
00000000
01000000
00100000
,
00010000
00000000
01000000
00000000
00100000
00000000
00010000
00001000
,
00000100
00000000
00000000
00000010
00000000
00000000
00000000
00000000
00000000
00001000
00000000
00000000
00000000
00000000
00000000
00000001
00000000
00000000
00000000
00001000
00000000
00000001
00000000
00000000
,
00000000
00001001
00000000
00000100
00000001
00000000
00000010
00000100
,
00000020
00000000
00000000
00000000
,
00001030
00000000
00001000
00000000
00011000
00000000
00010000
01000000
,
00100000
00000000
00000000
00000000
01100000
00000000
00100000
01000000
,
00010000
00000000
00000000
00000000
00011000
00000000
00001000
00000100
,
00000010
00000000
00000000
00000000
00000110
00000000
00000010
00000100
,
00001000
00000000
00000000
00000000
00011000
00000000
00010000
00100000
,
01000000
00000000
00000000
00000000
01100000
00000000
01000000
00100000
,
00010000
00000000
00000000
00000000
00011000
00000000
00001000
00000010
,
00000100
00000000
00000000
00000000
00000110
00000000
00000100
00000010
,
00001000
00000000
00010000
01000000
,
10000000
00000000
00010000
00100000
,
10000000
00000000
00001000
00000100
,
00000001
00000000
00001000
00000010
,
00000001
00000000
00001000
00010000
,
10000000
00000000
00010000
00001000
,
00000001
00000000
00000001
00001000
,
00010000
10000000
00000000
00000000
,
10010000
00100000
00100000
01000000
00000000
00001000
00001000
00010000
,
00000000
00000100
00001000
00000010
00000000
00000000
00001001
00000000
,
00000100
00000100
00000010
00000000
00010000
00010000
00001000
00000000
,
01000000
00010000
00100000
00000000
01100000
10000000
01000000
00100000
,
00010000
00100000
00000000
00001000
00010000
00000100
00001000
00000100
,
00000010
00000000
00000010
00000000
00000001
00000100
00000000
00000000
,
00000000
00000000
01000000
10000000
00000000
10000000
00000000
10010000
,
00100000
10000000
00010000
00000000
00100000
00001000
00010000
00000000
,
00000010
00001000
00000001
00000000
00000001
00000000
00001001
00000100
,
00000001
00001000
00000000
00000100
00010000
00001000
00000000
01000000
,
00010000
10000000
10000000
00100000
10000000
00100000
10000000
01000000
,
00010000
01000000
00010000
00001000
00010000
00001000
00010000
00001000
,
00000010
00001000
00000010
00000001
00000100
00001000
00000100
00000001
,
00000100
00000000
00000010
00000000
00001000
00000000
00000100
00000000
00010000
00000000
00001000
00010000
00001000
00000000
00020000
00000000
,
00000000
00031000
00000000
00011000
00000000
00000000
00000000
00000000
;

//--------------- dance-double - ----------------
#NOTEDATA:;
#STEPSTYPE:dance-double;
#DESCRIPTION:;
#DIFFICULTY:Hard;
#METER:13;
#RADARVALUES:0,0,0,0,0;
#NOTES:
00000000
00000000
00000000
00000000
,
00000000
00000000
00000000
00000000
,
00000000
00000000
00000000
00000000
,
00000000
00000000
00000000
00000000
,
00000000
00000000
00000000
00000000
,
00000000
00000000
00000000
00000000
,
00000000
00000000
00000000
00000000
,
00000000
00000000
00000000
00000000
,
00000000
00000000
00000000
00000000
,
10000000
00000000
01000000
01000000
00100000
00000000
00011000
00000000
,
00000000
00000000
00000100
00000100
00000010
00000000
00001001
00000000
,
00000001
00000000
00000100
00000100
00000010
00000000
00011000
00000000
,
00000000
00000000
01000000
01000000
00100000
00000000
10010000
00000000
,
10000000
00000000
01000000
01000000
00100000
00000000
00011000
00000000
,
00000000
00000000
00000100
00000100
00000010
00000000
00001001
00000000
,
00000001
00000000
00000100
00000100
00000010
00000000
00011000
00000000
,
00000000
00000000
01000000
01000000
00100000
00000000
10010000
00000000
,
10000000
01000000
00010000
00000000
10000000
01000000
00100000
00000000
,
10000000
00100000
00010000
00001000
00000100
00000001
00001000
00000000
,
00000001
00000100
00001000
00000000
00000001
00000100
00000010
00000000
,
00000001
00000010
00001000
00010000
01000000
10000000
00010000
00000000
,
10000000
01000000
00010000
00000000
10000000
01000000
00100000
00000000
,
10000000
00100000
00010000
00001000
00000100
00000001
00001000
00000000
,
00000001
00000100
00001000
00000000
00000001
00000100
00000010
00000000
,
00000000
00000000
00000000
00000000
10010000
10000000
01000000
00100000
,
00010000
00100000
00010000
01000000
00001000
01000000
00001000
00010000
,
00001000
00010000
00000000
00001000
00010000
00000100
00002000
00000010
,
00000000
00000010
00000000
00003100
00001000
00000100
00000010
00000001
,
00000001
00000001
00001001
00000001
00000100
00000010
00001000
00000010
,
00001000
00000100
00010000
00000100
00010000
00001000
00010000
00001000
,
00010000
00000000
00001000
01000000
00020000
00100000
00000000
00100000
,
00000000
01000000
00000000
01030000
00100000
00100000
00100000
00000000
,
01100000
10000000
01000000
00100000
00010000
10000000
00100000
01000000
,
00001000
00010000
00000010
00000100
00000001
00001000
00001001
00000000
,
00000001
00000010
00000100
00001000
00000010
00001000
00000100
00010000
,
00001000
00100000
00010000
01000000
00100000
00000000
10010000
10000000
,
01000000
00000000
00000000
00100000
00000000
00000000
01000000
00000000
00000000
00100000
00000000
00000000
00001000
00000000
00000000
00010000
00000000
00000000
00000000
00001000
00000000
00010000
00000000
00000000
,
00000000
00001000
00000000
00010000
00000000
00000000
00000000
00001000
00000000
00010000
00000000
00000000
00011000
00000000
00000000
00000000
00000000
00000000
00001000
00000000
00000000
00000010
00000000
00000000
,
00000002
00000010
00000000
00000010
00000000
00000010
00000000
00000013
,
00000100
00001000
00000010
00000000
00000100
00000000
00000001
00000100
,
00001000
00000000
00011000
00000000
00010100
00000000
00001000
00010000
,
00100000
00000000
01100000
00000000
01000000
00000000
10000000
01000000
,
00010000
00000000
00011000
00000000
01001000
00000000
00010000
00001000
,
00000010
00000000
00000110
00000000
00000100
00000000
00000001
00000010
,
00001000
00000000
00011000
00000000
00010010
00000000
00001000
00010000
,
01000000
00000000
01100000
00000000
01000000
00000000
10000000
00100000
,
00010000
00000000
00011000
00000000
00101000
00000000
00010000
00001000
,
00000100
00000110
00000001
00001000
,
00010000
00000000
00001000
00010000
,
10000000
00000000
10000000
00010000
,
00001000
00000000
00010000
00001000
,
00000001
00000000
00000010
00000100
,
01000000
00000000
01000000
00100000
,
00000010
00000000
00000000
00000000
00000001
00000010
00000100
00001000
,
00010000
00100000
01000000
10000000
00000000
00000000
00000000
00000000
,
10010000
00000000
01000000
00100000
01000000
00000000
00010000
00000000
00001000
00000000
00000100
00000010
00000100
00000000
00001000
00000000
,
00010000
00000000
00100000
01000000
00100000
00000000
10000000
00000000
00000000
00000000
00000000
00000000
10010000
00000000
00000000
00000000
,
00100000
01000000
00100000
00000000
00010000
00000000
00001000
00000000
00000010
00000100
00000010
00000000
00001000
00000000
00010000
00000000
,
01000000
00100000
01000000
00000000
10000000
00000000
01100000
00000000
10010000
00000000
10000000
00000000
01000000
00000000
00100000
00000000
,
00010000
00001000
00001000
00000100
00000010
00000001
00000100
00001000
,
00000001
00000000
00010000
00000000
00001000
01000000
00000000
00000000
,
00000000
00000000
00100000
00010000
00100000
10000000
00000000
00110000
,
01000000
10000000
00100000
00000000
00010000
00000000
00001000
00000000
00000100
00000000
00001000
00000000
00010000
00000000
00001000
00000000
,
00000010
00000001
00000100
00000000
00000010
00000000
00000000
00000000
00000110
00000000
00000000
00000000
00001001
00000000
00000100
00000001
,
00000010
00000000
00001000
00000000
00010000
00000000
00001000
00000000
00000100
00000000
00001000
00000000
00010000
00000000
00100000
10000000
,
01000000
00100000
00100000
01000000
10000000
00100000
01000000
00010000
,
00010000
00100000
00100000
00001000
00010000
00000100
00001000
00000010
,
00000010
00000000
00000100
00000000
00000100
00000000
00000001
00000010
00000001
00000000
00000010
00000100
00001000
00000000
00000100
00010000
,
00001000
00000000
00100000
00010000
01000000
00000000
00100000
10000000
00100000
10000000
00100000
00000000
01000000
00000000
00001000
00000000
,
00011000
00000200
00000000
00000310
00000000
00000000
00000000
00000000
;
