#TITLE:未完成ノ蒸氣驅動乙女 (DDR Edition);
#SUBTITLE:;
#ARTIST:U1 overground;
#TITLETRANSLIT:Mikansei no jouki kudou otome (DDR Edition);
#SUBTITLETRANSLIT:;
#ARTISTTRANSLIT:;
#GENRE:;
#CREDIT:;
#MUSIC:Mikansei no jouki kudou otome (DDR Edition).ogg;
#BANNER:Mikansei no jouki kudou otome (DDR Edition).png;
#BACKGROUND:Mikansei no jouki kudou otome (DDR Edition)-jacket.png;
#CDTITLE:./CDTitles/pnm 24 Usagi to neko to shounen no yume.png;
#SAMPLESTART:73.377;
#SAMPLELENGTH:15.000;
#SELECTABLE:YES;
#OFFSET:0.000;
#BPMS:0.000=85.000
,10.000=170.000
,134.000=85.000
,158.000=170.000
;
#STOPS:;
#BGCHANGES:;
#FGCHANGES:;

//--------------- dance-single - Prism ----------------
#NOTES:
     dance-single:
     Prism:
     Challenge:
     19:
     0,0,0,0,0:
0000
0000
0000
0000
,
0000
0000
0000
0000
,
0000
0000
0000
0000
0000
0000
0000
0000
0001
0100
1000
0100
0001
0000
1000
0000
,
0001
0010
1000
0010
0001
0000
0100
0000
0010
1000
0100
1000
0010
0000
0000
0000
,
0101
0000
0000
0000
0001
0010
0001
0010
0001
0010
0001
0010
0100
0000
1000
0010
,
0100
0001
1000
0000
0010
0000
0100
0000
0001
0010
0100
0010
0002
0000
0000
0000
,
1003
0000
0010
0000
1010
0000
0000
0000
1000
0100
0001
0100
1000
0000
0001
0000
,
1000
0010
0001
0010
1000
0000
0001
0000
0010
0001
0100
0001
0010
0000
0100
0000
,
1100
1010
0101
0011
,
0001
1000
0010
0000
0100
0001
0010
0001
0100
1000
0100
0001
0020
0000
0000
0000
,
0130
0000
0010
0000
0011
0000
0000
0000
0001
0010
0100
0010
0001
0010
0100
0001
,
0100
0010
0001
0100
0010
1000
0100
0010
1000
0010
0100
1000
0010
0100
0001
0010
,
0100
0000
0010
0000
0001
0000
1000
0000
0001
0000
0010
0000
0100
0000
1000
0000
0001
0000
0010
0000
0100
0000
1000
0000
0001
0000
0000
0010
0000
0000
0001
0000
0000
0100
0000
0000
0010
0000
0000
1000
0000
0000
0001
0000
0000
1000
0000
0000
,
0100
0001
0100
0010
0001
0100
0001
1000
0010
0100
0010
1000
0100
0010
0100
1000
,
0100
0010
0001
1000
0100
0010
0001
1000
0010
0100
1000
0100
0001
0010
0100
0001
,
0100
1000
0010
0100
0001
0010
0100
0001
0100
0010
0100
1000
0010
0100
0001
1000
,
0001
0000
0100
0000
0010
0000
1000
0000
0001
0000
0010
0000
0100
0000
1000
0000
0001
0000
0010
0000
0100
0000
1000
0000
0001
0000
0000
0010
0000
0000
0100
0000
0000
1000
0000
0000
0010
0000
0000
0100
0000
0000
1000
0000
0000
0100
0000
0000
,
0001
1000
0100
0010
0001
1000
0001
0100
0010
0100
0001
1000
0001
0010
1000
0010
,
0001
0010
0100
1000
0001
1000
0100
0010
0002
0000
0000
0000
1003
0000
0010
0000
,
0100
0000
0001
1000
0010
0000
0100
0001
1000
0001
0010
0001
0100
0000
1000
0100
,
0002
0000
0000
0000
0023
0000
0000
0000
0130
0000
0001
0100
1000
0000
0010
0100
,
0001
2000
0000
0000
3001
0010
1000
0010
0001
0000
0100
1000
0200
0000
0000
0000
,
0310
0000
0000
0000
0000
0000
1000
0000
0000
0010
0000
0000
0100
0000
0000
0001
0000
0000
0010
0000
0000
0100
0000
0000
2000
0000
0000
0000
0000
0000
0001
0000
0000
0000
0000
0000
3001
0000
0000
0000
0100
0000
0000
0000
0010
0000
0000
0000
,
2010
0000
0000
3001
0200
0000
0010
0000
0310
0000
1000
0001
0010
0000
1000
0010
,
0001
0010
0100
0000
0010
0000
0001
1000
0001
0000
0100
0010
1000
0000
0010
0100
,
0000
0001
1000
0000
0100
0000
0001
0100
1000
0000
0001
0000
0010
0100
1000
0001
,
1000
0000
0000
0100
0000
0000
0010
0000
0000
0001
0000
0000
1000
0000
0000
0000
0001
0000
0000
0000
1000
0000
0000
0000
0011
0000
0000
0000
0000
0000
0000
0000
0000
0010
0000
0000
0000
0000
0000
0000
0000
0000
0001
0000
0000
0000
0000
0000
,
1001
0000
0000
0000
1020
0000
0000
0000
0100
0000
0130
0001
0010
0100
1000
0100
,
0001
0100
1000
0010
0100
0001
1000
0000
0000
0000
1010
0000
0000
0000
0010
0000
,
0210
0000
0000
0000
0301
0000
0000
0000
1000
0010
0100
0001
1000
0001
0010
1000
,
0010
0001
0100
0010
1000
0100
0001
0100
1000
0010
0100
0001
1000
0000
0001
0010
,
0100
0000
0000
1000
0000
0000
0001
0000
0000
1000
0000
0000
0001
0000
0010
0000
0100
0000
1000
0000
0001
0000
0010
0000
0100
0000
1000
0000
0001
0000
0010
0000
0100
0000
0010
0000
0001
0000
1000
0000
0100
0000
0010
0000
0001
0000
1000
0000
,
0100
0000
0000
0020
0000
0000
0000
0000
0000
0031
0000
0000
1002
0000
0000
0000
0000
0000
1003
0100
0010
0001
1000
0100
,
0010
0000
0001
0000
1000
0000
0100
0000
0010
0000
0001
0000
0010
0000
0100
0000
1000
0000
0001
0000
0010
0000
0100
0000
2000
0000
0000
0000
0000
0000
3002
0000
0000
0000
0000
0000
0103
0000
0000
0010
0000
0000
2010
0000
0000
0000
0000
0000
,
3001
0010
0200
0000
0000
0310
0001
1000
1002
0000
0100
0000
0013
0100
2100
0000
,
3010
0100
0102
0000
0000
0000
0000
0000
0013
0100
1000
0001
1000
0010
0001
0010
,
1000
0000
0001
0000
1002
0000
0000
0000
1003
0000
0100
0000
0010
0000
0001
0000
1000
0010
0100
0000
0001
0010
0100
1000
0010
0000
0100
0000
0001
1000
0001
0010
,
0100
0010
0001
1000
0001
0000
0010
0100
0010
0001
1000
0100
1000
0010
0100
0001
0100
0000
0010
0000
1000
0000
0001
0000
1000
0000
0100
0000
0001
0000
0100
0000
,
1000
0000
0001
0000
1002
0000
0000
0000
1003
0000
0010
0000
0100
0000
0001
0000
1000
0100
0010
0001
0010
0100
1000
0001
2000
0000
0000
3001
0010
0001
0100
0010
,
1000
0100
0010
0100
1000
0000
0100
0010
0100
0000
1000
0010
0100
0001
0010
0100
1000
0000
0001
0000
0010
0000
0001
0000
0100
0000
0010
0000
1000
0000
0001
0000
,
0010
0100
1000
0001
1000
0010
0100
0001
0100
0010
1000
0001
1000
0100
0010
0100
,
1000
0000
0001
0000
0010
0000
0100
0000
1000
0000
0001
0000
0010
0000
0000
0000
0000
0000
0100
0000
0010
0000
0001
0000
1000
0000
0100
0000
0010
0000
0001
0000
0000
0010
0000
0000
0001
0000
0000
0100
0000
0000
0001
0000
0000
0100
0000
0000
,
0010
1000
0001
0010
0100
1000
0001
1000
0100
1000
0001
0100
0010
0000
1000
0010
,
0100
0000
0000
0000
0000
0000
0001
0000
0010
0000
0100
0000
1000
0000
0001
0000
0010
0000
0100
0000
1000
0000
0001
0000
1000
0000
0000
0100
0000
0000
0010
0000
0000
0100
0000
0000
1000
0000
0000
0100
0000
0000
0010
0000
0000
1000
0000
0000
,
0010
0100
1000
0010
0100
0001
0010
0100
0001
0100
0010
0001
0100
0010
1000
0100
,
0010
0000
0100
0000
1000
0000
0001
0000
1000
0000
0100
0000
0010
0000
0001
0000
1000
0000
0100
0000
0010
0000
0001
0000
1000
0000
0000
0100
0000
0000
1000
0000
0000
0010
0000
0000
0100
0000
0000
0001
0000
0000
1000
0000
0000
0001
0000
0000
,
0010
1000
0010
0100
1000
0010
1000
0001
0100
0010
0100
0001
0010
0100
0010
0001
,
0010
0000
0100
0000
1000
0000
0001
0000
0010
0000
0100
0000
1000
0000
0001
0000
0010
0000
0100
0000
1000
0000
0001
0000
0010
0000
0000
0100
0000
0000
0001
0000
0000
0100
0000
0000
1000
0000
0000
0010
0000
0000
0100
0000
0000
1000
0000
0000
,
0100
0001
0010
0100
1000
0010
0100
1000
0100
0010
0100
0001
0010
0100
1000
0001
,
1000
0000
0100
0000
0010
0000
0001
0000
1000
0000
0010
0000
0100
0000
0001
0000
1000
0000
0010
0000
0100
0000
0001
0000
1000
0000
0000
0010
0000
0000
0100
0000
0000
0001
0000
0000
0010
0000
0000
0100
0000
0000
0001
0000
0000
0100
0000
0000
,
1000
0000
0001
0000
0010
0000
0100
0000
1000
0000
0001
0000
1000
0000
0000
0001
0000
0000
1000
0000
0000
0100
0000
0000
0010
0000
0000
0100
0000
0000
1000
0000
0000
0001
0000
0000
1000
0000
0000
0010
0000
0000
0001
0000
0000
0010
0000
0000
,
1000
0001
0010
0100
1000
0001
0010
0100
1000
0001
0010
0100
1000
0010
0100
0001
1000
0010
0100
0001
1000
0010
0100
0001
,
1000
0000
0010
0000
0100
0000
0001
0000
1000
0000
0001
0000
0010
0000
0000
0100
0000
0000
0010
0000
0000
0001
0000
0000
0100
0000
0000
0010
0000
0000
1000
0000
0000
0001
0000
0000
1000
0000
0000
0000
0000
0000
0100
0000
0000
0010
0000
0000
,
0001
0010
0100
1000
0001
0010
0100
0010
0001
1000
0100
0010
0001
0000
0100
0010
1000
0000
0100
0010
0002
0000
0000
0000
,
0013
0000
0100
0000
1000
0000
0001
0000
0010
0000
0100
0000
1000
0000
0100
0000
0010
0000
0001
0000
1000
0000
0001
0000
0010
0000
0100
0000
1000
0000
0001
0000
0000
0010
0000
0000
0001
0000
0000
0100
0000
0000
0010
0000
0000
1000
0000
0000
,
0001
0100
0010
1000
0001
0100
0010
1000
0001
0010
0100
1000
0001
0100
0010
1000
0001
0100
0010
1000
0001
0100
0010
1000
,
0001
0010
0100
1000
0001
0010
0100
1000
0001
0010
0100
1000
0001
1000
0100
0010
0001
1000
0100
0010
0001
1000
0010
0100
,
0001
1000
0010
0100
0001
1000
0010
0100
0001
0010
0100
1000
0001
0010
0100
1000
0001
0010
0100
1000
0001
1000
0010
0100
,
0001
1000
0010
0100
0001
1000
0001
0100
0010
1000
0001
0100
0010
0000
1000
0000
0010
0000
0100
0000
0001
0000
1000
0000
,
0001
0010
0100
1000
0001
0010
0100
1000
0100
0010
0001
1000
0200
0000
0000
0000
0000
0000
1300
0000
0000
0010
0000
0000
,
0100
0000
0100
0001
1000
0000
0001
0010
0001
0000
1000
0100
0001
0000
0100
0000
,
0110
0000
0000
0010
0001
0000
1000
0000
0001
0100
1000
0000
0100
0000
1000
0100
,
0001
0000
0010
0000
0100
0001
0100
0000
1000
0100
0001
0100
1000
0000
0010
0100
,
0001
0000
0000
0000
0000
0000
1000
0000
0000
0010
0000
0000
0001
0000
0000
0000
0000
0000
0010
0000
0000
0000
0000
0000
0001
0000
0000
0000
0010
0000
0000
0000
1000
0000
0000
0000
0100
0000
0000
0000
0001
0000
0000
0000
0100
0000
0000
0000
,
1000
0000
0000
0000
0010
0000
0000
0000
0100
0000
0000
0000
0001
0000
0000
0000
0000
0000
0010
0000
0000
0100
0000
0000
1000
0000
0000
0000
0000
0000
1001
0000
0000
0000
0000
0000
0001
0000
0000
0100
0000
0000
0010
0000
0000
1000
0000
0000
,
0001
0010
0100
0010
0001
0000
1000
0000
1001
0000
0001
0000
0100
0010
0100
0010
,
1000
0001
0100
0001
0010
0000
1000
0010
0001
0100
1000
0100
0002
0000
0010
0000
,
1003
0000
0010
0000
0100
0000
0001
0000
1000
0000
0010
0000
0100
0000
0001
0000
1000
0000
0010
0000
0100
0000
0001
0000
1000
0000
0000
0001
0000
0000
0010
0000
0000
0100
0000
0000
0010
0000
0000
0001
0000
0000
0100
0000
0000
0010
0000
0000
,
1000
0001
0100
0001
0010
0100
1000
0001
1000
0010
0100
0001
0010
0100
0010
0001
,
1000
0000
0010
0000
0100
0000
0001
0000
1000
0000
0010
0000
0100
0000
0001
0000
0100
0000
0010
0000
1000
0000
0001
0000
0100
0000
0000
0010
0000
0000
1000
0000
0000
0001
0000
0000
1000
0000
0000
0100
0000
0000
0010
0000
0000
0100
0000
0000
,
1000
0000
0010
0000
0100
0000
0001
0000
1000
0000
0010
0000
0100
0000
0000
0001
0000
0000
0010
0000
0000
0100
0000
0000
0010
0000
0000
0001
0000
0000
1000
0000
0000
0010
0000
0000
0001
0000
0000
0010
0000
0000
1000
0000
0000
0100
0000
0000
,
0001
1000
0010
0001
0100
1000
0100
0001
0000
0000
0000
0000
0000
0000
0000
0000
;
