#VERSION:0.83;
#TITLE:Bang Pad(Werk Mix);
#SUBTITLE:;
#ARTIST:Oyubi;
#TITLETRANSLIT:;
#SUBTITLETRANSLIT:;
#ARTISTTRANSLIT:;
#GENRE:;
#CREDIT:;
#MUSIC:Bang Pad(Werk Mix).ogg;
#BANNER:Bang Pad(Werk Mix).png;
#BACKGROUND:Bang Pad(Werk Mix)-jacket.png;
#CDTITLE:./CDTitles/DDR A20 PLUS.png;
#SAMPLESTART:73.500;
#SAMPLELENGTH:15.000;
#SELECTABLE:YES;
#OFFSET:0.000;
#BPMS:0.000=160.000;
#STOPS:;
#SPEEDS:32.000=0.750=2.000=0,
34.000=1.000=2.000=0,
48.000=0.750=2.000=0,
50.000=1.000=2.000=0,
76.000=0.750=2.000=0,
78.000=1.000=2.000=0,
80.000=0.750=2.000=0,
82.000=1.000=2.000=0,
108.000=0.750=2.000=0,
110.000=1.000=2.000=0,
112.000=0.750=2.000=0,
114.000=1.000=2.000=0,
140.000=0.750=2.000=0,
142.000=1.000=2.000=0,
144.000=0.750=2.000=0,
146.000=1.000=2.000=0,
176.000=0.750=2.000=0,
178.000=1.000=2.000=0,
180.000=0.500=16.000=0,
196.000=1.250=96.000=0
;
#BGCHANGES:;
#FGCHANGES:;

//--------------- dance-single - Prism ----------------
#NOTEDATA:;
#STEPSTYPE:dance-single;
#DESCRIPTION:Prism;
#DIFFICULTY:Challenge;
#METER:17;
#RADARVALUES:0,0,0,0,0;
#NOTES:
0000
0000
0000
0000
,
0000
0000
0000
0000
,
0000
0000
0000
0000
,
0000
0000
0000
0000
,
0000
0000
0000
0000
,
1001
0000
1000
0000
0010
0100
0001
0000
1000
0000
0001
0000
0010
0100
1000
0000
,
1001
0000
0001
0000
0100
0010
1000
0000
0001
0000
0010
0000
0100
0010
0001
0000
,
1001
0000
1000
0000
0010
0100
0001
0000
1000
0000
0001
0000
1000
0001
0010
0000
,
0100
0010
0100
0010
0100
0010
0100
0010
0100
0000
1000
0000
0001
0000
1000
0000
,
0010
0000
0100
0001
0000
0000
1000
0000
0001
0000
0010
0000
0100
0010
0000
0001
,
0000
1000
0001
0000
0100
0000
1000
0000
0100
0000
0000
0001
0000
0010
0100
0000
,
0010
0001
0000
1000
0000
0000
0001
0000
1000
0000
0010
0000
0100
0010
0000
1000
,
0001
0100
0001
0100
0001
0100
0001
0100
0001
0000
1000
0000
0001
0010
0100
1000
,
0001
0000
0000
0011
0000
0000
0010
0000
0100
0000
1000
0001
1000
0010
0000
0100
,
0001
1000
0001
0000
0010
0000
0001
0000
0011
0000
0000
0110
0000
0100
1000
0000
,
1001
0000
0000
0101
0000
0000
0100
0000
0010
0000
1000
0001
1000
0010
0000
0010
,
0100
0001
1000
0000
0001
0000
0010
0000
0110
0000
0100
1000
0000
1000
0001
0000
,
2001
0000
0000
3010
0100
0000
0001
0000
1000
0000
0010
1000
0010
0100
0000
0001
,
1000
0001
0010
0000
0100
0000
0010
0000
0001
0000
1000
0001
0100
0001
1000
0000
,
1010
0000
0110
0000
0101
0000
0001
0010
1000
0010
0001
0100
,
0010
1000
0010
1000
0010
1000
0010
1000
0010
0000
0100
0001
1000
0000
0001
0000
,
0011
0000
0010
0100
0000
1000
0001
0000
0010
0000
0100
0010
0001
0010
0000
0001
,
1000
0001
0100
0000
0010
1000
0010
0100
0001
0000
1000
0001
0000
0010
0100
0000
,
1100
0000
1000
0001
0000
0100
0010
0000
1000
0000
0001
1000
0001
0010
0000
0100
,
0010
0001
1000
0000
0001
1000
0010
0100
0001
0000
0010
1000
0000
0010
0100
0000
,
1000
0000
0001
1000
0010
0100
0001
0000
1000
0000
0001
0100
0010
0100
0000
0001
,
1000
0010
0100
0000
0001
0010
0100
0000
1000
0000
0010
0100
0001
1000
0001
0010
,
0100
0010
1000
0010
0001
0100
1000
0100
0001
0010
0100
1000
,
0001
0010
0001
0010
0001
0010
0001
0010
0001
0000
1000
0001
1000
0000
0010
0000
,
0100
0000
0001
1000
0000
0000
0010
0100
0001
0000
1000
0001
0010
0001
0100
0000
,
0010
1000
0001
1000
0100
0000
0010
0100
1000
0000
0001
1000
0000
0010
0100
0001
,
1000
0000
0000
1000
0001
0000
0010
0100
1000
0000
0001
0100
0010
0100
0001
0000
,
0010
0100
1000
0001
1000
0000
0010
0100
0001
0000
0001
1000
0000
1000
0010
0000
,
0110
0000
0000
0100
0001
0000
1000
0001
1000
0000
0010
0100
0010
1000
0001
0000
,
1000
0100
0010
0100
1000
0000
0001
0010
0100
0000
0010
0001
1000
0001
0100
0010
,
1000
0000
0010
0100
1000
0001
0010
1000
0100
0001
1000
0010
,
0001
1000
0001
1000
0001
1000
0001
1000
0001
0000
0100
0000
0001
0000
1000
0000
,
0001
0100
1000
0000
0000
0100
0010
0000
1000
0100
0001
0000
0000
0100
0010
0000
,
0001
0010
1000
0000
0000
0010
0100
0000
1000
0010
0001
0000
0000
0010
0100
0000
,
1000
0100
0001
0000
0000
0010
0100
0000
0010
0001
0100
0000
0000
0010
1000
0000
,
0100
1000
0010
0000
0000
0100
0001
0010
0001
0100
0010
0000
0000
1000
0001
0000
,
0010
0000
0100
0010
0001
0000
1000
0000
1001
0000
0001
0000
0100
0010
0000
0000
,
1000
0000
0010
0100
0001
0000
1000
0000
1001
0000
0001
0000
0100
0010
1000
0000
,
1010
0000
0000
0000
0010
0100
0001
0000
1000
0000
0001
0000
0010
0100
1000
0000
,
0100
0010
0100
0010
0100
0010
0100
0010
0100
0000
1000
0000
0001
0000
1000
0000
,
0010
0000
0100
0000
0001
0000
1000
0100
0001
0100
1000
0000
,
0010
0000
0000
0000
0100
0000
0000
0000
0001
0000
0000
0000
0010
0000
0000
0000
0100
0000
0010
0000
0001
0000
0100
0010
,
1000
0010
1000
0001
0100
0010
1000
0001
0010
0100
0010
0001
,
1000
0000
0010
0000
1000
0000
0100
0000
1000
0000
0010
0000
1000
0000
0100
0000
0010
0000
0001
0010
0100
1000
0001
0010
,
0100
0000
0010
0000
0100
0000
1000
0000
0001
0000
1000
0000
0010
0000
0100
0000
0001
0000
1000
0100
0010
0000
0100
0000
,
1000
0000
0010
0000
0100
0000
0010
0000
1000
0000
0100
0000
0001
0000
0100
0000
1000
0000
0010
0000
0100
0000
0010
1000
,
0001
0000
1000
0000
0100
0000
0010
0000
0100
0000
1000
0000
0001
0000
0100
0000
1000
0000
0100
0010
1000
0000
0010
0000
,
1000
0000
0100
0000
0001
0000
1000
0000
0010
0000
0001
0000
1000
0000
0100
0000
0001
0000
0100
1000
0001
0010
0100
1000
,
0001
0000
0010
0000
0001
0000
1000
0000
0010
0000
0100
0000
1000
0000
0100
0000
0010
0000
1000
0010
0100
0000
0001
0000
,
0010
0000
0100
0000
0010
0000
0001
0000
0100
0000
0010
0000
0001
0000
0010
0000
0100
0000
0001
0000
1000
0000
0100
0010
,
0001
0000
1000
0000
0010
0000
0001
0000
1000
0000
0100
0000
0001
0000
1000
0000
0010
0000
0001
0010
0100
0000
0001
0000
,
0010
0000
1000
0000
0010
0000
0001
0000
0010
0000
1000
0000
0010
0000
0100
0000
1000
0000
0001
0010
0100
1000
0001
0010
,
0100
0000
1000
0000
0010
0000
1000
0000
0100
0000
0010
0000
1000
0000
0010
0000
0001
0000
0010
0001
0100
0000
0010
0000
,
0001
0000
0010
0000
0100
0000
0001
0000
0010
0000
0100
0000
0001
0000
0100
0000
0010
0000
1000
0000
0010
0000
0100
1000
,
0001
0000
1000
0000
0001
0000
1000
0000
0010
0000
0100
0000
1000
0000
0100
0000
0010
0000
1000
0010
0100
0000
0010
0000
,
0001
0000
1000
0000
0100
0000
0001
0000
1000
0000
0010
0000
0001
0000
1000
0000
0100
0000
0001
0100
0010
1000
0001
0100
,
0010
0000
1000
0000
0001
0000
1000
0000
0010
0000
0100
0000
1000
0000
0100
0000
0010
0000
1000
0100
0010
0000
0100
0000
,
0001
0000
0100
0000
0010
0000
0001
0000
0100
0000
0010
0000
0001
0000
0010
0000
0100
0000
1000
0000
0100
0000
0010
1000
,
0001
0000
0010
0000
1000
0000
0001
0000
0100
0000
1000
0000
0010
0000
0001
0000
0010
0000
0100
0001
1000
0000
0001
0000
,
0010
0000
1000
0000
0001
0000
0100
0000
1000
0000
0001
0000
0010
0000
1000
0000
0010
0000
0001
0010
0100
1000
0001
0010
,
0100
0000
0010
0000
0001
0000
0100
0000
0010
0000
0100
0000
1000
0000
0100
0000
0010
0000
1000
0010
0100
0000
0010
0000
,
0001
0000
0010
0000
0100
0000
0001
0000
0010
0000
0100
0000
0001
0000
0100
0000
0010
0000
1000
0000
0010
0000
0100
1000
,
0001
0000
1000
0000
0010
0000
0100
0000
0001
0000
0010
0000
1000
0000
0010
0000
0100
0000
1000
0001
0010
0000
0100
0000
,
0001
0000
1000
0000
0010
0000
0001
0000
1000
0000
0100
0000
0001
0000
1000
0000
0010
0000
0001
0010
0100
1000
0001
0010
,
0100
0010
0100
0001
0100
0010
1000
0010
0100
1000
0010
0100
,
1000
0000
0100
0000
0010
0000
0001
0000
0010
0000
0100
0000
0001
0000
0010
0000
0100
0000
0001
0000
0100
0000
0010
0001
,
1000
0000
0010
0000
0001
0000
0010
0000
1000
0000
0100
0000
0001
0000
0100
0000
1000
0000
0100
1000
0010
0000
0100
0000
,
1000
0000
0001
0000
0010
0000
1000
0000
0100
0000
0010
0000
0001
0010
0100
1000
0001
0010
0100
1000
0001
0010
0100
1000
,
0001
0000
0000
0000
;
