#TITLE:Wild Side;
#SUBTITLE:;
#ARTIST:ALI;
#TITLETRANSLIT:;
#SUBTITLETRANSLIT:;
#ARTISTTRANSLIT:;
#GENRE:;
#CREDIT:;
#BANNER:wildside-bnpng;
#BACKGROUND:wildside-bg.png;
#LYRICSPATH:;
#CDTITLE:;
#MUSIC:wildside.ogg;
#OFFSET:1.122306;
#SAMPLESTART:63.750000;
#SAMPLELENGTH:14.300000;
#LASTBEATHINT:0.191320;
#SELECTABLE:YES;
#DISPLAYBPM:134.000000;
#BPMS:0.000000=134.089005
,5.000000=134.082993
,6.000000=134.089005
,7.000000=134.082993
,8.000000=134.089005
,9.000000=134.082993
,10.000000=134.089005
,11.000000=134.082993
,12.000000=134.089005
,13.000000=131.203003
,14.000000=136.968994
,15.000000=131.783005
,15.500000=136.403000
,16.000000=134.089005
,17.000000=134.082993
,18.000000=134.089005
,19.000000=134.082993
,19.500000=134.063004
,20.000000=134.089005
,21.000000=134.082993
,22.000000=134.089005
,23.000000=134.082993
,23.500000=134.102997
,24.000000=134.089005
,25.000000=134.082993
,26.000000=134.089005
,27.000000=134.082993
,27.500000=134.063004
,28.000000=135.852005
,29.000000=130.679001
,30.000000=135.830994
,31.000000=141.406998
,32.000000=132.352005
,33.000000=134.069000
,34.000000=137.639999
,35.000000=137.619995
,36.000000=137.660004
,37.000000=137.619995
,38.000000=130.679001
,39.000000=133.352005
,40.000000=136.639999
,41.000000=134.069000
,42.000000=130.679001
,43.000000=130.692001
,44.000000=134.123001
,45.000000=134.143005
,46.000000=137.237000
,47.000000=129.570999
,48.000000=132.419006
,49.000000=134.136993
,50.000000=130.744003
,51.000000=134.136993
,52.000000=134.117004
,53.000000=135.899994
,54.000000=134.136993
,55.000000=134.156998
,56.000000=134.117004
,57.000000=132.419006
,58.000000=134.136993
,59.000000=135.899994
,60.000000=130.744003
,61.000000=137.712006
,62.000000=134.136993
,63.000000=134.156998
,64.000000=134.117004
,65.000000=134.156998
,66.000000=134.117004
,67.000000=134.156998
,68.000000=135.899994
,69.000000=134.136993
,70.000000=135.899994
,71.000000=134.136993
,72.000000=132.419006
,73.000000=135.899994
,74.000000=132.419006
,75.000000=132.399002
,76.000000=134.136993
,77.000000=134.156998
,78.000000=134.117004
,79.000000=132.419006
,80.000000=135.013000
,81.000000=132.419006
,82.000000=134.136993
,83.000000=135.899994
,84.000000=133.272003
,85.000000=134.136993
,86.000000=134.156998
,87.000000=133.272003
,88.000000=134.136993
,89.000000=135.899994
,90.000000=132.419006
,91.000000=135.013000
,92.000000=134.136993
,93.000000=135.899994
,94.000000=128.309006
,95.000000=135.013000
,96.000000=135.899994
,97.000000=134.136993
,98.000000=134.117004
,99.000000=133.272003
,100.000000=133.292007
,101.000000=134.136993
,102.000000=132.419006
,103.000000=135.899994
,104.000000=135.880005
,105.000000=133.272003
,106.000000=131.576004
,107.000000=135.013000
,108.000000=139.572006
,109.000000=133.272003
,110.000000=134.136993
,111.000000=134.156998
,112.000000=133.272003
,113.000000=133.136993
,114.000000=132.576004
,115.000000=131.556000
,116.000000=133.272003
,117.000000=134.292007
,118.000000=135.712006
,119.000000=135.692001
,120.000000=136.013000
,121.000000=135.136993
,122.000000=135.156998
,123.000000=134.117004
,124.000000=134.156998
,125.000000=132.419006
,126.000000=133.399002
,127.000000=134.899994
,128.000000=134.136993
,129.000000=132.419006
,130.000000=131.744003
,131.000000=134.013000
,132.000000=134.136993
,133.000000=132.419006
,134.000000=133.272003
,135.000000=133.292007
,136.000000=133.251999
,137.000000=135.013000
,138.000000=136.800003
,139.000000=132.419006
,140.000000=133.272003
,141.000000=133.292007
,142.000000=135.013000
,143.000000=133.677002
,144.000000=133.272003
,145.000000=134.852997
,146.000000=133.600006
,147.000000=133.453003
,148.000000=132.613007
,148.500000=132.953003
,149.000000=133.177002
,149.500000=133.516998
,150.000000=133.716995
,150.500000=135.057007
,151.000000=135.537003
,151.500000=136.197006
,152.000000=136.537003
,153.000000=135.013000
,154.000000=134.136993
,155.000000=135.899994
,156.000000=135.972000
,157.000000=134.472000
,158.000000=133.292007
,159.000000=132.419006
,160.000000=133.272003
,161.000000=131.576004
,162.000000=132.419006
,163.000000=135.899994
,164.000000=135.013000
,165.000000=136.800003
,166.000000=134.136993
,167.000000=134.117004
,168.000000=130.921997
,169.000000=134.013000
,170.000000=134.136993
,171.000000=134.156998
,172.000000=134.117004
,173.000000=135.899994
,174.000000=134.136993
,174.500000=134.156998
,175.000000=134.136993
,175.500000=134.156998
,176.000000=134.117004
,176.500000=134.136993
,177.000000=137.712006
,177.500000=135.692001
,178.000000=130.343994
,178.500000=132.324005
,179.000000=132.856995
,179.500000=132.876999
,180.000000=132.856995
,180.500000=132.876999
,181.000000=132.837006
,181.500000=132.856995
,182.000000=132.876999
,182.500000=132.856995
,183.000000=132.837006
,183.500000=132.856995
,184.000000=132.876999
,184.500000=132.856995
,185.000000=132.837006
,185.500000=132.856995
,186.000000=132.009003
,186.500000=131.988998
,187.000000=133.716995
,187.500000=133.737000
,188.000000=133.716995
,188.500000=133.737000
,189.000000=133.697006
,189.500000=134.716995
,190.000000=136.268997
,191.000000=133.009003
,191.500000=132.029007
,192.000000=133.716995
,192.500000=133.697006
,193.000000=132.856995
,193.500000=132.876999
,194.000000=135.123001
,194.500000=135.102997
,195.000000=135.143005
,195.500000=135.102997
,196.000000=135.143005
,196.500000=135.102997
,197.000000=135.123001
,197.500000=135.162994
,198.000000=135.143005
,198.500000=135.162994
,199.000000=135.143005
,199.500000=135.123001
;
#STOPS:
;
#BGCHANGES:2.313=beastars-op.avi=1.000=0=0=1=====,
201.500=video end.jpg=1.000=1=0=1===CrossFade==,
99999=-nosongbg-=1.000=0=0=0 // don't automatically add -songbackground-
;
#KEYSOUNDS:;
#ATTACKS:;

//---------------dance-single - ----------------
#NOTES:
     dance-single:
     :
     Hard:
     13:
     0.606589,0.670177,0.332594,0.831486,0.454545,383.000000,353.000000,30.000000,75.000000,0.000000,0.000000,0.606589,0.670177,0.332594,0.831486,0.454545,383.000000,353.000000,30.000000,75.000000,0.000000,0.000000:
0000
0000
0000
0000
,
0000
0000
0000
0000
,
0000
0000
0000
0000
,
0000
0000
0010
0000
0000
0000
1000
0000
0000
0000
0100
0000
0000
0001
0000
0010
,
0000
0000
0010
0000
0000
0000
0001
0000
0000
0000
0100
0000
0000
1000
0000
0010
,
0000
0000
0010
0000
0000
0000
1000
0000
0000
0000
0100
0000
0000
0001
0000
0010
,
0000
0000
0010
0000
0000
0000
0001
0000
0000
0000
0100
0000
0000
1000
0000
0010
,
0100
0000
0001
0000
0010
0000
0001
0000
0100
0000
0010
0000
1000
0010
0000
1000
,
0010
0000
0100
0000
0001
0000
0010
0000
0100
0000
0010
0000
0001
0100
0000
0001
,
0100
0000
0010
0000
1000
0000
0100
0000
0010
0000
0100
0000
1000
0010
0000
1000
,
0010
0100
0001
0010
0100
0010
1001
0000
,
1000
0000
0000
0000
1100
0000
0000
0000
0010
0000
0001
0000
0100
0001
0000
1000
,
0100
0000
0000
0000
0011
0000
0000
0000
0100
0000
1000
0000
0001
0010
0000
1000
,
0010
0000
0000
0000
0101
0000
0000
0000
0010
0000
1000
0000
0100
1000
0000
0001
,
0100
0000
0010
0100
0001
0010
1100
0000
,
0021
0000
0000
0130
0000
0010
0000
0100
2000
0000
0000
0000
3020
0000
0000
0130
,
0000
0001
0000
1000
0001
0000
0000
0000
0100
0000
0010
0000
1000
0000
0000
0000
,
1020
0000
0000
0130
0000
0010
0000
0100
0002
0000
0000
0000
0023
0000
0000
0130
,
0000
1000
0000
0001
1000
0000
0000
0000
0100
0000
0010
0000
0001
0000
0000
0000
,
0210
0000
0000
0301
0000
1000
0000
0100
0020
0000
0000
0000
0230
0000
0000
1300
,
0000
0001
0000
0100
0001
0000
0000
0000
0100
0000
0001
0000
1000
0000
0000
0000
,
0100
1000
0100
1000
0000
0000
0100
0001
0100
0001
0000
0000
1000
0000
0000
0000
,
0011
1100
1010
1001
,
0100
0000
0001
0000
0100
0000
1000
0010
0000
0010
0100
0000
0101
0000
0000
0000
,
0100
0000
1000
0000
0100
0000
0001
0010
0000
0010
0100
0000
1100
0000
0000
0000
,
0010
0000
0001
0000
0100
0000
0010
1000
0000
1000
0100
0000
0110
0000
0000
0000
,
0100
0000
0010
0000
0001
0000
1000
0010
0000
0100
0001
0000
1001
0000
0000
0000
,
0100
0010
0000
0100
0010
0100
0010
0000
0001
1000
0000
1100
0000
0110
0000
0011
,
0000
0001
0100
0020
0000
0000
0000
0000
2030
0000
0100
0000
3002
0000
0100
0000
,
2003
3020
0230
0302
2003
0010
3002
0010
,
0203
0320
2030
3200
0320
0001
0230
1000
,
0320
0100
0032
0010
2003
0100
3002
0100
,
2003
0010
3002
0010
2003
3200
0320
0230
,
2300
3002
0203
0320
0230
0302
2003
3020
,
0230
0302
0023
0230
2300
3200
0302
0203
,
2300
3020
0032
0023
2030
3200
0320
0032
,
2003
0000
3100
0010
0000
0000
1001
0000
0001
0000
0010
0000
0001
0100
0010
0000
,
1000
0000
0010
0000
1000
0100
0010
0000
0100
0000
1000
0000
0010
0100
0001
0000
,
0100
0000
0001
0000
0010
0100
1000
0000
0010
0000
1000
0000
0001
0100
0010
0000
,
0100
0000
0001
0000
1000
0100
0010
0000
0022
0000
0033
0000
2200
0000
3300
0000
,
0220
0000
0330
0000
1001
0000
0010
0000
0100
0000
0001
0000
0010
0001
0100
0000
,
0100
0000
1000
0000
0010
1000
0100
0000
0010
0000
0001
0000
0100
0001
0010
0000
,
0010
0000
1000
0000
0100
1000
0010
0000
0100
0001
0100
0000
0100
1000
0100
0000
,
0010
0001
0010
0000
0010
1000
0010
0000
0022
0000
0000
0033
2200
0000
0000
3300
,
2020
0000
0000
3030
2002
0000
0000
3003
0000
0000
0100
0000
0000
0000
0100
0000
,
0000
0100
0000
0100
0000
0100
0000
0100
,
0000
0100
0000
0100
0010
1000
0100
1000
,
0010
0000
0100
0000
0001
0010
0000
0001
0010
0000
0100
0000
0010
0000
0001
0000
,
0100
0000
0010
0000
1000
0100
0000
0000
0110
0000
0000
0001
0000
0100
0000
0010
,
1000
0000
0100
0000
0010
0000
0001
0000
1000
0100
0010
0001
1000
0000
0220
0000
,
0000
0000
0000
0330
0000
0000
0000
0000
;

//---------------dance-single - ----------------
#NOTES:
     dance-single:
     :
     Challenge:
     15:
     0.684194,0.865646,0.521064,0.654102,0.604213,432.000000,385.000000,47.000000,59.000000,0.000000,0.000000,0.684194,0.865646,0.521064,0.654102,0.604213,432.000000,385.000000,47.000000,59.000000,0.000000,0.000000:
0000
0000
0000
0000
,
0000
0000
0000
0000
,
0000
0000
0000
0000
,
0000
0000
1010
0000
0000
0000
1001
0000
0000
0000
1100
0000
0000
0110
0000
0011
,
0000
0000
0011
0000
0000
0000
1001
0000
0000
0000
0101
0000
0000
0110
0000
1010
,
0000
0000
1010
0000
0000
0000
1001
0000
0000
0000
1100
0000
0000
0110
0000
0011
,
0000
0000
0011
0000
0000
0000
1001
0000
0000
0000
0101
0000
0000
0110
0000
1000
,
0100
0001
0100
1000
0100
0001
0100
0010
,
0001
0000
0100
0000
0010
1000
0100
0000
0001
0000
0100
0000
1000
0010
0100
0000
,
0001
0000
0100
0010
1000
0000
0100
0000
0001
0000
0100
0000
1000
0010
0100
0000
,
0001
0010
1000
0000
0010
0001
0100
0000
0001
0000
0010
0100
2000
0000
0000
0000
,
3001
0000
0100
0000
1000
0000
0100
0000
0001
0000
0010
0000
0100
1000
0000
0010
,
0100
0000
0001
0000
0100
0000
1000
0000
0100
0000
0001
0000
0010
0100
0000
1000
,
0010
0000
0001
0000
1000
0000
0100
0000
0001
0000
0010
0000
0100
1000
0000
0010
,
0001
0000
0010
0000
1000
0000
0001
0000
0100
0000
1000
0000
0100
0001
0000
1000
,
0200
0000
0000
0310
0000
0001
0000
0100
2000
0000
0000
0000
3200
0000
0000
0301
,
0000
0010
0000
0100
2000
0000
0001
0000
3001
0000
0001
0000
0100
0000
0000
0000
,
0200
0000
0000
0310
0000
1000
0000
0100
0002
0000
0000
0000
0203
0000
0000
1300
,
0000
0010
0000
0100
0002
0000
1000
0000
1003
0000
1000
0000
0100
0000
0000
0000
,
0021
0000
0000
0130
0000
1000
0000
0010
0002
0000
0000
0000
0023
0000
0000
1030
,
0000
0100
0000
0010
0002
0000
1000
0000
1003
0000
1000
0000
0010
0000
0000
0000
,
0100
0001
0010
0001
0000
0000
0100
1000
0010
1000
0000
0000
0100
0000
0000
0000
,
0011
1100
0101
1010
,
1001
0000
1000
0000
0100
0000
0001
0100
0000
1000
0010
0000
0101
0000
0000
0000
,
1001
0000
0001
0000
0100
0000
1000
0100
0000
0001
0010
0000
1100
0000
0000
0000
,
0011
0000
0001
0000
0100
0000
1000
0001
0000
0010
1000
0000
0011
0000
0000
0000
,
1010
0000
1000
0000
0100
0000
0001
1000
0000
0010
0001
0000
1010
0000
0000
0000
,
0100
0000
0010
0000
0000
0000
0100
0000
0010
0000
1000
0000
0100
0000
0010
0100
0010
0000
0001
0000
1000
0000
0010
0000
0000
0000
1010
0000
0000
0000
0100
0000
,
0001
1000
0100
0002
0000
1003
0010
0000
0200
0000
0001
0000
0010
0000
1000
0000
,
0320
0100
1000
0100
0032
0010
1000
0100
,
2003
0010
0001
0100
3020
0100
1000
0001
,
0230
0010
0001
1000
0302
0010
0203
1000
,
0320
0000
0001
0000
2030
0000
0010
0000
3002
0000
0200
0003
2000
0300
0002
3000
,
0020
0003
2000
0030
0200
3000
0020
0300
0002
0030
2000
0003
0020
3000
0002
0030
,
2000
0003
0200
3000
0020
0300
0200
0030
0002
0300
2000
0003
0200
3000
0002
0300
,
2000
0003
0020
3000
0002
0030
0200
0003
0020
0300
2000
0030
0200
3000
0002
0300
,
0200
0003
1300
0010
0000
0000
1010
0000
0100
0000
0001
0000
0010
0100
1000
0100
,
0000
0010
0001
0000
0100
0010
1000
0000
0001
0000
0010
0000
0100
1000
0010
1000
,
0000
0100
0010
0000
0001
0100
0010
0000
1000
0000
0100
0000
0010
0001
0100
0001
,
0000
0010
0100
0000
1000
0010
0100
0000
0001
0010
0001
0000
0100
1000
0100
0000
,
0010
1000
0010
0000
0001
0100
0001
0000
0010
0000
0100
0000
1000
0100
0001
0100
,
0000
1000
0010
0000
0100
0001
0010
0000
0100
0000
0010
0000
0001
0100
1000
0100
,
0000
0001
0010
0000
0100
1000
0010
0000
0100
0001
0010
0100
1000
0100
0010
0001
,
0100
0010
1000
0010
0100
0000
0001
0000
0020
0000
0000
0000
2030
0000
0000
0000
,
3200
0302
0003
0000
,
0000
0000
0000
0000
,
0000
0000
0000
0000
0101
1000
1100
0001
,
0011
0000
0100
1000
0000
0010
0000
0100
0101
0000
1000
0000
1100
0000
0001
0000
,
0011
0000
0100
1000
0000
0010
0100
0001
0101
0000
0000
1100
0000
1001
0000
0010
,
0100
0000
0000
1100
0000
0000
1010
0000
0000
0101
0000
0000
0001
0010
0100
1000
0100
0010
0001
0000
0000
2020
0000
0000
,
0000
0000
0000
3030
0000
0000
0000
0000
;

//---------------dance-single - ----------------
#NOTES:
     dance-single:
     :
     Medium:
     10:
     0.394362,0.446785,0.110865,0.343681,0.116408,249.000000,239.000000,10.000000,31.000000,0.000000,0.000000,0.394362,0.446785,0.110865,0.343681,0.116408,249.000000,239.000000,10.000000,31.000000,0.000000,0.000000:
// measure 0
0000
0000
0000
0000
,  // measure 1
0000
0000
0000
0000
,  // measure 2
0000
0000
0000
0000
,  // measure 3
0000
0000
0000
0000
,  // measure 4
0000
0000
0000
0000
0000
0000
0000
0000
0000
0000
0000
0000
0000
0000
0000
0010
,  // measure 5
0000
0000
0000
0000
0000
0000
0000
0000
0000
0000
0000
0000
0000
0000
0000
0100
,  // measure 6
0000
0000
0000
0000
,  // measure 7
0100
0000
0100
0000
0001
1000
0100
0000
,  // measure 8
1000
0010
1000
0000
0001
0010
0001
0000
,  // measure 9
0010
0100
1000
0010
0100
0000
0010
1000
,  // measure 10
0100
0010
0100
0010
0100
0000
1001
0000
,  // measure 11
0100
0000
0010
0000
1000
0010
1000
0000
,  // measure 12
0100
0000
0010
0000
0001
0010
0001
0000
,  // measure 13
0100
0000
0010
0000
1000
0001
0100
0000
,  // measure 14
0010
0000
1000
0000
0001
0010
0100
0000
,  // measure 15
0020
0000
0000
0031
0000
1000
0000
0001
2000
0000
0000
0000
3200
0000
0000
0000
,  // measure 16
0310
0001
1000
0000
0010
1000
0001
0000
,  // measure 17
0200
0000
0000
0310
0000
0100
0000
0010
0200
0000
0000
0000
0302
0000
0000
0000
,  // measure 18
1003
0100
0010
0000
0001
0100
0010
0000
,  // measure 19
2000
0000
0000
3100
0000
1000
0000
0100
2000
0000
0000
0000
3200
0000
0000
0000
,  // measure 20
0310
0001
0100
0000
0010
1000
0100
0000
,  // measure 21
1000
0000
0000
1010
0000
0000
0001
0000
0000
0011
0000
0000
0000
0000
0000
0000
,  // measure 22
0100
0100
0110
1001
,  // measure 23
0100
0001
0100
0001
1000
0001
1000
0000
,  // measure 24
0100
1000
0100
1000
0001
1000
0001
0000
,  // measure 25
0010
0001
0010
0001
0100
0010
0100
0000
,  // measure 26
0010
1000
0010
1000
0100
0010
0100
0000
,  // measure 27
0020
0000
0000
0000
0000
0000
0000
0000
0130
0000
0000
1000
0000
0001
0000
1000
,  // measure 28
0000
0100
0000
0020
0000
0000
0000
0000
0032
0000
0000
0000
0100
0000
0000
0000
,  // measure 29
1003
0010
0200
0000
0320
0000
1000
0000
,  // measure 30
0130
0001
0020
0000
0230
0000
1000
0000
,  // measure 31
0310
0001
0200
0000
0320
0000
2030
0000
,  // measure 32
3200
0000
0320
0000
0031
1000
0100
0010
,  // measure 33
0001
1000
0020
0000
0130
0001
1000
0100
,  // measure 34
0010
0001
0200
0000
0320
0000
1000
0000
,  // measure 35
0230
0001
0320
2030
,  // measure 36
3200
0000
0320
0000
0031
0100
0001
0100
,  // measure 37
0010
0100
0001
0000
1000
0100
1000
0100
,  // measure 38
0010
0100
1000
0000
0010
0100
0001
0010
,  // measure 39
0100
1000
0010
0000
0100
0000
0101
0000
,  // measure 40
1100
0000
1001
0000
0010
1000
0100
1000
,  // measure 41
0001
0100
0010
0000
0100
0001
0010
0001
,  // measure 42
0100
0010
1000
0000
0100
0010
0100
0010
,  // measure 43
0001
1000
0001
1000
0100
0000
0011
0000
,  // measure 44
0100
1010
0000
0000
,  // measure 45
0000
0000
0000
0000
,  // measure 46
0000
0000
0100
0100
,  // measure 47
0010
1000
0100
1000
0100
0000
0100
0000
,  // measure 48
0010
0000
0001
0000
0100
0000
0001
0000
0100
0000
0000
0001
0000
1000
0000
0001
,  // measure 49
1000
0100
0010
0001
2000
0000
0000
0002
,  // measure 50
0000
0000
0000
3003
0000
0000
0000
0000
;

//---------------dance-single - ----------------
#NOTES:
     dance-single:
     :
     Easy:
     7:
     0.291416,0.363013,0.055432,0.598670,0.022173,184.000000,179.000000,5.000000,54.000000,0.000000,0.000000,0.291416,0.363013,0.055432,0.598670,0.022173,184.000000,179.000000,5.000000,54.000000,0.000000,0.000000:
// measure 0
0000
0000
0000
0000
,  // measure 1
0000
0000
0000
0000
,  // measure 2
0000
0000
0000
0000
,  // measure 3
0000
0000
0000
0000
,  // measure 4
0000
0000
0000
0000
,  // measure 5
0000
0000
0000
0000
,  // measure 6
0000
0000
0000
0000
,  // measure 7
0100
0000
0010
0000
0100
0010
0100
0000
,  // measure 8
0001
0000
1000
0000
0001
1000
0001
0000
,  // measure 9
0010
0000
0100
0000
0010
0100
0010
0000
,  // measure 10
0001
0000
1000
0000
0001
1000
0100
0000
,  // measure 11
0010
0000
0001
0000
0010
0100
1000
0000
,  // measure 12
0010
0000
1000
0000
0010
0100
0001
0000
,  // measure 13
1000
0000
0001
0000
1000
0001
0100
0000
,  // measure 14
0001
0000
1000
0000
0001
1000
0100
0000
,  // measure 15
0020
0230
2300
3002
,  // measure 16
0103
0010
0100
0000
0010
0000
0010
0000
,  // measure 17
0200
0302
2003
3200
,  // measure 18
0310
0100
0010
0000
0100
0000
0100
0000
,  // measure 19
2000
3002
0203
0320
,  // measure 20
1030
0001
0100
0000
0001
1000
0100
0000
,  // measure 21
0010
0010
0100
0100
,  // measure 22
0011
1001
1010
1001
,  // measure 23
0200
0010
0010
0310
,  // measure 24
2000
0010
0010
3010
,  // measure 25
0002
0010
0010
0013
,  // measure 26
2000
0001
0001
3001
,  // measure 27
0100
0000
0000
0000
0000
0000
0000
0000
0010
0000
0000
0100
0000
0010
0000
0100
,  // measure 28
0000
0000
0000
0010
0000
0000
0000
0000
2000
0000
0000
0000
3200
0000
0000
0000
,  // measure 29
2300
3020
0230
0000
,  // measure 30
0320
0230
0302
0000
,  // measure 31
2003
3200
0320
0000
,  // measure 32
0032
2003
3002
0203
,  // measure 33
0320
2030
3002
0023
,  // measure 34
0230
2300
3002
0203
,  // measure 35
0302
2003
3200
0320
,  // measure 36
0230
2300
3010
0100
,  // measure 37
0001
0100
0001
0000
0010
0000
0100
0000
,  // measure 38
1000
0100
1000
0000
0010
0000
0100
0000
,  // measure 39
0001
0010
0001
0000
2000
0000
3200
0000
,  // measure 40
0320
0032
1003
0010
,  // measure 41
0100
0001
0010
0000
0001
0000
0010
0000
,  // measure 42
0100
1000
0010
0000
0100
0001
1000
0000
,  // measure 43
0100
1000
0001
0000
0020
0000
0230
0000
,  // measure 44
2300
3002
0003
0000
,  // measure 45
0000
0000
0000
0000
,  // measure 46
0000
0000
0100
0100
,  // measure 47
0010
0010
1000
1000
,  // measure 48
0001
0001
1001
0000
,  // measure 49
0000
0000
0000
0000
0010
0100
0010
0200
,  // measure 50
0000
0000
0000
0300
0000
0000
0000
0000
;

//---------------dance-single - ----------------
#NOTES:
     dance-single:
     :
     Beginner:
     4:
     0.174216,0.279241,0.022173,0.166297,0.000000,110.000000,108.000000,2.000000,15.000000,0.000000,0.000000,0.174216,0.279241,0.022173,0.166297,0.000000,110.000000,108.000000,2.000000,15.000000,0.000000,0.000000:
// measure 0
0000
0000
0000
0000
,  // measure 1
0000
0000
0000
0000
,  // measure 2
0000
0000
0000
0000
,  // measure 3
0000
0000
0000
0000
,  // measure 4
0000
0000
0000
0000
,  // measure 5
0000
0000
0000
0000
,  // measure 6
0000
0000
0000
0000
,  // measure 7
0100
0000
0100
0000
,  // measure 8
0010
0000
0010
0000
,  // measure 9
1000
0000
1000
0000
,  // measure 10
0001
0000
0001
0000
,  // measure 11
1000
0000
0100
0100
,  // measure 12
0100
0000
0010
0010
,  // measure 13
0010
0000
0001
0001
,  // measure 14
0001
0000
1000
1000
,  // measure 15
1000
0000
0001
0000
,  // measure 16
0100
0001
0100
0000
,  // measure 17
0001
0000
1000
0000
,  // measure 18
0100
1000
0100
0000
,  // measure 19
1000
0000
0001
0000
,  // measure 20
0010
0001
0010
0000
,  // measure 21
0001
0000
1000
0000
,  // measure 22
0010
0100
0010
0100
,  // measure 23
0010
0000
1000
1000
,  // measure 24
0100
0000
0001
0001
,  // measure 25
0100
0000
1000
1000
,  // measure 26
0010
0000
0001
0001
,  // measure 27
0010
0000
0000
0000
,  // measure 28
0000
0000
0200
0000
,  // measure 29
2300
0000
3002
0000
,  // measure 30
0203
0000
0320
0000
,  // measure 31
2030
0000
3002
0000
,  // measure 32
0023
0000
0230
0000
,  // measure 33
1300
1000
2000
0000
,  // measure 34
3001
0001
0002
0000
,  // measure 35
0103
0100
0200
0000
,  // measure 36
0320
0000
1030
0100
,  // measure 37
1000
0000
0001
0100
,  // measure 38
0001
0000
1000
0010
,  // measure 39
0100
0000
0001
0010
,  // measure 40
0100
0000
1000
0010
,  // measure 41
1000
0000
0001
0010
,  // measure 42
0001
0000
0100
0001
,  // measure 43
0010
0000
0100
0010
,  // measure 44
0100
0010
0000
0000
,  // measure 45
0000
0000
0000
0000
,  // measure 46
0000
0000
0100
0100
,  // measure 47
1000
0001
0100
0100
,  // measure 48
0001
1000
1001
0000
,  // measure 49
0000
0000
0000
0000
0000
0000
0000
0220
,  // measure 50
0000
0000
0000
0330
0000
0000
0000
0000
;
