#TITLE:Too Much Time;
#SUBTITLE:;
#ARTIST:A2;
#TITLETRANSLIT:;
#SUBTITLETRANSLIT:;
#ARTISTTRANSLIT:;
#GENRE:;
#CREDIT:;
#BANNER:Too Much Time_BN.png;
#BACKGROUND:Too Much Time_BG.png;
#LYRICSPATH:;
#CDTITLE:;
#MUSIC:Too Much Time.ogg;
#OFFSET:-0.190450;
#SAMPLESTART:96.166000;
#SAMPLELENGTH:16.000000;
#SELECTABLE:YES;
#BPMS:0.000000=130.009995
;
#STOPS:
;
#BGCHANGES:;
#KEYSOUNDS:;
#ATTACKS:;

//---------------dance-single - ----------------
#NOTES:
     dance-single:
     :
     Hard:
     11:
     0.448286,0.471969,0.211456,0.296038,0.000000,371.000000,346.000000,25.000000,35.000000,0.000000,0.000000,0.448286,0.471969,0.211456,0.296038,0.000000,371.000000,346.000000,25.000000,35.000000,0.000000,0.000000:
0000
0000
0000
0000
,
0000
0000
0000
0000
,
0000
0000
0000
0000
,
0000
0000
0000
0000
,
2000
0000
3001
0010
0200
0000
1300
0001
,
0020
0000
0130
1000
0002
0000
0103
0010
,
2000
0000
3001
0010
0200
0000
1300
0001
,
0020
0000
0130
1000
0010
0100
0010
0000
,
0100
0010
0001
0010
0100
1000
0001
0000
,
0100
0010
1000
0010
0100
0001
1000
1000
,
0100
0010
0100
1000
0001
0100
0010
0000
,
0100
0010
0100
0001
1000
0000
0110
0000
,
0001
0100
0001
1000
0100
0000
0011
0000
,
1100
0000
0001
0100
0010
0100
0001
0000
,
1100
0001
0110
1010
,
1001
0000
0100
0000
0001
0000
0010
0100
,
1000
0000
0001
0100
0010
0100
0001
0000
,
1001
0000
1000
0100
0010
0100
1000
0000
,
0020
0230
0302
2003
,
3200
0320
0032
2003
,
3010
0000
0100
0001
1000
0100
0010
0000
,
1001
0000
1000
0100
0010
0100
1000
0000
,
0101
1001
1010
0110
,
0001
0100
0010
0000
1000
0100
0010
0001
,
1000
1000
0100
1000
0001
0100
0010
0100
,
0001
0001
0100
0010
0100
0001
0010
0100
,
0010
0010
0001
0100
0010
1000
0010
1000
,
0100
0100
0010
0001
0010
0100
1000
0001
,
0100
0100
0010
1000
0001
0010
0100
1000
,
0010
0010
0100
0001
1000
0100
1000
0010
,
1000
1000
0100
1000
0001
0100
0010
0100
,
0001
0001
1000
0100
0010
0001
1000
0001
,
0101
0000
0010
1000
0010
0100
0001
0000
,
1100
0000
0010
0001
0010
0100
1000
0000
,
0011
0000
1000
0100
1000
0010
0100
0000
,
1010
0000
0001
0100
0001
0010
0100
0000
,
1001
0000
0100
0010
1000
0001
0010
0000
,
1001
0000
0100
0010
0001
1000
0010
0000
,
0101
0000
0001
1000
0100
0010
0100
0000
,
1000
0010
0100
0001
1000
0010
0100
0001
,
1000
0100
1000
0010
1000
0100
0010
0001
,
0010
0100
1000
0100
0001
0100
1000
0010
,
0100
0001
1000
0100
1000
0010
0100
0001
,
1000
0100
0010
0001
0010
0100
1000
0000
,
0001
0010
0001
0100
0001
0010
0100
1000
,
0100
0010
0001
0010
1000
0010
0001
0100
,
0010
1000
0001
0010
0001
0100
0010
1000
,
0001
0010
0100
1000
0100
0010
0001
1000
,
0110
0220
0000
0000
,
0330
0000
0000
0000
,
1001
2002
0000
0000
,
3003
0000
0000
0000
,
0200
0000
0310
1000
0002
0000
0103
0010
,
2000
0000
3001
0100
0020
0000
0031
1000
,
0200
0000
0310
1000
0002
0000
0103
0010
,
2000
0000
3001
0100
1000
0001
1000
0000
,
0020
0000
0130
0001
2000
0000
3010
0100
,
0002
0000
1003
0010
0200
0000
1300
0001
,
0020
0000
0130
0001
2000
0000
3010
0100
,
0002
0000
1003
0010
0001
1000
0001
0000
,
0220
0000
0000
0000
,
0000
0000
0000
0000
,
0330
0000
0000
0000
;

//---------------dance-double - ----------------
#NOTES:
     dance-double:
     :
     Hard:
     11:
     0.430162,0.445749,0.211456,0.296038,0.000000,356.000000,331.000000,25.000000,35.000000,0.000000,0.000000,0.430162,0.445749,0.211456,0.296038,0.000000,356.000000,331.000000,25.000000,35.000000,0.000000,0.000000:
// measure 0
00000000
00000000
00000000
00000000
,  // measure 1
00000000
00000000
00000000
00000000
,  // measure 2
00000000
00000000
00000000
00000000
,  // measure 3
00000000
00000000
00000000
00000000
,  // measure 4
20000000
00000000
30010000
01000000
00002000
00000000
00013000
00000100
,  // measure 5
00002000
00000000
00003001
00000100
00000020
00000000
00001030
00000100
,  // measure 6
00020000
00000000
00031000
00100000
02000000
00000000
13000000
00010000
,  // measure 7
02000000
00000000
03001000
00010000
00000100
00100000
00001000
00010000
,  // measure 8
00000100
00001000
00000001
00000100
00000010
00000000
00001010
00000000
,  // measure 9
00000100
00000001
00001000
00000100
00010000
00001000
00001000
00010000
,  // measure 10
00000100
00001000
00000001
00000100
00000010
00001000
00000010
00000000
,  // measure 11
00000100
00000001
00001000
00000100
00010000
00001000
00100000
00000000
,  // measure 12
01000000
10000000
00010000
01000000
00100000
01000000
00010000
00010000
,  // measure 13
10000000
01000000
00100000
01000000
10000000
00000000
01010000
00000000
,  // measure 14
00100000
10000000
01000000
00100000
00010000
00100000
01000000
10000000
,  // measure 15
00010000
01010000
10100000
10010000
,  // measure 16
01100000
00000000
00100000
01000000
00010000
00100000
00000000
00001000
,  // measure 17
00000000
00010000
00000000
00000100
00000000
00001000
00000010
00000100
,  // measure 18
00001002
00002003
00003200
00020300
,  // measure 19
00032000
00203000
02300000
23000000
,  // measure 20
30010000
00000000
01000000
00100000
10000000
00100000
00000000
01000000
,  // measure 21
00000000
00010000
00100000
00000000
00001000
00000000
00010000
00000100
,  // measure 22
00001000
00000000
00000101
00000000
00000010
00000000
00001000
00000100
,  // measure 23
00000010
00001100
00010100
00011000
,  // measure 24
00010000
00001000
00100000
01000000
10000000
00010000
01000000
01000000
,  // measure 25
00001000
00010000
00000100
00001000
00000010
00000100
00000001
00000001
,  // measure 26
00001000
00000100
00000010
00000100
00010000
00001000
00100000
00100000
,  // measure 27
01000000
10000000
00010000
01000000
00100000
10000000
00010000
00010000
,  // measure 28
01000000
00001000
00010000
00000100
00001000
00000010
00000100
00000100
,  // measure 29
00000001
00001000
00000100
00010000
00001000
00100000
00010000
00010000
,  // measure 30
10000000
00100000
01000000
00010000
00100000
01000000
10000000
10000000
,  // measure 31
00010000
00100000
00000100
00001000
00000010
00000100
00001000
00001000
,  // measure 32
00000100
00000000
00000001
00001000
00000100
00010000
00000000
00001000
,  // measure 33
00000000
00100000
00000000
01000000
00000000
10000000
00000000
00010000
,  // measure 34
01000000
00001000
00010000
00000100
00010000
00001000
00100000
00010000
,  // measure 35
01000000
00100000
10000000
01000000
00100000
01000000
10000000
00010000
,  // measure 36
01000000
00000000
00100000
10000000
01000000
00100000
00000000
00010000
,  // measure 37
00000000
01000000
00000000
00001000
00000000
00010000
00000100
00000000
,  // measure 38
00000010
00000001
00001000
00000010
00000100
00000001
00001000
00000100
,  // measure 39
00010000
00001000
00100000
01000000
10000000
00100000
01000000
00010000
,  // measure 40
10000000
01000000
00000000
00110000
00000000
01000000
00000000
10100000
,  // measure 41
00000000
00010000
00000000
01000000
00010000
00100000
00001000
00000000
,  // measure 42
00010000
00000000
00000100
00001000
00000000
00000010
00000100
00000001
,  // measure 43
00000000
00001000
00000100
00000000
00011000
00000000
00000000
00000000
,  // measure 44
00010000
01000000
00100000
01000000
00010000
10000000
01000000
00100000
,  // measure 45
00010000
00100000
00001000
00010000
00000100
00001000
00000010
00000100
,  // measure 46
00000001
00001100
00000010
00000101
,  // measure 47
00001000
00010100
00011000
00101000
,  // measure 48
00110000
00220000
00000000
00000000
,  // measure 49
00330000
00000000
00000000
00000000
,  // measure 50
00001010
00002020
00000000
00000000
,  // measure 51
00003030
00000000
00000000
00000000
,  // measure 52
00200000
00000000
01300000
00010000
00200000
00000000
00301000
00010000
,  // measure 53
00000200
00000000
00001300
00000010
00000200
00000000
00000301
00001000
,  // measure 54
00000200
00000000
00010300
00001000
00200000
00000000
01300000
10000000
,  // measure 55
00020000
00000000
01030000
00001000
00010000
00000100
00001100
00000000
,  // measure 56
00000200
00000000
00010300
00001000
00200000
00000000
01300000
10000000
,  // measure 57
00020000
00000000
01030000
00001000
00020000
00000000
00030100
00001000
,  // measure 58
00000020
00000000
00000130
00000001
00002000
00000000
00003100
00010000
,  // measure 59
00002000
00000000
00103000
01000000
10000000
00100000
01000000
00010000
,  // measure 60
00202000
00000000
00000000
00000000
,  // measure 61
00000000
00000000
00000000
00000000
,  // measure 62
00303000
00000000
00000000
00000000
;

//---------------dance-single - ----------------
#NOTES:
     dance-single:
     :
     Medium:
     9:
     0.322621,0.393308,0.228372,0.101499,0.000000,267.000000,240.000000,27.000000,12.000000,0.000000,0.000000,0.322621,0.393308,0.228372,0.101499,0.000000,267.000000,240.000000,27.000000,12.000000,0.000000,0.000000:
0000
0000
0000
0000
,
0000
0000
0000
0000
,
0000
0000
0000
0000
,
0000
0000
0000
0000
,
1000
1000
0001
0001
,
0010
0010
0100
0100
,
1000
0010
0100
0001
,
1000
0000
0100
0000
0010
0001
0010
0100
,
1000
0000
0001
0000
0100
0000
0010
0100
,
0001
1100
0101
1001
,
1000
0100
0010
0001
1000
0000
0010
0000
,
0100
0010
1000
0001
1000
0000
0110
0000
,
0001
0100
0010
0100
,
0001
1000
0100
0010
,
0100
0000
1000
0000
0001
0100
0001
0000
,
0100
0000
0001
0000
1000
0100
1000
0000
,
0110
0000
1001
0000
0010
1000
0000
0010
,
0000
0100
0000
0001
0000
1000
0001
0000
,
2000
0010
0100
3001
,
0002
0010
0100
1003
,
1001
0000
0110
0000
0001
0010
0000
0001
,
0000
1000
0010
0000
0100
0000
0001
0100
,
0020
0100
0001
1030
,
0200
0010
0001
1300
,
0001
0100
0010
0000
0100
0000
0001
0000
,
1000
0100
0010
0000
0100
0000
1000
0000
,
0010
0100
0001
0000
0100
0000
0010
0000
,
1000
0010
0100
0000
0001
0000
0100
0000
,
0010
1000
0001
0000
0010
0000
0100
0000
,
1000
0001
0100
0000
0010
0000
0100
0000
,
0001
1000
0100
0000
0001
0000
0100
0000
,
1000
0010
0001
0000
0010
0000
1000
0000
,
0110
0000
1001
0000
0010
0100
0000
0001
,
0000
1000
0000
0100
0000
0010
0000
0100
,
1000
0100
1000
0000
0101
0000
1100
0000
,
0010
0100
1001
0110
,
1001
0000
0110
0000
0100
0001
0000
1000
,
0000
0100
0000
0010
0000
0100
1000
0000
,
0001
1100
0101
0010
,
0100
1001
0110
1001
,
0010
0001
0000
0010
0000
0100
0000
1000
,
0000
0001
0000
0100
0000
0010
0100
0000
,
0020
0000
0000
2000
0000
0000
3030
0010
,
0000
0100
0001
0000
1001
0000
0000
0000
,
1000
0100
1000
0100
0000
0010
0001
0000
,
1000
0000
0010
0000
0100
0000
0001
1000
,
0100
0110
0010
0110
,
0100
1100
1000
1001
,
0020
0200
0000
0000
,
0330
0000
0000
0000
,
0002
2000
0000
0000
,
3003
0000
0000
0000
,
0001
0001
1000
1000
,
0010
0010
0100
0100
,
0001
0010
0100
1000
,
0001
0000
0100
0000
0010
1000
0010
0000
,
1000
1000
0001
0001
,
0010
0010
0100
0100
,
1000
0010
0100
0001
,
1000
0000
0100
0000
0010
0001
0010
0000
,
2002
0000
0000
0000
,
0000
0000
0000
0000
,
3003
0000
0000
0000
;

//---------------dance-single - ----------------
#NOTES:
     dance-single:
     :
     Beginner:
     3:
     0.158290,0.202998,0.143790,0.000000,0.000000,131.000000,114.000000,17.000000,0.000000,0.000000,0.000000,0.158290,0.202998,0.143790,0.000000,0.000000,131.000000,114.000000,17.000000,0.000000,0.000000,0.000000:
0000
0000
0000
0000
,
0000
0000
0000
0000
,
0000
0000
0000
0000
,
0000
0000
0000
0000
,
1000
0000
0001
0000
,
1000
0000
0001
0000
,
1000
0000
0001
0000
,
1000
0000
0001
0001
,
0001
0000
0100
0000
,
0010
0000
0100
0000
,
0001
0000
0010
0000
,
0100
0000
0010
0000
,
1000
0000
0100
0000
,
0010
0000
0100
0000
,
1000
0000
0010
0000
,
0100
0000
0010
0000
,
1001
0000
0000
0100
,
0100
0000
0000
0000
,
1001
0000
0000
0010
,
0010
0000
0000
0000
,
0110
0000
0000
1000
,
1000
0000
0000
0000
,
0110
0000
0000
0001
,
0001
0000
0000
0000
,
1000
0000
0100
0000
,
0010
0000
0001
0000
,
1000
0000
0010
0000
,
0100
0000
0001
0000
,
0100
0000
0010
0000
,
1000
0000
0001
0000
,
0010
0000
0100
0000
,
1000
0000
0001
0000
,
0100
0100
0100
0000
,
0010
0010
0010
0000
,
1000
1000
1000
0000
,
0001
0001
0001
0000
,
1000
1000
1000
0000
,
0010
0010
0010
0000
,
0100
0100
0100
0000
,
0001
0001
0001
0000
,
1001
0000
0100
0000
,
0110
0000
0010
0000
,
1001
0000
0001
0000
,
0110
0000
1000
0000
,
0110
0000
0001
0000
,
1001
0000
1000
0000
,
0110
0000
0010
0000
,
1001
0000
0100
0000
,
0110
0110
0000
0000
,
0000
0000
0000
0000
,
1001
1001
0000
0000
,
0000
0000
0000
0000
,
1000
0000
0100
0000
,
0001
0000
0010
0000
,
1000
0000
0100
0000
,
0001
0000
0010
0000
,
0001
0000
0100
0000
,
1000
0000
0010
0000
,
0001
0000
0100
0000
,
1000
0000
0010
0000
,
1001
0000
0000
0000
;

//---------------dance-single - ----------------
#NOTES:
     dance-single:
     :
     Easy:
     6:
     0.256164,0.419528,0.279122,0.236831,0.000000,212.000000,179.000000,33.000000,28.000000,0.000000,0.000000,0.256164,0.419528,0.279122,0.236831,0.000000,212.000000,179.000000,33.000000,28.000000,0.000000,0.000000:
0000
0000
0000
0000
,
0000
0000
0000
0000
,
0000
0000
0000
0000
,
0000
0000
0000
0000
,
1000
1100
0100
1100
,
1000
1010
0010
1010
,
0100
0110
0010
0110
,
1010
1001
0011
0110
,
0100
1000
1001
0000
,
0100
0001
1001
0110
,
0100
1000
1010
0000
,
0100
0001
0011
0110
,
0100
1000
0101
0000
,
0100
0001
1100
0110
,
0010
0001
0100
0010
,
2002
0000
0000
3003
,
0100
0010
0100
0010
,
1000
0010
1000
0001
,
0200
0000
0320
0000
,
2030
0000
3002
0000
,
0013
0100
0010
0100
,
1000
0100
1000
0001
,
0020
0000
0230
0000
,
2300
0000
3002
0000
,
1003
0100
0101
0000
,
0001
0100
1100
1001
,
1000
0010
0011
0000
,
0001
0010
1010
1001
,
0001
0010
1100
0000
,
1000
0010
0101
0110
,
1000
0010
0011
0000
,
0001
0010
1010
0110
,
0001
0100
0001
0100
,
0010
0100
0010
0100
,
0020
0000
2030
0000
,
3002
0000
0023
0000
,
0130
1000
0100
1000
,
0010
0100
0010
0100
,
0002
0000
2003
0000
,
3020
0000
0230
0000
,
0310
1000
0100
0001
,
0010
0001
0100
1000
,
0020
0000
0230
0000
,
0302
0000
2003
0000
,
3100
1000
0010
0001
,
0100
0010
1000
0001
,
0020
0000
0032
0000
,
0203
0000
0320
0000
,
1030
0001
0000
0000
,
0000
0000
0000
0000
,
0010
0100
0000
0000
,
0000
0000
0000
0000
,
1000
0100
0001
0100
,
1000
0010
0001
0010
,
1000
0100
1000
0010
,
0001
0100
0010
1000
,
0001
0010
1000
0010
,
0001
0100
1000
0100
,
0001
0010
0100
1000
,
0010
0001
0100
0010
,
2002
0000
0000
0000
,
0000
0000
0000
0000
,
3003
0000
0000
0000
;

//---------------dance-double - ----------------
#NOTES:
     dance-double:
     :
     Medium:
     9:
     0.297246,0.367087,0.194539,0.558243,0.000000,246.000000,223.000000,23.000000,66.000000,0.000000,0.000000,0.297246,0.367087,0.194539,0.558243,0.000000,246.000000,223.000000,23.000000,66.000000,0.000000,0.000000:
// measure 0
00000000
00000000
00000000
00000000
,  // measure 1
00000000
00000000
00000000
00000000
,  // measure 2
00000000
00000000
00000000
00000000
,  // measure 3
00000000
00000000
00000000
00000000
,  // measure 4
00000002
00002003
00003200
00020300
,  // measure 5
00030020
00000230
00000302
00002003
,  // measure 6
00003200
00020300
00032000
00203000
,  // measure 7
02300000
00000000
23000000
00000000
30010000
10000000
00010000
00000000
,  // measure 8
00100000
01000000
00010000
10000000
,  // measure 9
01000000
00000000
00100000
00000000
01000000
10000000
00010000
01000000
,  // measure 10
00010000
00100000
00101000
00000000
,  // measure 11
00001000
00000100
00010100
00011000
,  // measure 12
00001000
00100000
00010000
01000000
,  // measure 13
00100000
00000000
10000000
00000000
01000000
00000000
00100000
00010000
,  // measure 14
00100000
01000000
10000000
00010000
,  // measure 15
02000000
00000000
03002000
00000000
,  // measure 16
00013000
00000000
00000100
00001000
00000100
00001000
00000000
00000010
,  // measure 17
00000000
00000100
00000000
00000001
00000000
00001000
00000000
00000000
,  // measure 18
00000200
00000000
00000000
00000000
00020300
00000000
00001000
00001000
,  // measure 19
00032000
00000000
00203000
00000000
,  // measure 20
01300000
00000000
10000000
00010000
10000000
00010000
00000000
00100000
,  // measure 21
00000000
01000000
10000000
00000000
00010000
00000000
01000000
00010000
,  // measure 22
00200000
00000000
00000000
00000000
01300000
00000000
10000000
00100000
,  // measure 23
02000000
00000000
03010000
00000000
,  // measure 24
10000000
00010000
01000000
00001000
,  // measure 25
00010000
00000000
00000100
00000000
00001000
00000000
00000001
00000100
,  // measure 26
00000001
00001000
00000100
00010000
,  // measure 27
00001000
00000000
00100000
00000000
01000000
10000000
01000000
00000000
,  // measure 28
10000000
00010000
10000000
00010000
00000000
00000000
01100000
00000000
,  // measure 29
00010000
01000000
00010000
00000000
01010000
00000000
00001000
00010000
,  // measure 30
00000100
00001100
00000000
00001100
,  // measure 31
00000010
00000001
00000100
00001000
,  // measure 32
00001001
00000000
00000100
00001000
00000100
00001000
00000000
00000010
,  // measure 33
00000000
00010000
00000000
00001000
00000000
00100000
00000000
01000000
,  // measure 34
10000000
00010000
01000000
00000000
01100000
00000000
10010000
00000000
,  // measure 35
01000000
10000000
00010000
01000000
,  // measure 36
01100000
00000000
01000000
00010000
01000000
00001000
00000000
00010000
,  // measure 37
00000000
00000100
00000000
00010000
00000000
00000010
00000100
00000000
,  // measure 38
00001001
00000110
00000100
00000001
,  // measure 39
00001000
00000100
00000010
00000100
,  // measure 40
00010000
00001000
00000000
00100000
00000000
01000000
00000000
10000000
,  // measure 41
00000000
00010000
00000000
01000000
00000000
00100000
10000000
00000000
,  // measure 42
00020000
00000000
00000000
00200000
00000000
00000000
00330000
00001000
,  // measure 43
00000000
00010000
00000100
00000000
00001100
00000000
00000000
00000000
,  // measure 44
00001000
00000001
00000100
00000001
00000000
00001000
00000100
00000000
,  // measure 45
00000010
00000000
00000100
00000000
00001000
00000001
00000100
00000000
,  // measure 46
00000220
00000330
00002020
00003030
,  // measure 47
00002200
00003300
00020200
00030300
,  // measure 48
00011000
00022000
00000000
00000000
,  // measure 49
00033000
00000000
00000000
00000000
,  // measure 50
01001000
02002000
00000000
00000000
,  // measure 51
03003000
00000000
00000000
00000000
,  // measure 52
20000000
30020000
02030000
03200000
,  // measure 53
02300000
03020000
20030000
32000000
,  // measure 54
03200000
00320000
00230000
00302000
,  // measure 55
00023000
00000000
00030200
00000000
00001300
00000010
00001000
00000000
,  // measure 56
00000020
00000230
00000302
00002003
,  // measure 57
00003200
00000320
00000230
00002300
,  // measure 58
00003020
00020030
00032000
00203000
,  // measure 59
02300000
00000000
23000000
00000000
30100000
01000000
00010000
00000000
,  // measure 60
00220000
00000000
00000000
00000000
,  // measure 61
00000000
00000000
00000000
00000000
,  // measure 62
00330000
00000000
00000000
00000000
;

//---------------dance-double - ----------------
#NOTES:
     dance-double:
     :
     Easy:
     6:
     0.231997,0.314646,0.262205,0.744325,0.000000,192.000000,161.000000,31.000000,88.000000,0.000000,0.000000,0.231997,0.314646,0.262205,0.744325,0.000000,192.000000,161.000000,31.000000,88.000000,0.000000,0.000000:
// measure 0
00000000
00000000
00000000
00000000
,  // measure 1
00000000
00000000
00000000
00000000
,  // measure 2
00000000
00000000
00000000
00000000
,  // measure 3
00000000
00000000
00000000
00000000
,  // measure 4
00002000
00000000
00003002
00000000
,  // measure 5
00000023
00000000
00000230
00000000
,  // measure 6
00020300
00000000
00032000
00000000
,  // measure 7
00203000
00000000
01300000
10010000
,  // measure 8
00100000
10000000
11000000
00000000
,  // measure 9
00100000
00010000
01010000
01001000
,  // measure 10
00001000
00010000
00010100
00000000
,  // measure 11
00000100
00001000
00001010
00000110
,  // measure 12
00000100
00000001
00000011
00000000
,  // measure 13
00000100
00001000
00001010
00010010
,  // measure 14
00010000
00001000
00101000
00000000
,  // measure 15
00100000
00010000
01010000
01100000
,  // measure 16
20020000
00030000
00010000
30010000
,  // measure 17
20020000
30000000
10000000
10030000
,  // measure 18
00200000
02300000
03020000
20030000
,  // measure 19
32000000
03200000
00302000
00013000
,  // measure 20
00002200
00000300
00000100
00003100
,  // measure 21
00000202
00000300
00000100
00000103
,  // measure 22
00000020
00002030
00003002
00000023
,  // measure 23
00000230
00020300
00032000
00203000
,  // measure 24
01300000
10000000
01010000
00000000
,  // measure 25
01000000
00010000
11000000
10010000
,  // measure 26
00100000
00010000
10100000
00000000
,  // measure 27
00100000
10000000
00110000
00101000
,  // measure 28
00000010
00000001
00001010
00000000
,  // measure 29
00000010
00001000
00000011
00001001
,  // measure 30
00000100
00001000
00000101
00000000
,  // measure 31
00000100
00000001
00001100
00010100
,  // measure 32
00012000
00000000
00023000
00000000
,  // measure 33
00030200
00000000
00002300
00000000
,  // measure 34
00003001
00000001
00000200
00000300
,  // measure 35
00001000
00001000
00000200
00000300
,  // measure 36
00021000
00000000
00032000
00000000
,  // measure 37
02003000
00000000
03020000
00000000
,  // measure 38
10030000
10000000
02000000
03000000
,  // measure 39
00010000
00010000
02000000
03000000
,  // measure 40
00200000
20300000
30200000
02300000
,  // measure 41
03020000
00230000
00302000
00023000
,  // measure 42
00030200
00002300
00003002
00000203
,  // measure 43
00000320
00002030
00000002
00003003
,  // measure 44
00000020
00000032
00000023
00000230
,  // measure 45
00002300
00003020
00020030
00032000
,  // measure 46
02003000
00000000
03200000
00000000
,  // measure 47
20300000
00000000
30020000
00000000
,  // measure 48
01000000
02000000
00000000
00000000
,  // measure 49
03030000
00000000
00000000
00000000
,  // measure 50
00100000
00200000
00000000
00000000
,  // measure 51
00300000
00000000
00000000
00000000
,  // measure 52
20000000
00000000
30020000
00000000
,  // measure 53
02030000
00000000
03200000
00000000
,  // measure 54
02300000
00000000
03020000
00000000
,  // measure 55
00230000
00000000
00302000
00000000
,  // measure 56
00023000
00000000
00030200
00000000
,  // measure 57
00002300
00000000
00003002
00000000
,  // measure 58
00000203
00000000
00000320
00000000
,  // measure 59
00002030
00000000
00003200
00000000
,  // measure 60
00020000
00000000
00000000
00000000
,  // measure 61
00000000
00000000
00000000
00000000
,  // measure 62
00030300
00000000
00000000
00000000
;
