#TITLE:Three Ring Nightfall;
#SUBTITLE:;
#ARTIST:Hadyn;
#TITLETRANSLIT:;
#SUBTITLETRANSLIT:;
#ARTISTTRANSLIT:;
#GENRE:;
#CREDIT:;
#BANNER:Three Ring Nightfall_BN.png;
#BACKGROUND:Three Ring Nightfall_BG.png;
#LYRICSPATH:;
#CDTITLE:;
#MUSIC:Three Ring Nightfall.ogg;
#OFFSET:-0.043333;
#SAMPLESTART:24.040001;
#SAMPLELENGTH:12.800000;
#SELECTABLE:YES;
#BPMS:0.000000=120.000000
;
#STOPS:
;
#BGCHANGES:;
#KEYSOUNDS:;
#ATTACKS:;

//---------------dance-single - B. Batche----------------
#NOTES:
     dance-single:
     B. Batche:
     Medium:
     9:
     0.374821,0.407758,0.146852,0.097901,0.000000,268.000000,253.000000,15.000000,10.000000,0.000000,0.000000,0.374821,0.407758,0.146852,0.097901,0.000000,268.000000,253.000000,15.000000,10.000000,0.000000,0.000000:
0000
0000
0000
0000
,
0000
0000
0000
0000
,
0000
0000
0000
0000
,
0000
0000
0000
0000
,
1000
0000
0001
0000
0100
0010
0100
0000
,
0001
0000
1000
0000
0100
0010
0100
0000
,
1000
0000
0010
0000
0100
0001
0100
0000
,
0001
0000
0010
0000
0100
1000
0100
0000
,
1000
0010
1000
0010
1000
0001
1000
0000
,
0001
0010
0001
0100
0010
1000
0100
0000
,
0010
0000
1100
0000
0010
0001
1000
0010
,
0100
0001
0100
0000
0010
1000
0100
0000
,
1000
0000
0101
0000
0010
1000
0100
0000
,
1000
0001
0100
0000
0010
1000
0100
0000
,
0010
0000
0101
0000
0010
1000
0001
0000
,
0010
0001
1000
0000
0010
0100
0001
0000
,
1000
0000
0101
0000
0010
1000
0001
0000
,
0010
0100
1000
0000
0010
0100
0001
0000
,
1000
0000
1100
0000
0010
0001
0100
0000
,
0010
1000
0001
0010
0100
0000
0110
0000
,
0010
1000
0000
0001
0000
1000
0000
0100
,
1000
0001
0000
0100
0000
0010
0000
0100
,
0001
1000
0000
0100
0000
0010
0000
0100
,
1000
0001
0000
0100
0000
0001
0000
0100
,
0001
1000
0000
0100
0000
1000
0000
0100
,
1000
0010
0000
0100
0000
0010
0000
0100
,
0010
1000
0000
0010
0000
1000
0000
0010
,
1000
0001
0000
1000
0000
0001
0000
1000
,
0200
2300
3020
0230
,
0301
0100
0001
0100
0001
0100
0001
0010
,
0100
1000
0010
0100
0001
0100
0010
1000
,
0100
0010
0001
0010
0200
0000
0010
0000
,
0310
0001
1000
0010
0100
0001
0100
0010
,
1000
0100
0010
0100
2000
0000
0001
0000
,
3001
0100
0010
0100
0001
1000
0100
0010
,
0001
0010
0100
1000
0002
0000
0100
0000
,
1003
0010
0100
0001
0100
0010
1000
0100
,
0010
0001
0010
0100
2000
0000
3001
0000
,
1000
0001
0100
0010
0100
0001
1000
0000
,
0100
0100
1000
1000
,
0001
0100
0010
0000
0100
0001
1000
0000
,
0100
0010
0001
1001
,
1000
0001
0100
0010
0100
0001
1000
0000
,
0100
0100
0010
0010
,
0001
0010
0100
1000
0001
0000
0100
0010
,
1000
1100
1001
0110
,
0010
0001
0100
0010
1000
0100
0010
0000
,
1010
0110
0101
1001
,
0220
0000
0000
0000
,
0330
0000
0000
0000
;

//---------------dance-single - B. Batche----------------
#NOTES:
     dance-single:
     B. Batche:
     Easy:
     6:
     0.257340,0.287829,0.088111,0.117481,0.000000,184.000000,175.000000,9.000000,12.000000,0.000000,0.000000,0.257340,0.287829,0.088111,0.117481,0.000000,184.000000,175.000000,9.000000,12.000000,0.000000,0.000000:
0000
0000
0000
0000
,
0000
0000
0000
0000
,
0000
0000
0000
0000
,
0000
0000
0000
0000
,
1000
0000
0100
1000
,
0001
0000
0100
0001
,
0010
0000
0100
1000
,
0010
0000
0100
0010
,
1000
1000
0001
0001
,
0100
0100
0010
0010
,
1000
0001
0010
0100
,
1000
0000
0001
0000
0100
0010
0100
0000
,
0001
1000
0100
1000
,
0010
0100
0001
0100
,
0010
1000
0001
0010
,
0100
0000
1000
0000
0001
1000
0001
0000
,
1000
0010
0100
0001
,
1000
0100
0010
0100
,
1000
0001
0100
0010
,
1000
0000
0100
0000
0010
0100
0010
0000
,
0000
0001
0000
0100
0000
0001
0000
1000
,
0000
0100
0000
0010
0000
0100
0000
1000
,
0000
0100
0000
0010
0000
0001
0000
0010
,
0000
0100
0000
1000
0000
0001
0100
0001
,
0000
1000
0000
0100
0000
1000
0000
0001
,
0000
0100
0000
0010
0000
1000
0000
0010
,
0000
0100
0000
0001
0000
1000
0000
0100
,
0000
1000
0000
0010
0000
0100
0001
1000
,
0002
0000
2000
3003
,
0010
0100
0010
0100
,
0010
1000
0100
0010
,
0001
0100
0220
0330
,
0010
1000
0001
0010
,
0100
1000
2002
3003
,
0010
0100
0001
1000
,
0100
0010
0022
0033
,
0010
0001
1000
0010
,
0100
0001
2002
3003
,
0010
0100
0001
1000
,
0100
0100
0110
0010
,
0001
1000
0001
0000
0100
0000
0010
0000
,
1000
1000
1001
0001
,
1000
0010
0100
0001
,
1000
1000
1100
0100
,
0010
0100
0010
0000
0001
0000
1000
0000
,
0010
0010
0110
0100
,
0001
1000
0001
0000
1000
0000
0100
0000
,
0010
0001
0100
0010
,
2002
0000
0000
0000
,
3003
0000
0000
0000
;

//---------------dance-single - B. Batche----------------
#NOTES:
     dance-single:
     B. Batche:
     Beginner:
     3:
     0.144054,0.191886,0.127271,0.068531,0.000000,103.000000,90.000000,13.000000,7.000000,0.000000,0.000000,0.144054,0.191886,0.127271,0.068531,0.000000,103.000000,90.000000,13.000000,7.000000,0.000000,0.000000:
0000
0000
0000
0000
,
0000
0000
0000
0000
,
0000
0000
0000
0000
,
0000
0000
0000
0000
,
0100
0000
0100
0000
,
0010
0000
0010
0000
,
1000
0000
1000
0000
,
0001
0000
0001
0000
,
0100
0100
0000
0000
,
0010
0010
0000
0000
,
1000
1000
0000
0000
,
0001
0001
0000
0000
,
0100
0000
0010
0000
,
0100
0000
0010
0000
,
1000
0000
0001
0000
,
1000
0000
0001
0000
,
0100
0000
0010
0000
,
1000
0000
0001
0000
,
0010
0000
0100
0000
,
1000
0000
0001
0000
,
0020
0030
0010
0000
,
0200
0300
0100
0000
,
0002
0003
0001
0000
,
2000
3000
1000
0000
,
0010
0000
0100
0000
,
0001
0000
1000
0000
,
0100
0000
1000
0000
,
0001
0000
0100
0000
,
0020
0000
0000
0030
,
0010
0010
0010
0010
,
0010
0000
0100
0000
,
0010
0000
0110
0000
,
0001
0000
1000
0000
,
0001
0000
1001
0000
,
0100
0000
0010
0000
,
0100
0000
0110
0000
,
1000
0000
0001
0000
,
1000
0000
1001
0000
,
0100
0000
0010
0000
,
0110
0000
1001
0000
,
0001
0000
1000
0000
,
1001
0000
0110
0000
,
0001
0000
0100
0000
,
0110
0000
1001
0000
,
1000
0000
0100
0000
,
0110
0000
1001
0000
,
0010
0000
0100
0000
,
1000
0000
0001
0000
,
2002
0000
0000
0000
,
3003
0000
0000
0000
;

//---------------dance-single - B. Batche----------------
#NOTES:
     dance-single:
     B. Batche:
     Hard:
     11:
     0.486708,0.551672,0.460135,0.058741,0.190907,348.000000,301.000000,47.000000,6.000000,0.000000,0.000000,0.486708,0.551672,0.460135,0.058741,0.190907,348.000000,301.000000,47.000000,6.000000,0.000000,0.000000:
0000
0000
0000
0000
,
0000
0000
0000
0000
,
0000
0000
0000
0000
,
0000
0000
0000
0000
,
0001
0000
0000
0000
0101
0000
0000
0010
0000
0000
1000
0000
0001
0000
0000
0000
,
1000
0000
0100
0000
1000
0000
0000
0001
0000
0001
0100
0000
0001
0000
0000
0000
,
1000
0000
0000
0000
1100
0000
0000
0010
0000
0000
0100
0000
1000
0000
0000
0000
,
0001
0000
0100
0000
0010
0000
0100
0001
0000
0001
1000
0000
1001
0000
0000
0000
,
0010
0000
1000
0000
0010
0000
1000
0010
1000
0000
0001
0000
1000
0000
0001
0000
,
0010
0000
0001
0010
0001
0000
0010
0000
0001
0000
0100
0000
0001
0000
0100
0000
,
0010
1000
0100
1000
0010
0100
0001
0010
,
0100
0000
1000
0000
0100
0000
0010
0000
0100
0000
0001
0000
0100
0010
0100
0000
,
1000
0000
0000
0000
0001
0000
0000
1000
0000
0000
0001
0000
0101
0000
0000
0000
,
1000
0000
0101
0100
0000
0010
1000
0000
,
0001
0000
0000
0000
0011
0000
0000
0010
0000
0000
0100
0000
1100
0000
0000
0000
,
1000
0001
1000
0100
1000
0010
1000
0001
,
0100
0000
0000
0000
1010
0000
0000
0100
0000
0000
0001
0000
1001
0000
0000
0000
,
0100
0000
0010
0100
0000
0001
0011
0000
,
0100
0000
0000
0000
1010
0000
0000
0100
0000
0000
0010
0000
0100
0000
0000
0000
,
0010
1000
0010
0100
0010
0001
0010
1000
,
0100
0010
0000
0101
0000
1010
0000
1000
,
0001
0010
0000
0110
0000
1100
0000
1000
,
0001
0100
0000
0110
0000
1010
0000
1000
,
0001
0010
0000
0110
0000
1100
0000
1000
,
0001
0100
0000
0110
0000
1010
0000
0001
,
0010
0100
0000
1100
0000
1001
0000
0001
,
0100
0010
0000
1010
0000
0011
0000
0010
,
0100
1000
0000
0101
0000
0110
0000
1000
,
0002
0203
0320
2030
,
3001
1000
0001
0100
0001
0010
0100
1000
,
0001
0000
1000
0000
0100
1000
0100
1000
0100
0000
1000
0000
0001
0100
0001
0100
,
0001
0000
0010
0000
0100
0010
0100
0010
0100
0000
0000
0000
0110
0000
0000
0000
,
0010
0000
0001
0000
0100
0001
0100
0001
0100
0000
0010
0000
1000
0010
1000
0010
,
1000
0000
0001
0000
1000
0001
1000
0001
1000
0000
0000
0000
0110
0000
0000
0000
,
0100
0000
1000
0000
0001
0100
0001
0100
0010
0000
1000
0000
0100
1000
0100
1000
,
0001
0000
0100
0000
0010
1000
0010
1000
0100
0000
0000
0000
0110
0000
0000
0000
,
0001
0000
0010
0000
0100
1000
0100
1000
0001
0000
0100
0000
0010
1000
0010
1000
,
0100
0000
1000
0000
0001
0100
0001
0100
0010
0000
0000
0000
1001
0000
0000
0000
,
0010
0100
1000
0100
0010
0001
0100
0010
,
1000
1001
0110
1001
,
0100
0010
1000
0010
0001
0010
1000
0100
,
0010
0000
0000
0000
1100
0000
0000
0000
1001
0000
0000
0000
0110
0000
0000
0010
,
0100
0001
1000
0100
0001
0100
1000
0010
,
0100
0101
1001
1100
,
0010
0001
0010
0100
1000
0001
0100
0010
,
1000
0000
0000
0000
1001
0000
0000
0000
0011
0000
0000
0000
0110
0000
0000
0100
,
1000
0001
0100
0010
1000
0100
0010
0001
,
0010
1100
1001
0110
,
2002
0000
0000
0000
,
3003
0000
0000
0000
;

//---------------dance-double - B. Batche----------------
#NOTES:
     dance-double:
     B. Batche:
     Hard:
     12:
     0.497897,0.551672,0.460135,0.039160,0.230067,356.000000,309.000000,47.000000,4.000000,0.000000,0.000000,0.497897,0.551672,0.460135,0.039160,0.230067,356.000000,309.000000,47.000000,4.000000,0.000000,0.000000:
// measure 0
00000000
00000000
00000000
00000000
,  // measure 1
00000000
00000000
00000000
00000000
,  // measure 2
00000000
00000000
00000000
00000000
,  // measure 3
00000000
00000000
00000000
00000000
,  // measure 4
00010000
00000000
00000000
00000000
00001100
00000000
00000000
00000010
00000000
00000000
00000100
00000000
00000010
00000000
00000000
00000000
,  // measure 5
00000100
00000000
00001000
00000000
00000010
00000000
00000000
00000100
00000000
00000001
00000100
00000000
00000010
00000000
00000000
00000000
,  // measure 6
00001000
00000000
00000000
00000000
01010000
00000000
00000000
00100000
00000000
00000000
01000000
00000000
00010000
00000000
00000000
00000000
,  // measure 7
01000000
00000000
00001000
00000000
01000000
00000000
00100000
10000000
00000000
10000000
01000000
00000000
00100000
00000000
00000000
00000000
,  // measure 8
01000000
00000000
10000000
00000000
01000000
00000000
10000000
00100000
10000000
00000000
00010000
00000000
10000000
00000000
00010000
00000000
,  // measure 9
00100000
00000000
00001000
00100000
00001000
00000000
00010000
00000000
00000100
00000000
00001000
00000000
00000100
00000000
00001000
00000000
,  // measure 10
00000010
00000100
00000001
00001000
00000100
00000001
00000100
00001000
,  // measure 11
00000010
00000000
00000100
00000000
00000001
00000000
00001000
00000000
00000100
00000000
00000010
00000000
00000001
00001000
00000001
00000000
,  // measure 12
00000001
00000000
00000100
00000000
00000001
00000000
00000000
00001000
00000000
00000100
00001000
00000000
00000010
00000000
00000000
00000000
,  // measure 13
00000100
00000000
00000001
00000000
00000100
00000000
00000010
00000000
00000000
00000000
00001000
00000010
00001000
00000000
00000000
00000000
,  // measure 14
00000010
00000000
00000100
00000000
00000001
00000000
00000000
00001000
00000000
00000100
00010000
00000000
00001000
00000000
00000000
00000000
,  // measure 15
00100000
00000000
01000000
00000000
10000000
00000000
00010000
00000000
00000000
00000000
01000000
00100000
01000000
00000000
00000000
00000000
,  // measure 16
10000000
00000000
00010000
00000000
01000000
00000000
00000000
00100000
00000000
10000000
00100000
00000000
01000000
00000000
00000000
00000000
,  // measure 17
00010000
00000000
10000000
00000000
01000000
00000000
00100000
00000000
00000000
00000000
01000000
10000000
01000000
00000000
00000000
00000000
,  // measure 18
00100000
00000000
00010000
00000000
01000000
00000000
00000000
00010000
00000000
00100000
00001000
00000000
00010000
00000000
00000000
00000000
,  // measure 19
00001000
00000000
00010000
00000000
00000100
00000000
00001000
00000000
00000000
00000000
00000010
00000100
00000010
00000000
00000000
00000000
,  // measure 20
00001000
00001010
00000000
00000110
00000000
00000101
00000000
00001000
,  // measure 21
00000100
00010100
00000000
00011000
00000000
00101000
00000000
00010000
,  // measure 22
00100000
01100000
00000000
11000000
00000000
10010000
00000000
00010000
,  // measure 23
01000000
01100000
00000000
10100000
00000000
10010000
00000000
00100000
,  // measure 24
00001000
00011000
00000000
00010100
00000000
00001100
00000000
00000010
,  // measure 25
00000100
00000101
00000000
00001100
00000000
00000110
00000000
00000001
,  // measure 26
00000010
00000110
00000000
00001100
00000000
00010100
00000000
00001000
,  // measure 27
00100000
01100000
00000000
11000000
00000000
10010000
00000000
00010000
,  // measure 28
02000000
00000000
00200000
03300000
,  // measure 29
00100000
01000000
00100000
01000000
00100000
01000000
00100000
10000000
,  // measure 30
00010000
00000000
00100000
00000000
01000000
10000000
01000000
00100000
00010000
00000000
01000000
00000000
00010000
01000000
00010000
00100000
,  // measure 31
00001000
00000000
00010000
00000000
00000100
00001000
00000100
00000010
00000001
00000000
00000000
00000000
00001001
00000000
00000000
00000000
,  // measure 32
00000001
00000000
00000100
00000000
00000001
00000010
00000001
00000100
00000010
00000000
00001000
00000000
00000100
00001000
00000100
00000010
,  // measure 33
00000001
00000000
00000100
00000000
00000010
00001000
00000010
00000100
00000001
00000000
00000000
00000000
00001001
00000000
00000000
00000000
,  // measure 34
00001000
00000000
00000100
00000000
00010000
00001000
00010000
00000100
00001000
00000000
00000010
00000000
00000100
00000001
00001000
00000100
,  // measure 35
00010000
00000000
00001000
00000000
00100000
01000000
10000000
00010000
01000000
00000000
00000000
00000000
01100000
00000000
00000000
00000000
,  // measure 36
00100000
00000000
10000000
00000000
00100000
01000000
00010000
10000000
01000000
00000000
10000000
00000000
00010000
01000000
00010000
00100000
,  // measure 37
01000000
00000000
10000000
00000000
00010000
01000000
00001000
00010000
00001000
00000000
00000000
00000000
00011000
00000000
00000000
00000000
,  // measure 38
00000100
00001000
00000010
00000100
00000001
00001000
00000100
00000001
,  // measure 39
00000100
00001100
00000101
00001100
,  // measure 40
00010000
00001000
00100000
01000000
10000000
00010000
01000000
00100000
,  // measure 41
10100000
00000000
00000000
00000000
10010000
00000000
00000000
00000000
00101000
00000000
00000000
00000000
00011000
00000000
00000000
00010000
,  // measure 42
00001000
00010000
00000100
00001000
00000010
00000100
00000001
00001000
,  // measure 43
00000100
00010100
00011000
00110000
,  // measure 44
00100000
01000000
10000000
00010000
01000000
00100000
10000000
01000000
,  // measure 45
00100000
00000000
00000000
00000000
00110000
00000000
00000000
00000000
01010000
00000000
00000000
00000000
10010000
00000000
00000000
10000000
,  // measure 46
00010000
00100000
01000000
10000000
00010000
01000000
00001000
00010000
,  // measure 47
00000100
00001100
00000110
00001001
,  // measure 48
00000220
00000000
00000000
00000000
,  // measure 49
00000330
00000000
00000000
00000000
;

//---------------dance-double - B. Batche----------------
#NOTES:
     dance-double:
     B. Batche:
     Medium:
     9:
     0.395800,0.407758,0.244753,0.019580,0.000000,283.000000,258.000000,25.000000,2.000000,0.000000,0.000000,0.395800,0.407758,0.244753,0.019580,0.000000,283.000000,258.000000,25.000000,2.000000,0.000000,0.000000:
// measure 0
00000000
00000000
00000000
00000000
,  // measure 1
00000000
00000000
00000000
00000000
,  // measure 2
00000000
00000000
00000000
00000000
,  // measure 3
00000000
00000000
00000000
00000000
,  // measure 4
00000001
00000000
00000100
00000000
00000100
00000001
00001000
00000000
,  // measure 5
00001000
00000000
00000100
00000000
00000100
00001000
00000010
00000000
,  // measure 6
00000010
00000000
00000100
00000000
00000001
00001000
00000100
00000000
,  // measure 7
00010000
00000000
00001000
00000000
00100000
01000000
10000000
00000000
,  // measure 8
00010000
01000000
00010000
10000000
00010000
00100000
00010000
10000000
,  // measure 9
00010000
01000000
00010000
10000000
00010000
00100000
01000000
00000000
,  // measure 10
10000000
00010000
00100000
00001000
00010000
00000100
00001000
00000010
,  // measure 11
00000100
00000101
00000110
00001010
,  // measure 12
00001000
00000100
00000010
00000000
00000100
00001000
00000001
00000000
,  // measure 13
00000100
00000010
00001000
00000000
00000100
00010000
00001000
00000000
,  // measure 14
00100000
01000000
10000000
00000000
00010000
01000000
00100000
00000000
,  // measure 15
01000000
00010000
10000000
00000000
00100000
00001000
00010000
00000000
,  // measure 16
00000100
00001000
00000001
00000000
00000100
00000001
00001000
00000000
,  // measure 17
00000010
00000100
00001000
00000000
00000100
00010000
00001000
00000000
,  // measure 18
00100000
01000000
10000000
00000000
00010000
01000000
00100000
00000000
,  // measure 19
01000000
00010000
10000000
00000000
00010000
00100000
00001000
00000000
,  // measure 20
00010000
00000100
00000000
00000010
00000000
00000100
00000000
00001000
,  // measure 21
00000010
00010000
00000000
00001000
00000000
00100000
00000000
01000000
,  // measure 22
10000000
00010000
00000000
01000000
00000000
00001000
00000000
00010000
,  // measure 23
00000100
00001000
00000000
00000010
00000000
00000100
00000000
00000001
,  // measure 24
00001000
00000100
00000000
00010000
00000000
00001000
00000000
00100000
,  // measure 25
01000000
10000000
00000000
00010000
00000000
01000000
00000000
00001000
,  // measure 26
00010000
00000100
00000000
00001000
00000000
00000010
00000000
00000100
,  // measure 27
00000001
00001000
00000000
00000100
00000000
00010000
00000000
00001000
,  // measure 28
00100000
11000000
01010000
10010000
,  // measure 29
10000000
00010000
10000000
00010000
10000000
00010000
10000000
00100000
,  // measure 30
01000000
00010000
01000000
00100000
10000000
01000000
00100000
01000000
,  // measure 31
10000000
00010000
01000000
00100000
01000000
00000000
01100000
00000000
,  // measure 32
01000000
00010000
00100000
00001000
00010000
00000100
00001000
00000010
,  // measure 33
00000100
00000001
00001000
00000100
00000010
00000000
00001100
00000000
,  // measure 34
00000010
00000001
00000100
00000010
00001000
00000010
00000100
00000001
,  // measure 35
00000100
00000010
00001000
00000100
00010000
00000000
00011000
00000000
,  // measure 36
00100000
01000000
10000000
00010000
01000000
00100000
10000000
00100000
,  // measure 37
01000000
00010000
10000000
01000000
00100000
00000000
01100000
00000000
,  // measure 38
00010000
00100000
00010000
00100000
00001000
00010000
00000100
00000000
,  // measure 39
00001100
00001010
00000110
00000101
,  // measure 40
00000001
00001000
00000100
00000000
00001000
00000001
00000100
00000000
,  // measure 41
00000110
00001010
00010010
00011000
,  // measure 42
00001000
00100000
01000000
10000000
00010000
01000000
00100000
01000000
,  // measure 43
00010000
11000000
01010000
01100000
,  // measure 44
00100000
01000000
00010000
10000000
01000000
00000000
00100000
01000000
,  // measure 45
10000000
01010000
01100000
10100000
,  // measure 46
10000000
00010000
00100000
00000000
00001000
00010000
00000100
00000000
,  // measure 47
00001000
00000010
00001000
00000100
,  // measure 48
00022000
00000000
00000000
00000000
,  // measure 49
00033000
00000000
00000000
00000000
;

//---------------dance-double - Blank----------------
#NOTES:
     dance-double:
     Blank:
     Easy:
     5:
     0.198599,0.215872,0.000000,0.450345,0.000000,142.000000,142.000000,0.000000,46.000000,0.000000,0.000000,0.198599,0.215872,0.000000,0.450345,0.000000,142.000000,142.000000,0.000000,46.000000,0.000000,0.000000:
// measure 0
00000000
00000000
00000000
00000000
,  // measure 1
00000000
00000000
00000000
00000000
,  // measure 2
00000000
00000000
00000000
00000000
,  // measure 3
00000000
00000000
00000000
00000000
,  // measure 4
00000100
00000100
00001000
00000000
,  // measure 5
00000001
00000100
00000010
00000000
,  // measure 6
00001000
00001000
00000100
00000000
,  // measure 7
00010000
00001000
00100000
00000000
,  // measure 8
00100000
00100000
10000000
00010000
,  // measure 9
00100000
00100000
00001000
00010000
,  // measure 10
00000100
00000100
00001000
00000010
,  // measure 11
00000100
00000100
00000001
00001000
,  // measure 12
00000002
00000000
00001003
00000000
,  // measure 13
00000020
00000000
00000130
00000000
,  // measure 14
00000002
00001003
00000020
00000130
,  // measure 15
00000002
00002003
00003200
00000000
,  // measure 16
00020300
00000000
00031000
00000000
,  // measure 17
00200000
00000000
01300000
00000000
,  // measure 18
20000000
30010000
02000000
03100000
,  // measure 19
20000000
30020000
00230000
00302000
,  // measure 20
00023000
00000000
00030100
00000000
,  // measure 21
00002000
00000000
00003001
00000000
,  // measure 22
00000200
00000301
00002000
00003100
,  // measure 23
00000020
00000032
00002003
00003020
,  // measure 24
00020030
00000000
00031000
00000000
,  // measure 25
00200000
00000000
01300000
00000000
,  // measure 26
20000000
30020000
02030000
03002000
,  // measure 27
00023000
00030020
00000230
00000302
,  // measure 28
00002003
00003200
00000320
00000032
,  // measure 29
00001003
00000001
00001000
00000001
,  // measure 30
00000010
00000100
00001000
00000001
,  // measure 31
00000100
00000010
00001000
00000000
,  // measure 32
00100000
01000000
10000000
00010000
,  // measure 33
01000000
00100000
10000000
00000000
,  // measure 34
00000100
00001000
00000001
00000100
,  // measure 35
00000010
00001000
00000100
00000000
,  // measure 36
00100000
01000000
10000000
00010000
,  // measure 37
01000000
00100000
01000000
00000000
,  // measure 38
00010000
00100000
00001000
00010000
,  // measure 39
00000100
00000200
00000000
00000300
,  // measure 40
00000010
00000001
00001000
00000010
,  // measure 41
00020000
00000000
00002000
00033000
,  // measure 42
00100000
01000000
10000000
00010000
,  // measure 43
01000000
02000000
00000000
03000000
,  // measure 44
00010000
00100000
00001000
00010000
,  // measure 45
00000200
00000000
00002300
00000000
,  // measure 46
00003010
00000100
00000001
00001000
,  // measure 47
00000200
00000000
00020300
00000000
,  // measure 48
00002000
00000000
00000000
00000000
,  // measure 49
00033000
00000000
00000000
00000000
;
